#TITLE:Programmed Universe;
#SUBTITLE:;
#ARTIST:kors k;
#TITLETRANSLIT:;
#SUBTITLETRANSLIT:;
#ARTISTTRANSLIT:;
#GENRE:;
#CREDIT:;
#BANNER:;
#BACKGROUND:;
#LYRICSPATH:;
#CDTITLE:;
#MUSIC:Programmed Universe.mp3;
#OFFSET:1.300;
#SAMPLESTART:78.680;
#SAMPLELENGTH:14.000;
#LASTBEATHINT:0.735;
#SELECTABLE:YES;
#BPMS:0.000=147.000
,123.000=73.500
,124.000=36.750
,125.000=73.500
,141.000=147.000
;
#STOPS:32.000=1.224,
172.000=0.408
;
#BGCHANGES:;
#KEYSOUNDS:;
#ATTACKS:;

//---------------dance-single - ----------------
#NOTES:
     dance-single:
     :
     Hard:
     11:
     0.670,0.870,0.223,0.197,0.818,478.000,25.000,22.000,0.000,1.000,0.000,0.670,0.870,0.223,0.197,0.818,478.000,25.000,22.000,0.000,1.000,0.000:
0000
0000
0000
0000
,
0000
0000
0000
0000
,
0000
0000
0000
0000
,
0000
0000
0000
0000
,
0000
0000
0000
0000
,
0001
0010
0100
1000
,
0001
0100
0010
1000
,
0100
0010
0001
0100
,
0110
0000
1010
0000
0100
1000
0010
0100
,
0001
0000
0000
0000
0010
0000
0000
0000
0100
0000
0000
0000
0000
1000
0000
1000
,
0010
0100
0001
0000
0010
0100
1000
0001
,
0100
0010
1000
0000
0100
0000
0010
0000
,
0001
0100
0010
0000
1000
0100
1000
0001
,
0100
0000
0010
0000
1000
0000
0000
0000
0100
0000
0000
0010
0001
0000
1000
0000
,
0010
0100
0001
0000
1000
0100
0010
0100
,
1000
0000
0001
0000
0100
0000
0000
0000
0010
0000
1000
0000
0100
0000
0000
0100
,
0020
0000
0000
0000
0031
1000
0100
0010
0100
0000
1000
0001
0000
1000
0100
0000
,
0010
0000
0001
0000
0000
0100
0001
1000
0010
0100
0001
1000
0100
0010
0001
0000
,
0100
0010
0000
0010
1000
0100
0010
0100
1000
0001
0010
0100
1000
0001
0100
0010
,
1000
0100
1000
0100
0010
0001
1000
0100
0010
0001
1000
0001
0100
0000
0100
0000
,
0010
0000
0000
0000
0000
0000
0000
0000
0000
0000
0000
0000
0000
0000
0000
0000
0000
0000
1000
0000
0000
0000
0000
0000
0000
0000
0000
0000
0000
0000
0000
0000
0000
0000
0000
0000
0100
0000
0000
0000
0000
0000
0000
0000
0010
0000
0000
0000
0000
0000
0000
0000
0000
0000
0000
0000
0000
0000
0000
0000
0001
0000
0000
0000
0000
0000
0000
0000
0000
0000
0000
0000
0100
0000
0000
0000
0000
0000
0000
0000
0000
0000
0000
0000
0010
0000
0000
0000
0000
0000
0000
0000
0000
0000
0000
0000
1000
0000
0000
0000
0000
0000
0000
0000
0000
0000
0000
0000
0001
0000
0000
0000
0000
0000
0000
0000
0000
0000
0000
0000
0100
0000
0000
0000
0000
0000
0000
0000
0000
0000
0000
0000
0010
0000
0000
0000
0000
0000
0000
0000
0000
0000
0000
0000
1000
0000
0000
0000
0000
0000
0000
0000
0000
0000
0000
0000
0100
0000
0000
0000
0000
0000
0000
0000
0000
0000
0000
0000
1000
0000
0000
0000
0000
0000
0000
0000
0000
0000
0000
0000
0010
0000
0000
0000
0000
0000
0000
0000
0000
0000
0000
0000
,
0100
0001
0010
0001
0010
0100
1000
0001
0100
0010
1000
0001
0010
0001
0000
0001
,
0100
0000
0101
0000
0100
0010
0000
0010
1000
0100
0010
0000
0001
0100
0000
0100
,
0010
1000
0001
0000
0011
0000
0110
0000
0100
1000
0000
1000
0001
0100
0020
0000
,
1030
0100
0010
0001
0200
0000
0000
0000
0010
0000
0000
0000
1000
0000
0000
0000
,
0010
1000
0301
0100
,
0010
1000
0100
0010
,
0001
0100
0010
1000
,
0100
0000
0000
0000
0210
0000
0000
0000
0000
0300
0021
0000
0000
0000
0000
0030
,
0202
0000
0000
0000
,
0000
0000
0000
0300
2000
0000
0000
0000
0000
0000
0000
0000
0000
0000
0000
0000
,
0000
0000
0000
0000
0000
0000
3000
0000
0013
0000
0000
0000
0100
0000
1000
0000
2100
0000
0000
0000
0000
0000
0000
0000
0000
0000
3100
0010
0100
0000
1000
0000
,
0020
0000
0230
0000
0000
0000
0000
0000
0301
0000
0001
0000
0020
0000
0100
0000
0130
1000
0010
0100
0002
0000
0000
0000
1003
0010
2000
0000
0000
0000
3001
0000
,
0100
0000
0001
0010
0100
1000
0010
0000
0100
0000
0000
0000
0001
0000
0100
0000
0110
0000
0000
0000
0000
0000
0000
0000
0010
0000
0000
0000
0010
0000
0000
0000
,
1010
0000
1000
0100
0010
0000
0001
0000
0100
0000
0010
0100
0001
0000
0010
0000
0200
0000
0000
0000
0000
0000
0000
0000
0000
0000
1300
0001
1000
0000
0020
0000
,
0230
0300
0102
0000
0000
0000
0000
0000
1003
0000
0000
0000
0000
0000
0100
0000
0000
0000
0000
0000
0001
0000
0000
0000
0000
0000
0100
0000
0000
0000
0000
0000
,
1000
0000
1000
0000
,
1000
0000
1000
0000
,
1000
0100
1000
0100
,
1000
1100
0100
0010
,
0001
1001
0100
0101
,
0011
0000
0000
0000
0110
0000
0100
0000
1000
0001
0000
0001
0010
0000
0100
0000
,
1000
0001
0000
0001
0200
0000
0000
0000
0020
0000
0000
0000
2000
0000
0000
0000
,
3330
0000
1000
0100
0000
0100
0010
0000
0010
0001
0000
0001
0100
0000
0010
0000
,
1010
0000
0000
1100
0000
0000
0110
0000
0000
0010
0001
0000
0100
0010
1000
0100
,
0010
0000
0001
0100
0000
0100
0010
0000
0010
1000
0000
1000
0100
0000
0010
0000
,
0011
0000
0000
0101
0000
0001
1000
0100
0010
0100
1000
0001
0100
0010
1000
0100
,
1000
0000
0001
0100
0000
0010
1000
0000
0100
0010
0000
0001
0100
0000
0010
0000
,
1000
0010
1000
0010
0100
0010
0100
0001
0100
0001
1000
0100
0010
0001
1000
0010
,
0100
0001
1000
0100
0020
0000
0000
0000
0031
0100
0010
0100
0001
1000
0100
0010
,
0001
0000
0000
1000
0000
0000
0100
0000
0000
0010
0000
0000
0001
0000
0000
0100
0000
0000
0010
0000
0000
0100
0000
0000
0010
0000
0000
1000
0000
0000
0010
0000
1000
0000
0001
0000
1000
0000
0000
0000
0000
0000
0110
0000
0000
0000
0000
0000
,
0001
0100
0000
0100
0010
0000
0010
0100
0000
0100
0001
0000
1000
0100
0010
0000
,
0001
0100
0000
0100
1000
0000
1000
0010
0000
0010
0001
0000
1000
0010
0100
0001
,
1000
0100
0000
0100
0010
0000
0010
0001
0000
0001
1000
0000
1000
0010
0100
0001
,
0010
0000
0100
1000
0100
1000
0001
0010
0100
1000
0001
0100
0010
1000
0001
0000
,
0101
0000
0100
0010
0000
0010
1000
0000
0001
0100
0000
0100
0010
0000
1000
0000
,
0100
0010
0001
1000
0100
0010
0001
0100
0010
1000
0001
0100
0010
1000
0001
1000
,
0001
0100
0010
1000
0010
1000
0001
0100
0010
1000
0100
1000
0100
0010
0001
0100
,
0001
0100
0010
1000
0100
0010
0001
0010
0001
1000
0010
0100
0001
0010
0100
0000
,
1001
0000
0000
0000
;

//---------------dance-single - ----------------
#NOTES:
     dance-single:
     :
     Challenge:
     11:
     0.742,1.000,0.214,0.232,0.956,531.000,24.000,26.000,0.000,2.000,2.000,0.742,1.000,0.214,0.232,0.956,531.000,24.000,26.000,0.000,2.000,2.000: // measure 0
0000
0000
0000
0000
,  // measure 1
0000
0000
0000
0000
,  // measure 2
0000
0000
0000
0000
,  // measure 3
0000
0000
0000
0000
,  // measure 4
0000
0000
0000
0000
,  // measure 5
1000
0100
0010
0001
,  // measure 6
0100
0010
1000
0001
,  // measure 7
0010
0100
1000
0001
,  // measure 8
0101
0000
0110
0000
0010
1000
0100
0010
,  // measure 9
0100
0000
1000
0000
0001
0000
0000
0000
0100
0000
0000
0000
0000
0010
0000
0010
,  // measure 10
1000
0100
0010
0000
0001
0100
0010
1000
,  // measure 11
0100
1000
0001
0000
0100
0000
0010
0000
,  // measure 12
1000
0100
0110
0000
0010
0001
1000
0010
,  // measure 13
0100
0000
0010
0000
1000
0000
0000
0000
0001
0000
0010
0100
1000
0000
0010
0000
,  // measure 14
0100
0001
1000
0000
0100
0000
0010
0000
,  // measure 15
0001
0000
0000
0000
0100
0000
0000
0000
0010
0000
0000
0000
1000
0000
0000
1000
,  // measure 16
0200
0000
0000
0000
0310
0001
1000
0100
0010
0001
0100
0010
0000
0010
1000
0001
,  // measure 17
0100
0010
1000
0100
0010
0001
0010
0001
1000
0100
1000
0001
0010
0100
0000
1000
,  // measure 18
0001
2000
0000
3001
0100
0010
1000
0100
0010
0001
0100
0001
0010
0001
0100
0010
,  // measure 19
1000
0100
0010
0100
1000
0001
0010
0100
1000
0001
0100
0010
1000
0000
0100
0000
,  // measure 20
0210
0000
0001
0000
1300
0010
0100
0001
1000
0010
0100
0001
0100
0001
1000
0010
,  // measure 21
1000
0000
0000
0001
0000
0000
0010
0000
0000
0001
0000
0000
0010
0000
0000
0100
0000
0000
1000
0000
0000
0001
0000
0000
0100
0000
0000
0010
0000
0000
1000
0000
0010
0000
1000
0000
0010
0000
0000
0000
0000
0000
2100
0000
3000
0000
0000
0000
,  // measure 22
1002
0000
0003
0000
0000
0000
0201
0000
0300
0000
0000
0000
0100
0000
0000
0010
0000
0000
1000
0000
0000
0001
0000
0000
0010
0000
0000
0100
0000
0000
1000
0000
0000
0010
0000
0000
0100
0000
0000
0001
0000
0000
1000
0000
0000
0100
0000
0000
,  // measure 23
0010
0001
0100
0000
0101
0000
1010
0000
1000
0100
0000
0100
0010
0001
2000
0000
,  // measure 24
3010
0100
0001
1000
0200
0000
0000
0000
0010
0000
0000
0000
0001
0000
0000
0000
,  // measure 25
0010
1000
0310
0001
,  // measure 26
0100
0010
1000
0100
,  // measure 27
1000
0010
0100
0001
,  // measure 28
0010
0000
0210
0000
0300
2100
0000
3000
,  // measure 29
2002
0000
0000
0000
,  // measure 30
0000
0003
0200
0000
0000
0000
0000
0000
,  // measure 31
0000
0000
0000
0000
0000
0000
3000
0000
0000
0000
0000
0000
0310
0000
0000
0000
0000
0000
0001
0000
0000
0100
0000
0000
0120
0000
0000
0000
0000
0000
0000
0000
0000
0000
0000
0000
0000
0000
0000
1030
0010
1000
0010
0000
0000
0100
0000
0000
,  // measure 32
0001
0000
0000
0000
0000
0000
0000
0000
0000
0000
0000
0000
0020
0000
0000
0000
0000
0000
0000
0000
0000
0000
0000
0000
0000
0000
0000
0000
0000
0000
0000
0000
0000
0000
0000
0000
0000
0000
0000
0000
0000
0000
0000
0000
0000
0000
0000
0000
0130
0000
0000
0000
0000
0000
0000
0000
0000
0000
0000
0000
0100
0000
0000
0000
0000
0000
0000
0000
0000
0000
0000
0000
1000
0000
0000
0000
0000
0000
0000
0000
0000
0000
0000
0000
1000
0000
0000
0000
0000
0000
0000
0000
0000
0000
0000
0000
0001
0000
0000
0000
0000
0000
0100
0000
0000
0000
0000
0000
0010
0000
0000
0000
0000
0000
1000
0000
0000
0000
0000
0000
0200
0000
0000
0000
0000
0000
0000
0000
0000
0000
0000
0000
0310
0000
0000
0000
0000
0000
0001
0000
0000
0000
0000
0000
1000
0000
0000
0000
0001
0000
0000
0000
1000
0000
0000
0000
0002
0000
0000
0000
0000
0000
0000
0000
0000
0000
0000
0000
0000
0000
0000
0000
0000
0000
0000
0000
0000
0000
0000
0000
0103
0000
0000
0000
0000
0000
0000
0000
0000
0000
0000
0000
,  // measure 33
0010
0000
1000
0100
1000
0010
0200
0000
0301
0000
0000
0000
0010
0000
0100
0000
1000
0100
0010
0001
1000
0100
0010
0001
0100
0010
1000
0001
0200
0000
0010
0000
,  // measure 34
0301
0000
0000
0000
0000
0000
0000
0000
0000
0000
0000
0000
0000
0000
0000
0000
0000
0000
0010
0000
0000
0000
0000
0000
0100
0000
0000
0000
0000
0000
0000
0000
0000
0000
0000
0000
1000
0000
0000
0000
0000
0000
0000
0000
0000
0000
0000
0000
0000
0000
0000
0000
0000
0000
0000
0000
0000
0000
0000
0000
0010
0000
0000
0000
0100
0000
0000
0000
0010
0000
0000
0000
0100
0000
0000
0000
0000
0000
0000
0000
0000
0000
0000
0000
0001
0000
0000
0000
0000
0000
0000
0000
0000
0000
0000
0000
0020
0000
0000
0000
0000
0000
0000
0000
0000
0000
0000
0000
0200
0000
0000
0000
0000
0000
0000
0000
0000
0000
0000
0000
0000
0000
0000
0000
0000
0000
0000
0000
0000
0000
0000
0000
0000
0000
0000
0000
0000
0000
0000
0000
0000
0000
0000
0000
0000
0000
0000
0000
0000
0000
0030
0000
0000
0000
0000
0000
1300
0000
0000
0000
0001
0000
0000
0000
1000
0000
0000
0000
0001
0000
0000
0000
0000
0000
0000
0000
0000
0000
0000
0000
0010
0000
0000
0000
0000
0000
0000
0000
0000
0000
0000
0000
,  // measure 35
0200
0000
2000
0000
0000
0000
0000
0300
3001
0000
0000
0000
0000
0000
0101
0000
0000
0000
0000
0000
0100
0000
0000
0000
0000
0000
0110
0000
0000
0000
0000
0000
,  // measure 36
0010
1000
0000
0001
0000
1000
0000
0001
,  // measure 37
0000
1000
0001
1000
0100
0010
0001
1000
,  // measure 38
0001
0100
0010
1000
0001
1000
0100
0010
,  // measure 39
0100
0000
0010
0000
0011
0000
0000
0000
0001
0100
0001
0100
0010
0100
0010
1000
,  // measure 40
0010
1000
0100
0000
1100
0000
1000
0100
1000
0001
0010
0000
0101
0000
0100
0000
,  // measure 41
0110
0000
0000
0010
1000
0000
0100
0000
0010
0001
0000
0001
0100
0000
0100
0000
,  // measure 42
0010
1000
0000
1000
0002
0000
0000
0000
0200
0000
0000
0000
0020
0000
0030
0000
,  // measure 43
1303
0000
0100
0010
0000
0010
1000
0000
1000
0100
0000
0100
0010
0000
0001
0000
,  // measure 44
0101
0000
0000
0110
0000
0000
1010
0000
0000
1000
0100
0010
0001
1000
0001
0000
,  // measure 45
0010
0100
0000
0100
1000
0000
1000
0010
0000
0010
0100
0000
0100
0001
0010
0100
,  // measure 46
0010
0001
1000
0100
0010
0001
0010
0100
1000
0001
0100
0010
1000
0100
1000
0001
,  // measure 47
0100
0000
0100
0010
0000
0010
1000
0000
1000
0001
0000
0001
0010
0000
0100
0000
,  // measure 48
1000
0001
0010
0100
1000
0001
0100
0010
1000
0100
0010
0100
1000
0001
0010
0000
,  // measure 49
0010
0100
1000
0001
0101
0000
0100
0010
0000
0010
1000
0010
0100
0001
1000
0100
,  // measure 50
0010
0000
0000
0001
0000
0000
1000
0000
0000
0010
0000
0000
0100
0000
0000
0001
0000
0000
0010
0000
0000
0001
0000
0000
0010
0000
0100
0000
1000
0000
0100
0000
1000
0000
0100
0000
1000
0000
0000
0000
0000
0000
0100
0000
0000
0000
0000
0000
,  // measure 51
0010
0001
0000
0001
0010
0000
0100
1000
0000
1000
0100
0000
0100
0010
0001
0000
,  // measure 52
0001
0100
0000
0100
0010
0000
1000
0001
0000
0100
0000
0010
0000
1000
0100
0010
,  // measure 53
0001
0000
0001
0100
0000
0100
0010
0000
0010
1000
0000
1000
0001
0000
1000
0000
,  // measure 54
0100
0010
0000
0010
0001
1000
0001
0100
0001
1000
0100
0010
0100
1000
0001
0100
,  // measure 55
0010
0000
0010
1000
0000
1000
0100
0000
0100
1000
0000
1000
0010
0000
0100
0000
,  // measure 56
0001
0010
0100
1000
0001
0010
0100
1000
0010
0100
0001
1000
0010
0100
0001
1000
,  // measure 57
0100
0010
0001
1000
0100
0010
0001
0100
0010
1000
0001
0100
0010
1000
0001
0010
,  // measure 58
0001
1000
0010
1000
0001
0100
0001
1000
0100
1000
0010
0100
0010
1000
0001
0000
,  // measure 59
4004
0000
0000
3003
0000
0000
0000
0000
;
