#TITLE:Onestop;
#SUBTITLE:;
#ARTIST:David Yackly;
#TITLETRANSLIT:;
#SUBTITLETRANSLIT:;
#ARTISTTRANSLIT:;
#GENRE:;
#CREDIT:;
#BANNER:;
#BACKGROUND:;
#LYRICSPATH:;
#CDTITLE:;
#MUSIC:onestop.ogg;
#OFFSET:-0.294000;
#SAMPLESTART:2.800000;
#SAMPLELENGTH:12.000000;
#SELECTABLE:YES;
#BPMS:0.000000=102.000000
,0.500000=81.000000
,51.500000=100.000000
,95.500000=144.000000
,136.000000=181.000000
,171.000000=135.000000
,171.500000=82.000000
,174.750000=76.000000
,175.000000=65.000000
,175.250000=54.000000
,175.500000=48.000000
,175.750000=62.000000
,191.750000=144.000000
,207.750000=120.000000
,242.750000=46.000000
,243.750000=82.000000
,277.250000=49.000000
,278.250000=79.000000
,310.000000=78.000000
,316.500000=79.000000
;
#STOPS:
;
#BGCHANGES:;
#KEYSOUNDS:;
#ATTACKS:;

//---------------dance-single - Raymond Tracer----------------
#NOTES:
     dance-single:
     :
     Challenge:
     11:
     0.520915,0.618110,0.238512,0.339576,0.830749,759.000000,59.000000,84.000000,4.000000,0.000000,0.000000,0.520915,0.618110,0.238512,0.339576,0.830749,759.000000,59.000000,84.000000,4.000000,0.000000,0.000000:
// measure 0
0000
0000
0000
0000
0000
0000
0000
1000
,  // measure 1
0001
0010
0001
0000
1000
0010
1000
0000
0001
0010
0100
1000
0001
0100
0010
0000
,  // measure 2
1000
0100
1000
0000
0001
0100
0001
0000
0010
0100
1000
0010
0100
0001
2000
0000
,  // measure 3
0000
0000
0000
0000
0000
0000
0000
0000
3100
0000
0010
0000
0000
0001
2000
0000
,  // measure 4
0000
0000
0000
0000
0000
0000
0000
0000
3010
0000
0100
0000
0001
0000
0000
0000
1000
0000
0100
0000
0010
0000
0001
0000
1000
0000
0001
0100
0001
0000
0000
0000
,  // measure 5
1000
0100
1000
0000
0001
0100
0010
0000
1000
0100
1000
0001
0010
0100
2000
0000
,  // measure 6
0000
0000
0000
0000
0000
0000
0000
0000
3001
0000
0200
0000
0000
0310
2000
0000
,  // measure 7
0000
0000
0000
0000
0000
0000
0000
0000
0000
0000
0000
0000
0000
0000
0000
3001
0010
0001
2000
0000
0000
0000
0000
0000
,  // measure 8
0000
0000
0000
0000
0000
0000
0000
0000
0000
0000
0000
0000
3010
0100
0001
1000
0100
0010
0001
1000
0100
0210
0000
0000
,  // measure 9
0000
0000
0010
0000
0000
0000
0000
0000
2300
0000
3020
0000
0000
0130
0001
0000
,  // measure 10
0000
1000
0001
0010
0100
2000
0000
0000
0000
0000
0000
0000
3001
0100
0010
1000
0001
0010
0100
1000
0001
0012
0000
0000
,  // measure 11
0000
0000
0000
0000
0000
0000
0000
0000
0000
0000
0000
0000
0000
0000
0000
0000
0000
0000
0000
0000
0000
0000
0000
0000
0000
0000
0000
0000
0000
0000
0000
0000
0000
0000
0000
0000
0003
0000
0010
0000
0000
0100
0000
0000
2000
0000
0000
0000
,  // measure 12
0000
0000
0000
0000
0000
0000
0000
3001
,  // measure 13
0100
0000
0000
0000
0010
0000
1000
0000
0000
0000
0000
0000
0100
0000
0000
0000
0000
0000
0000
0000
0000
0010
0000
0000
0000
0000
0000
0000
0001
0000
1000
0000
0000
0000
0000
0000
0010
0000
0000
0000
0100
0000
0001
0000
0000
0000
0000
0000
,  // measure 14
0000
0000
0000
0020
0000
0000
0000
0000
0000
0000
0000
0000
0130
0000
0000
0000
1000
0000
0100
0000
0000
0000
0010
0000
0001
0000
0000
0000
1000
0000
0010
0000
0000
0000
0000
0000
0110
0000
0000
0000
0100
0000
0001
0000
0000
0000
0000
0000
,  // measure 15
0010
0000
0000
0000
0100
0000
1000
0000
0000
0000
0000
0000
0001
0000
0000
0000
0000
0000
0000
0000
0000
0100
0000
0000
0000
0000
0000
0000
0010
0000
1000
0000
0000
0000
0000
0000
0100
0000
0000
0000
0010
0000
0000
0000
0000
0000
0000
0000
,  // measure 16
0001
0000
0000
1000
0000
0001
1000
0000
0010
1000
0000
0100
1000
0000
0001
1001
0000
0000
0000
0000
0000
0110
0000
0000
,  // measure 17
0100
0000
0000
0000
0001
0000
0100
0000
0000
0000
0000
0000
0020
0000
0000
0000
0000
0000
0000
0000
0000
0030
1000
0000
0100
0000
0000
0000
0010
0000
0001
0000
0000
0000
0000
0000
0100
0000
0000
0000
0001
0000
0100
0000
0010
0000
1000
0000
,  // measure 18
0001
0100
0010
1000
0100
0010
0001
1000
0100
0010
0001
1000
0100
1000
0001
0100
0001
0010
0001
1000
0010
1000
0000
0100
,  // measure 19
0010
0000
0000
0000
0001
0000
2000
0000
0000
0000
0000
0000
0010
0000
0000
0000
0000
0000
0000
0000
0000
0010
0000
0000
0000
0000
0000
0000
0000
0000
3010
0000
0000
0000
0000
0000
0100
0000
0000
0000
0001
0000
0000
0000
0000
0000
0000
0000
,  // measure 20
0010
0000
0100
1000
0000
0001
0010
0000
0001
0000
0000
0000
1000
0000
0001
0010
0000
0001
0100
0000
0001
1010
0000
0000
,  // measure 21
0000
0000
1000
0100
0000
0000
1001
0000
0000
0000
0000
0001
0100
0000
0010
1000
0000
0000
0000
0000
0000
0100
0010
0100
,  // measure 22
0010
0001
1000
0001
1000
0100
0010
0001
1000
0100
1000
0001
0010
0001
1000
0010
1000
0001
0010
0000
0011
0000
0000
0000
,  // measure 23
1010
0000
0000
1100
0000
0000
0101
0000
0000
0000
0000
0000
0000
0000
1001
0000
,  // measure 24
0000
0000
0000
0001
0000
0100
0000
0000
0000
0000
0000
0000
0010
0000
0000
0000
0000
0000
0010
0000
1000
0000
0000
0000
,  // measure 25
0000
0000
0000
0001
0000
0000
0000
0000
0000
0000
0000
0010
0000
0000
0000
0000
0000
0000
0100
0000
0000
0000
0000
1000
,  // measure 26
0000
0000
0000
0000
0000
0000
0000
0000
0000
0001
0000
0000
0000
0000
0000
0000
0000
0100
0000
0000
0000
0000
0000
0000
,  // measure 27
0010
0000
0000
0000
0000
0000
1000
0001
1000
0001
0000
0000
0000
0000
0200
0000
0000
0000
0000
0000
0000
0000
0000
0000
,  // measure 28
0000
0000
0000
0000
0000
0000
0000
0000
0000
0000
0000
0000
0000
0000
0300
0010
0000
0000
0000
0000
0000
0000
1000
0000
,  // measure 29
0000
0000
0000
0000
0000
0000
0001
0000
0000
0000
0000
0010
0000
0001
0000
0000
0000
0000
0100
0000
0001
0000
0000
0000
,  // measure 30
0000
1000
0000
0000
0000
0000
0010
0000
0000
0100
0001
0000
,  // measure 31
0000
1000
0000
0000
0000
0000
0000
0000
0100
0010
0000
0000
,  // measure 32
0010
0001
0000
0000
0001
0100
0010
2000
0000
0000
0000
0000
,  // measure 33
0000
0000
0000
0001
0001
0000
0000
0010
0010
0000
0000
0000
,  // measure 34
3100
0010
0001
0010
0100
1000
0001
0102
,  // measure 35
0000
0000
0000
0103
0000
0000
0010
0000
1000
0000
0000
0200
,  // measure 36
0000
0000
0000
0310
0000
0001
1000
0000
0010
0100
0000
0100
,  // measure 37
0000
0000
0001
0000
0000
0000
0010
0000
0000
0100
0000
0000
,  // measure 38
1200
0000
0000
0000
0000
0000
0000
0000
0300
2001
0000
0000
0000
3000
0000
0000
0001
0000
0100
0000
0000
0000
0100
0000
,  // measure 39
0000
0000
0020
0000
0000
0000
2030
3000
,  // measure 40
0100
0000
0100
0010
0000
0010
0001
0000
0001
0000
0000
0000
,  // measure 41
1001
0000
0101
0000
,  // measure 42
0110
0000
0000
0000
0000
0000
1010
0000
0000
0000
0000
0000
2002
0000
3003
0001
,  // measure 43
0100
0010
1000
0100
0010
0001
1000
0010
0100
0001
0010
0100
1000
0001
0100
0002
,  // measure 44
0000
0000
0000
0013
0100
1000
0000
0002
0000
0100
0000
2003
0000
0010
0000
3002
,  // measure 45
0000
0013
0100
2000
0000
3010
0100
0002
0000
0000
1003
0200
0000
0001
0000
0320
,  // measure 46
0000
0000
0000
0032
0000
0000
0000
0000
0000
0103
0000
0000
0000
0000
0000
0010
0000
0000
1000
0000
0000
0001
0000
0000
1000
0001
1000
0001
1000
0001
1000
0001
1000
0001
2000
0000
0000
0000
0000
0000
3001
0000
0000
0000
0000
0000
0010
0000
,  // measure 47
0000
0000
0000
0000
0100
0000
0000
0000
0000
0000
1000
0000
0000
0000
0000
0000
0001
0000
0000
0100
0000
0000
0020
0000
0000
0000
0000
0000
0000
0000
0000
0000
0000
0000
0000
0000
0000
0000
0000
0000
0000
0000
0000
1030
0010
1000
0000
0000
,  // measure 48
0000
0001
0000
0001
0000
1100
0000
1100
0000
0010
0000
0010
0000
0101
0000
0101
,  // measure 49
0000
1000
0000
1000
0000
0011
0000
0011
0000
0100
0000
0100
0000
0010
1000
0001
,  // measure 50
0100
0010
1000
0001
0100
0010
1000
0001
0010
0100
1000
0001
0010
0100
1000
0010
,  // measure 51
0100
0001
0000
0010
0000
0110
0000
1100
0000
0011
0000
1001
0000
0000
0000
1000
,  // measure 52
0000
0000
0000
0010
0000
0100
0000
0001
0000
0010
0000
0100
0000
1000
0000
0001
0000
0100
0000
0010
0000
1000
0000
0001
,  // measure 53
1000
0001
1000
0100
0010
0100
0010
0001
1000
0100
1000
0100
0010
0000
0000
0001
0000
0010
0000
0000
0000
0001
0000
1000
,  // measure 54
0010
1000
0010
1000
0000
0001
0000
0000
0000
0100
0000
0001
0000
0000
0000
0010
0000
0100
0000
0000
0000
1100
0000
0000
,  // measure 55
0000
0000
0000
0000
0000
0000
0000
0000
0000
0000
0000
0000
0000
0000
0000
0000
0000
0000
0000
0000
0000
0000
0000
0000
1000
0000
0000
0000
0000
0000
0000
0000
0001
0000
0000
0000
0000
0000
0000
0000
1000
0000
0000
0000
0000
0000
0000
0000
0001
0000
0000
0000
0000
0000
0000
0000
1000
0000
0000
0000
0000
0000
0000
0000
0001
0000
0000
0000
0000
0000
0000
0000
1000
0000
0000
0000
0000
0000
0000
0000
0000
0000
0000
0000
0000
0000
0000
0000
0000
0000
0000
0000
0000
0000
0000
0000
0000
0000
0000
0000
0000
0000
0000
0000
0000
0000
0000
0000
0000
0000
0000
0000
0000
0000
0000
0000
0000
0000
0000
0000
0010
0000
0000
0000
0000
0000
0000
0000
0000
0000
0000
0000
0000
0000
0000
0000
0100
0000
0000
0000
0000
0000
0000
0000
0000
0000
0000
0000
0000
0000
0000
0000
0000
0000
0000
0000
0000
0000
0000
0000
0000
0000
0000
0000
0000
0000
0000
0000
0001
0000
0000
0100
0000
0000
0000
0000
0000
0000
0000
0000
0000
0000
0000
0000
0000
0000
0000
0000
0000
0000
0000
0000
,  // measure 56
0000
0000
0000
0000
0000
0000
0000
0000
0001
0000
0000
0000
1000
0000
0000
0000
0000
0000
0000
0000
0000
0000
0000
0000
0000
0000
0000
0000
0000
0000
0000
0000
0000
0000
0000
0000
0000
0000
0000
0000
1000
0000
0100
0000
0000
0000
0000
0000
0000
0000
0000
0000
0000
0000
0000
0000
0000
0000
0000
0000
0000
0000
0000
0000
0000
0000
0000
0000
0000
0000
0000
0000
0100
0000
0000
0000
0000
0000
0000
0000
0000
0000
0000
0000
0000
0000
0000
0000
0110
0000
0000
0000
0000
0000
0000
0000
0000
0000
0000
0000
0000
0000
0000
0000
0010
0000
0000
0000
0000
0000
0000
0000
0000
0000
0000
0000
0000
0000
0000
0000
0001
0000
0000
0000
0000
0000
0000
0000
0000
0000
0000
0000
0000
0000
0000
0000
0101
0000
0000
0000
0000
0000
0000
0000
0000
0000
0000
0000
0000
0000
0000
0000
0000
0000
0000
0000
0000
0000
0000
0000
0000
0000
0000
0000
0000
0000
0000
0000
0100
0000
0000
0000
0000
0000
0000
0000
0000
0000
0000
0000
0000
0000
0000
0000
0010
0000
0000
0000
0000
0000
0000
0000
,  // measure 57
0000
0010
0000
1000
0000
1000
0000
0100
0000
0010
0000
0010
0000
0001
0000
0001
0000
0100
0000
0010
0000
0010
0000
1000
,  // measure 58
0000
1000
0000
0001
0000
0100
M00M
0100
0000
1000
0000
0001
0000
1000
0000
0010
M00M
0010
0000
0001
0000
0100
0000
0110
,  // measure 59
0000
0000
0000
0010
0000
1000
0001
1000
0001
0000
0000
0010
0100
0010
0100
0000
0000
1000
0000
0001
0000
0100
0000
0010
,  // measure 60
0000
0000
0000
0000
1010
0000
0000
0000
0000
0000
1001
0000
0000
0000
0000
0000
0000
0000
0012
0000
0000
0000
0000
0000
0000
0000
0000
0000
0000
0000
0000
0000
0000
2003
0000
0000
0000
0000
0000
0000
0000
0000
0000
0000
0000
3100
0000
0000
,  // measure 61
0000
1000
0000
0100
0000
1000
0000
0100
0000
1000
0000
0100
0000
1000
0000
0100
,  // measure 62
0000
0000
0000
0000
0000
1000
0000
0000
0000
0000
0000
0000
0000
1000
0000
0000
0000
0000
0000
0000
0000
1000
0000
0000
0000
0000
0000
0000
0000
2000
0000
0000
0000
0000
0000
0000
0000
0000
0000
0000
0000
0000
0000
0000
0000
3001
0000
0000
,  // measure 63
0000
0000
0000
0010
0000
0000
0000
0000
0000
0100
0000
0000
1000
0000
0000
0001
,  // measure 64
0000
0000
0000
0000
0000
0000
0000
0000
0000
0000
0000
0000
0100
0000
0000
0000
0000
0000
0000
0000
0000
0000
0000
0000
0000
0000
0000
0000
0000
0000
0010
0000
0000
0000
0000
0000
0000
0000
0000
0000
0000
0000
0000
0000
0000
0000
0000
0000
1000
0000
0000
0000
0000
0000
0000
0000
0000
0000
0000
0000
0000
0000
0000
0000
0100
0000
0000
0000
0000
0000
0000
0000
0000
0000
0000
0000
0010
0000
0000
0000
0000
0000
0000
0000
0000
0000
0000
0000
0001
0000
0000
0000
0000
0000
0000
0000
0000
0000
0000
0000
0100
0000
0000
0000
0000
0000
0000
0000
0000
0000
0000
0000
0000
0000
0000
0000
0010
0000
0000
0000
0000
0000
0000
0000
0000
0000
0000
0000
1000
0000
0000
0000
0000
0000
0000
0000
0000
0000
0000
0000
0100
0000
0000
0000
0000
0000
0000
0000
0000
0000
0000
0000
1000
0000
0000
0000
0000
0000
0000
0000
0000
0000
0000
0000
0001
0000
0000
0000
0000
0000
0000
0000
0000
0000
0000
0000
0100
0000
0000
0000
0000
0000
0000
0000
0002
0000
0000
0000
0000
0000
0000
0000
,  // measure 65
0000
0000
0000
0023
0000
0000
0000
0000
0000
0000
0000
0230
0000
0000
0000
1300
,  // measure 66
0000
0001
0000
0000
0000
0010
0000
0000
0000
0001
0000
0000
0000
0010
0000
0000
0000
0001
0000
0000
0000
0010
0000
0100
0000
1000
0000
0001
0000
0100
0000
0002
,  // measure 67
0000
0000
0000
2003
0000
0000
0000
0000
0000
0000
0000
3002
0000
0000
0000
0203
,  // measure 68
0000
0000
0000
0000
0000
0000
0000
0000
0000
0000
0000
0000
0000
0000
0000
0000
0310
0000
0000
0000
0000
0000
0000
0000
0000
0000
0000
0000
0000
0000
0000
0000
0000
0000
0000
0000
0000
0000
0000
0000
0000
0000
1000
0000
0000
0000
0000
0000
0000
0000
0000
0000
0000
0000
0000
0000
0000
0000
0000
0000
0000
0000
0000
0000
0000
0000
0000
0000
0000
0000
0000
0000
0010
0000
0000
0000
0000
0000
0000
0000
0000
0000
0000
0000
0000
0000
0000
0000
0000
0000
0000
0000
0000
0000
0000
0000
0000
0000
0000
0000
0000
0000
1000
0000
0000
0000
0000
0000
0000
0000
0000
0000
0000
0000
0000
0000
0000
0000
0000
0000
0000
0000
0000
0000
0000
0000
0001
0000
0000
0000
0000
0000
0000
0000
0000
0000
0000
0000
0000
0000
0000
0000
0000
0000
0000
0000
0000
0000
0000
0000
0000
0000
0000
0000
0000
0000
0000
0000
0000
0000
0000
0000
0100
0000
0000
0000
0000
0000
0000
0000
0000
0000
0000
0000
0000
0000
0000
0000
0000
0000
0000
0000
0000
0000
0000
0000
0000
0000
0000
0000
0000
0000
,  // measure 69
0000
0001
0000
0000
0000
0000
0000
0000
0000
0000
2002
0000
0000
0000
0000
0000
0000
0000
3000
0000
0000
0000
0000
0000
0000
0000
0000
0000
0000
0000
0000
0000
,  // measure 70
1003
0100
0010
0000
0000
0000
0001
0000
0101
0000
0000
0000
0100
0000
0110
0000
,  // measure 71
0000
1010
0000
0000
1100
0000
0000
0000
,  // measure 72
0100
0000
0010
0000
0001
0000
0000
0000
0000
0000
0000
0000
1000
0001
0000
0000
0101
0000
0000
0000
0000
0000
0000
0000
0100
0000
0000
0000
0110
0000
0000
0000
,  // measure 73
0000
0000
0000
0000
0000
0000
1010
0000
0000
0000
0000
0000
1000
0000
0000
0000
0000
0000
1000
0100
0000
0000
0000
0000
0110
0000
0000
0000
0000
0000
0000
0000
0000
0000
0000
0000
0000
0000
0000
0000
0000
0000
0000
0000
0000
0000
0000
0000
,  // measure 74
0010
0001
0100
0000
0000
0000
0001
0000
0011
0000
0000
0000
0010
0000
0000
0110
,  // measure 75
0000
0000
0000
0000
1100
0000
0000
0000
0000
0000
1000
0001
0100
0000
0000
0000
0110
0000
0000
0000
0000
0000
0000
0000
1010
0000
0000
0000
0000
0000
0000
0000
,  // measure 76
1000
0001
0011
0000
0000
0000
0100
0000
0110
0000
0000
0000
1001
0000
0000
0000
,  // measure 77
0000
1100
1000
0001
0101
0000
0000
0100
,  // measure 78
0100
0000
0010
0000
0000
1000
0001
0000
1000
0010
0100
0001
0010
0100
1000
0001
,  // measure 79
0100
0010
2000
0000
0000
3000
0001
0000
0020
0000
0000
0000
0130
0000
2000
0000
,  // measure 80
0000
3020
0000
0000
0230
0000
0000
0000
,  // measure 81
0301
1000
0020
0000
0000
0000
0130
0000
0002
0000
0000
0000
1003
0000
0200
0000
,  // measure 82
0000
0000
0310
0000
0001
0100
0001
0010
0200
0000
0000
0000
0000
0000
0000
0000
,  // measure 83
1000
1000
2300
0000
0000
0000
3001
0000
0201
0000
0000
0000
0320
0000
1030
0100
,  // measure 84
0010
0000
0200
0000
0000
1300
0001
0100
0020
0000
0000
0000
1030
0100
0010
0002
,  // measure 85
0000
0000
0000
0000
0103
0010
2000
0000
3100
1000
0000
0100
0020
0000
0000
0000
,  // measure 86
0032
0000
0000
0000
1003
0010
0100
0001
0020
0000
0000
0000
0000
0000
0000
0000
,  // measure 87
0000
0000
0230
0000
1300
0001
0100
0000
0100
0001
0000
0000
0001
0010
0000
0000
,  // measure 88
0010
0000
0000
0100
0000
0000
1000
0000
0010
0000
0100
0000
0001
0000
0010
0000
0100
0000
1000
0000
0001
0000
0010
0000
0001
0000
1000
0000
0010
0000
1000
0000
0100
0000
1000
0000
0001
0000
0100
0000
0001
0000
0010
0000
0000
0100
0000
0000
,  // measure 89
1000
0001
0101
0000
0000
0000
0000
0100
0020
0000
0000
0000
1000
0000
2030
0000
,  // measure 90
0000
0000
3001
0000
0000
0000
0000
0010
0200
0000
0000
0000
1300
0001
0020
0000
,  // measure 91
0000
0000
0000
0000
0130
2000
0000
3001
0100
0020
0000
1030
0001
0010
0100
1000
,  // measure 92
0001
0100
0110
0000
0000
0000
0010
1000
0002
0000
0000
0000
0013
0100
0000
0100
,  // measure 93
2000
0000
0000
0000
0000
0000
0000
0000
3002
0000
0000
0000
0000
0100
0013
1000
,  // measure 94
0100
0020
0000
0031
0100
0002
0000
0023
0000
0230
0000
1300
0001
0200
0000
0000
,  // measure 95
0000
0320
0000
0000
0000
2030
0000
0000
0000
3000
0000
0000
0000
0000
0000
0000
;
