#TITLE:McRoll'd 3;
#SUBTITLE:;
#ARTIST:Internet;
#TITLETRANSLIT:;
#SUBTITLETRANSLIT:;
#ARTISTTRANSLIT:;
#GENRE:;
#CREDIT:;
#BANNER:;
#BACKGROUND:;
#LYRICSPATH:;
#CDTITLE:;
#MUSIC:McRoll'd 3.ogg;
#OFFSET:0.000000;
#SAMPLESTART:19.640039;
#SAMPLELENGTH:11.000000;
#SELECTABLE:YES;
#DISPLAYBPM:86.070000:172.139999;
#BPMS:0.000000=172.139999
,62.250000=86.070000
,65.750000=172.139999
,90.250000=86.070000
,92.000000=172.139999
,309.250000=86.070000
,317.500000=172.139999
,339.500000=86.070000
,344.000000=172.139999
,367.000000=344.279999
,367.500000=172.139999
,367.750000=86.070000
,372.000000=172.139999
,388.000000=688.559998
,388.520844=172.139999
,395.000000=344.279999
,395.500000=172.139999
,395.750000=86.070000
,400.000000=172.139999
;
#STOPS:62.250000=0.174000,
90.250000=0.174000,
309.250000=0.174000,
388.500000=0.212000,
436.500000=0.697000
;
#BGCHANGES:;
#KEYSOUNDS:;
#ATTACKS:;

//---------------dance-single - Raymond Tracer----------------
#NOTES:
     dance-single:
     :
     Challenge:
     15:
     0.963321,1.000000,0.384156,0.298374,1.000000,1625.000000,103.000000,80.000000,0.000000,0.000000,4.000000,0.963321,1.000000,0.384156,0.298374,1.000000,1625.000000,103.000000,80.000000,0.000000,0.000000,4.000000:
// measure 0
0000
0000
0000
0000
,  // measure 1
0000
0000
0000
0000
,  // measure 2
0000
0000
0000
0000
,  // measure 3
0000
0000
0000
0000
,  // measure 4
0000
0000
0000
1001
0000
0000
0000
0000
0000
0000
0000
0000
0000
0000
0000
0000
0000
0000
0000
0000
0000
0000
0001
0000
0000
0000
0000
0000
0101
0000
0000
0000
0000
0000
0000
0000
0000
0000
0000
0000
0000
0000
0000
0000
0000
0000
0000
0000
,  // measure 5
0100
0000
0000
0000
0000
0000
0110
0000
0000
0000
0000
0000
0000
0000
0000
0000
0000
0000
0000
0000
0000
0000
0010
0000
0000
0000
0000
0000
1010
0000
0000
0000
0000
0000
0000
0000
0000
0000
0000
0000
0000
0000
0000
0000
0000
1000
0000
0000
,  // measure 6
0000
0100
0000
0010
0000
0001
0000
0100
0000
0010
0000
0100
0000
0001
0000
1000
,  // measure 7
0000
0010
0000
0100
0000
0001
0000
0010
0000
0100
0000
1000
0000
0010
0100
0001
,  // measure 8
1000
0010
0000
0010
0100
0000
0100
0001
0000
1000
0100
0000
0100
0010
0000
0010
,  // measure 9
0001
1000
0000
0000
0000
0010
0000
0000
0000
1000
0000
0001
0000
0000
0000
0000
,  // measure 10
0000
0000
0010
0001
0000
0001
0100
0000
0010
0000
1000
0100
0000
0100
0010
0000
,  // measure 11
0001
0000
1000
0100
0000
0100
0010
0000
0100
0000
1000
0001
0000
0001
1000
0000
,  // measure 12
0010
0000
0100
0000
0000
0001
0010
0100
1000
0001
0010
0100
1000
0001
0010
0001
,  // measure 13
1000
0001
0000
0000
0000
0100
0010
1000
0001
0010
0000
0000
0010
0000
0000
0010
,  // measure 14
0000
0200
0000
0000
0000
0000
0000
1300
0000
0002
0000
0000
0000
0000
0000
0103
,  // measure 15
0000
0000
0010
0000
0000
0000
0000
0000
1000
0000
0000
0000
0000
0000
0001
0000
0000
0000
0101
0000
0010
0000
0000
0000
1000
0000
0000
0000
0000
0100
0000
0000
,  // measure 16
0010
0001
0000
0100
0010
0000
0000
1000
0001
0100
0010
1000
0001
0010
0000
0100
,  // measure 17
0000
0000
0000
0000
0000
0000
0000
1000
0000
0000
0001
0000
0000
0000
0001
0000
,  // measure 18
0100
0000
0000
0000
0000
0000
0010
0000
0000
1000
0000
0000
0000
0100
0000
0000
0000
0000
0010
0000
0000
0001
0000
0000
,  // measure 19
1000
0010
0100
0001
1000
0010
0100
0001
1000
0010
0100
0001
1000
0100
0010
0001
,  // measure 20
1000
0100
0010
0000
0001
0000
0000
0100
0000
0000
0010
1000
0000
0000
0100
0000
,  // measure 21
0010
0000
0002
0000
0000
0000
0000
0000
0103
0000
0020
0000
0000
0000
0000
1030
,  // measure 22
0000
0100
0000
0000
0100
0000
0000
0100
0000
0110
0010
0000
0001
0000
0000
0100
,  // measure 23
0001
0000
0100
0000
0001
0000
0100
0000
0001
0000
0100
0000
0001
0000
0000
0100
0000
0000
0010
0000
0000
1000
0000
0000
0001
0000
0000
0000
0000
0000
0000
0000
0000
0000
0000
0000
0000
0000
0000
0000
0000
0000
0010
0000
0000
0100
0000
0000
,  // measure 24
1000
0001
0010
0100
1000
0000
0001
0000
0000
0000
0000
0000
0000
0000
0000
0100
,  // measure 25
0000
0000
0010
0000
0000
1000
0000
0001
0000
0000
1000
0000
0100
0000
0010
0001
,  // measure 26
1000
0100
0010
0001
0100
0010
1000
0001
0000
0100
0000
0010
1000
0010
0000
0100
,  // measure 27
0001
0200
0000
0000
0000
0300
0000
0001
0000
0001
0010
0000
0010
0100
0000
0100
,  // measure 28
1000
0000
1000
0001
0000
1000
0100
0010
0001
1000
0100
0010
0001
1000
0100
0010
,  // measure 29
0000
0001
0100
0010
1000
0001
0100
0010
1000
0100
0010
0100
1000
0100
0010
0001
,  // measure 30
0100
0010
0100
0001
0100
0010
1000
0001
0010
0100
1000
0001
0010
0100
1000
0001
,  // measure 31
0100
0010
1000
0001
0100
0010
1000
0001
0100
0010
1000
0010
0100
0010
1000
0010
,  // measure 32
0100
0000
0001
0000
1000
0000
0001
0000
1000
0000
0001
0000
1000
0000
0001
0000
1000
0000
0001
0000
1000
0000
0001
0000
1000
0000
0000
0000
0000
0000
0000
0000
0000
0000
0000
0000
0010
0000
0000
0100
0000
0000
0001
0000
0000
1000
0000
0000
,  // measure 33
0010
0100
0001
0010
0100
1000
0001
0010
0100
0000
0000
0000
1000
0001
0100
0010
,  // measure 34
1000
0001
0000
0000
0001
0000
0000
0001
0000
0000
0011
0000
0000
0000
0110
0000
,  // measure 35
0000
0000
1100
0000
0000
0000
1001
0000
0001
0100
0010
1000
0001
0100
0010
1000
,  // measure 36
0001
1000
0001
1000
0001
1000
0001
1000
0002
0000
0000
0000
0000
0000
0103
0010
,  // measure 37
2000
0000
0000
0000
0000
0000
3100
0010
0000
0010
0001
0000
0001
0100
0000
0100
,  // measure 38
0010
1000
0000
0000
0000
0100
0000
0100
0000
0010
0000
0001
0000
0100
0000
0000
,  // measure 39
0000
0000
0001
0000
0010
0000
0100
0000
1000
0000
0001
0000
0010
0000
0000
0000
0000
0000
0100
0000
0000
1000
0000
0000
0000
0001
0000
0000
0000
0000
0100
0000
,  // measure 40
0010
1000
0001
0100
0010
0000
1000
0000
0000
0101
0000
1000
0000
0011
0000
1000
,  // measure 41
0000
0001
1000
0000
0000
1100
0000
0001
0000
1000
0100
0000
0000
0020
0000
0000
,  // measure 42
0000
0031
0000
0000
0101
0000
0000
0110
0000
0010
0000
0000
0000
1010
0000
0000
,  // measure 43
1000
0000
0100
0000
0110
0000
0000
0000
0000
0020
0000
0000
0000
0032
0000
2000
,  // measure 44
3003
2002
0000
0000
0000
0000
3000
0000
0000
2003
0000
0000
0000
0000
0000
3010
,  // measure 45
0100
0002
0000
0000
0000
0000
1003
0100
0000
0100
0010
0000
0010
0001
0000
0001
,  // measure 46
0100
0010
0000
0000
0000
1000
0001
0100
0010
0000
1000
0000
0100
0000
0000
0000
,  // measure 47
0010
0001
0100
0001
0010
0000
0100
0000
0000
1000
0000
0001
0000
0100
0000
0010
,  // measure 48
1000
0001
0010
0100
1000
0000
0001
0000
0000
1100
0000
0001
0000
1010
0000
0001
,  // measure 49
0000
0010
0100
1000
0000
0011
0000
1000
0000
0100
0010
0001
0000
0010
0100
1000
,  // measure 50
0000
0101
0000
0000
0110
0000
0000
1010
0000
1000
0000
0001
0000
1000
0000
0100
,  // measure 51
0000
0020
0000
0000
0000
0032
0000
2000
3003
2200
0000
0000
0300
3001
0000
0100
,  // measure 52
0010
1000
0000
0000
0000
0000
0000
0000
0021
0000
0000
0000
0001
0000
0000
0001
,  // measure 53
0000
0001
0000
0000
0000
0031
0000
0000
0000
1002
0000
0000
1000
0000
0000
1000
,  // measure 54
0000
1000
0000
0000
1000
0000
1003
0010
0200
0000
0000
0010
0000
0000
0310
0000
,  // measure 55
1020
0000
0000
1000
0000
0000
0000
1000
0000
1030
0000
0000
0000
0000
0000
0001
,  // measure 56
0000
0010
0100
1000
0001
0010
0100
1000
0001
0100
0010
1000
0001
0100
0010
1000
,  // measure 57
0100
0000
0000
0000
0000
1000
0000
0000
0001
0100
0000
0000
0010
0000
0000
1000
,  // measure 58
0000
0100
0010
0001
1000
0001
0100
0001
1000
0001
0100
0010
1000
0001
0100
0010
,  // measure 59
1000
0100
0010
0001
1000
0100
0010
0001
1000
0010
1000
0001
1000
0010
1000
0001
,  // measure 60
1000
0100
0010
0001
1000
0000
0000
0000
2010
0000
0000
0010
0000
0000
0000
0010
,  // measure 61
0000
3010
0000
0000
0000
0102
0000
0000
0000
0100
0000
0000
0100
0000
0000
0100
,  // measure 62
0000
0100
0000
0000
0100
0000
0000
0103
0010
2000
0000
0000
0001
0000
0000
3001
,  // measure 63
0000
0012
0000
0000
0010
0000
0000
0010
0000
0013
0000
0000
0000
0000
0000
0100
,  // measure 64
0000
1000
0001
0010
0100
1000
0001
0010
0100
1000
0001
0100
0010
1000
0001
0100
,  // measure 65
0010
1000
0000
0000
0000
0100
0000
0000
1000
0001
0000
0000
0100
0000
0000
0010
,  // measure 66
0000
1000
0001
0100
0010
1000
0100
0010
0001
1000
0000
1000
0010
0000
0010
0100
,  // measure 67
0000
0001
0000
0001
0010
0000
0010
0100
0000
0100
1000
0000
1000
0001
0000
0001
,  // measure 68
0100
0000
0100
0010
0000
0010
1000
0000
1000
0001
0010
0100
1000
0001
0010
0100
,  // measure 69
1000
0001
0100
0010
1000
0001
0100
0010
1000
0100
0010
0001
1000
0100
0010
0001
,  // measure 70
1000
0010
0000
0010
0100
0000
0100
0001
0000
0001
1000
0010
1000
0100
1000
0100
,  // measure 71
1000
0001
0100
0001
0010
0001
0010
0001
1000
0020
0000
0000
0000
0000
0000
0130
,  // measure 72
0001
1000
0010
0100
0001
1000
0100
0010
0001
0100
0010
0100
0001
0100
0010
0100
,  // measure 73
0001
0010
0001
1000
0001
0010
0001
1000
0001
0010
0100
1000
0100
0010
0100
1000
,  // measure 74
0100
0010
0001
1000
0100
0010
0001
1000
0100
0010
0001
1000
0100
1000
0001
1000
,  // measure 75
0100
0010
0001
0010
0001
1000
0100
0010
0001
1000
0000
1000
0010
0000
0010
0100
,  // measure 76
0000
0100
0001
0000
0001
0010
0100
1000
0000
0001
0100
0001
0000
1000
0100
1000
,  // measure 77
0000
0000
0000
0000
0000
0000
0000
0000
0000
0000
0000
0000
0001
0000
0000
0000
0000
0000
0000
0000
0000
0000
0000
0000
1000
0000
0000
0000
0000
0000
0000
0000
0000
0000
0000
0000
0001
0000
0000
0000
0000
0000
0000
0000
1000
0000
0000
0000
0000
0000
0000
0000
0001
0000
0000
0000
0000
0000
0000
0000
1000
0000
0000
0000
0000
0000
0000
0000
0000
0000
0000
0000
0001
0000
0000
0000
0000
0000
0000
0000
0000
0000
0000
0000
0000
0000
0000
0000
0000
0000
0000
0000
0000
0000
0000
0000
0000
0000
0000
0000
0000
0000
0000
0000
0000
0000
0000
0000
0100
0000
0000
0000
0000
0000
0000
0000
0000
0000
0000
0000
0010
0000
0000
0000
0000
0000
0000
0000
0000
0000
0000
0000
0000
0000
0000
0000
0000
0000
0000
0000
0000
0000
0000
0000
0000
0000
0000
0000
0000
0000
0000
0000
0000
0000
0000
0000
1000
0000
0000
0000
0000
0000
0000
0000
0000
0000
0000
0000
0100
0000
0000
0000
0000
0000
0000
0000
0000
0000
0000
0000
0000
0000
0000
0000
0000
0000
0010
0000
0000
0000
0000
0000
,  // measure 78
0000
0000
0001
0000
0100
0000
0000
0000
0010
0000
0100
0000
0001
0000
0000
0000
0000
0000
0010
0000
0100
0000
0000
1000
0000
0000
0010
0000
0100
0001
0100
0000
,  // measure 79
0001
0010
0001
0000
1000
0010
1000
0100
1000
0000
0000
0000
0001
0000
0000
0000
0100
0000
0000
0000
0010
0000
0000
0000
0100
0000
0000
0000
0000
0000
0000
0000
,  // measure 80
0001
0100
0001
0000
1000
0100
1000
0001
0010
0100
1000
0000
0001
0000
0100
0010
,  // measure 81
1000
0100
0010
0002
0000
0000
0000
0103
,  // measure 82
0000
0000
0000
0101
0000
1010
0000
1001
,  // measure 83
0000
0000
0000
2000
0000
0000
3100
0020
,  // measure 84
0000
0000
0000
0000
0130
0000
1000
0000
0000
0001
0000
0100
0010
0000
0110
0000
,  // measure 85
0100
0000
0001
0000
0020
0000
0000
0000
0000
0000
0130
0000
2000
0000
0000
0000
3001
0000
0100
0000
0010
0000
0000
0200
0000
0000
0000
0000
0310
0000
0000
0000
,  // measure 86
1000
0000
0001
0000
1001
0000
0001
0000
0101
0000
0100
0000
0010
0000
0000
0010
,  // measure 87
0000
0000
0010
0000
1000
0000
0000
1000
0000
0000
1000
0000
0001
0000
0000
0001
,  // measure 88
0000
0000
0001
0000
0100
0000
0000
0000
0100
0000
0000
0000
0100
0000
0000
0010
,  // measure 89
0000
4000
0004
0000
0000
0000
0000
0000
,  // measure 90
0000
0000
0003
0000
3002
0003
0000
0000
0000
0000
0020
0030
0200
0300
0000
0000
,  // measure 91
0000
0000
2000
3000
0002
0003
0000
0200
0300
0200
0320
0030
2000
0000
0000
0000
,  // measure 92
3010
0000
0000
0000
0100
0000
0000
0000
0000
0000
0001
0000
0000
0010
0100
0000
0000
1000
0000
0000
0000
0002
0000
0000
0000
0000
0000
0000
0000
0000
0003
0000
,  // measure 93
0100
0000
0000
0000
0000
0000
0010
0000
0000
0000
0000
0000
0000
0000
0000
1000
0000
0000
0001
0000
0010
0000
0100
0000
,  // measure 94
1000
0000
0000
0000
0001
0000
0000
0000
0100
0000
0000
0000
0010
0000
0000
0000
0000
0000
0000
0000
0000
1000
0000
0000
0000
0000
0000
0000
0000
0000
0001
0000
0000
0000
0000
0000
0010
0000
0000
0000
0000
0000
0000
0000
0000
0000
0000
0000
,  // measure 95
0100
0000
2000
0000
0000
3010
0100
0000
,  // measure 96
0001
1000
0100
0000
0010
0000
0001
0000
,  // measure 97
1001
0000
0000
0000
1000
0000
0001
0010
0001
0000
1000
0000
0001
0000
1000
0100
,  // measure 98
1000
0000
0001
0000
0100
0000
0010
1000
0000
1000
0001
0000
0020
0000
0000
0000
,  // measure 99
0130
0000
1000
0000
0000
0001
0100
0000
0010
0000
2000
0000
0000
0000
3000
0000
,  // measure 100
0001
0000
0000
0000
0000
0000
0010
0000
0000
0000
0000
0000
0000
0000
0000
0100
0000
0000
1000
0000
0001
0000
0100
0000
,  // measure 101
0010
0000
0000
0000
0000
0000
1000
0000
0000
0000
0000
0000
0100
0000
0000
0000
0000
0000
1000
0000
0000
0001
0000
0000
0010
0000
0000
0000
0100
0000
0000
0000
0000
0000
0000
0000
1000
0000
0000
0000
0000
0000
0000
0000
0000
1000
0000
0000
,  // measure 102
0000
0000
1000
0000
0000
0000
0001
0100
0000
0000
0000
0010
1000
0100
0000
0010
,  // measure 103
0001
1000
0010
0100
0001
0000
0000
0000
1010
0000
0000
0000
1000
0100
0010
0001
,  // measure 104
1000
0100
0010
0001
0100
0010
1000
0001
0100
0000
0110
0000
0010
1000
0001
1000
,  // measure 105
0001
0100
0000
0010
1000
0001
0100
0001
0100
0001
1000
0000
0100
0010
0001
0000
,  // measure 106
0100
0010
1000
0000
0001
0010
0100
1000
0001
0100
0000
0010
1000
0001
0010
0100
,  // measure 107
1000
0001
0000
1000
0010
1000
0001
0100
0010
1000
0001
0100
0001
0100
0000
0001
,  // measure 108
0010
0001
1000
0100
0000
1000
0000
0001
0010
0001
0100
0001
1000
0001
1000
0100
,  // measure 109
1000
0010
1000
0000
0000
0000
0000
0000
0000
0000
0000
1000
0001
0010
0100
1000
,  // measure 110
0001
0010
0100
1000
0001
0100
0010
1000
0001
0100
0010
1000
0100
0010
0001
1000
,  // measure 111
0100
0000
0000
0010
0000
0000
0001
0000
0000
0100
0000
0000
0010
0000
0000
0000
0000
0000
0010
0000
0000
1000
0000
0000
0000
0000
0000
1000
0000
0000
0100
0000
0000
0010
0000
0000
0001
0000
1000
0000
0000
0000
0000
0000
1000
0000
0010
0000
,  // measure 112
0000
0000
0010
0100
0000
0000
0100
0001
0000
0000
0001
0010
0000
0000
0010
0100
0000
0000
0100
1000
0000
0000
1000
0001
,  // measure 113
0000
0000
0001
0100
0000
0000
0100
0010
0000
0000
0010
1000
0000
0000
0000
0200
0000
0000
0310
0000
0000
0001
0000
0000
,  // measure 114
0100
0000
0000
0010
0000
0000
1000
0000
0000
0000
0000
0000
0100
0000
0000
0000
0000
0000
1000
0000
0000
0000
0000
0000
0001
0000
0000
0000
0100
0000
0000
0000
0010
0000
0000
0000
1000
0000
0000
0100
0000
0000
1000
0000
0000
0001
0000
0000
,  // measure 115
0010
0000
0000
0000
0000
0000
0001
1000
0001
1000
0001
1000
0001
1000
0001
1000
0001
1000
0001
0000
0000
0000
0000
0000
,  // measure 116
0100
0010
1000
0001
0100
0010
1000
0100
0010
0001
1000
0100
0010
0000
0000
0000
,  // measure 117
0001
0100
0010
1000
0001
0000
0000
0001
0000
0000
0001
0010
0100
1000
0001
0010
,  // measure 118
0100
1000
0001
0100
0010
1000
0001
0100
0010
1000
0100
0010
0001
1000
0000
0000
,  // measure 119
0101
0000
0000
0110
0000
0000
1010
0000
0000
1100
0000
0010
0000
0101
0000
0000
,  // measure 120
0011
0000
0000
0110
0000
0000
1100
0000
0000
1001
0000
0010
0000
1010
0000
0000
,  // measure 121
0110
0000
0000
0101
0000
0000
1010
0000
0000
1001
0000
0001
1000
0100
0010
0000
,  // measure 122
0001
0000
0010
0001
0000
1000
0001
1000
0001
1000
0001
2000
0000
0000
0000
0000
,  // measure 123
0000
3010
0000
0200
0000
0000
0000
0000
0000
0301
0000
0010
0000
0000
0100
0000
,  // measure 124
0000
1000
0000
0002
0000
0003
0000
0000
0100
0000
0010
0000
2000
0000
0000
0000
,  // measure 125
0000
3100
0000
0000
1000
0000
0000
0001
0000
0000
0010
0000
0200
0000
0000
0000
,  // measure 126
0000
1300
0001
0100
0001
1000
0010
1000
0000
0100
0000
0020
0000
0000
0030
0000
,  // measure 127
0000
0001
0010
0002
0000
0000
1003
0000
0000
0000
0100
0000
2000
0000
0000
3001
,  // measure 128
0000
0000
0100
0000
0002
0000
0000
1003
0000
0000
0010
0000
1000
0000
0000
0000
,  // measure 129
1001
0000
0000
0000
0001
0000
0001
0100
0000
0100
0010
0000
2000
0000
0000
0000
,  // measure 130
0200
3000
0300
0000
0220
0000
0000
0000
0330
0000
0010
0001
0100
0000
0000
0000
,  // measure 131
0000
0000
0010
1000
0100
0000
0000
0000
0000
0000
0010
0001
0100
0000
0100
0010
,  // measure 132
0000
0010
1000
0001
0100
0000
0000
0000
0010
1000
0001
0100
0010
1000
0100
0010
,  // measure 133
0100
0000
1000
0001
0100
0000
0010
0000
,  // measure 134
0000
0000
0100
0001
1000
0010
0100
0001
1000
0000
0000
0000
0001
0010
0001
0000
,  // measure 135
1000
0100
1000
0000
0001
0100
0001
0000
1000
0010
1000
0000
0001
0010
0100
0000
,  // measure 136
1000
0010
0100
0000
0001
0000
0000
1000
0000
0000
0001
0000
1100
0000
0000
0000
,  // measure 137
1100
0000
0000
0000
0001
0000
0000
0001
0000
0000
0001
0000
1020
0000
0000
0000
,  // measure 138
0000
0000
0000
0000
0000
1030
0010
0100
0001
1000
0010
0100
0001
0000
0010
0000
,  // measure 139
0100
1000
0001
0000
2000
0000
0000
0000
0000
0000
3010
0000
0110
0000
0000
0101
,  // measure 140
0000
1001
1100
0000
0001
0101
1010
0000
,  // measure 141
0000
0000
0100
0000
1000
0000
0000
0000
1010
0000
0000
0110
0000
0101
0000
0000
,  // measure 142
0000
0000
0001
0100
0010
0100
0001
0000
1000
0000
0100
0000
0011
0000
0000
0000
,  // measure 143
0000
0000
0000
0001
0010
0000
0000
0100
0000
0000
0100
0000
1000
0000
0000
0010
,  // measure 144
0000
0000
0010
0000
0100
0000
0000
0001
0000
0000
0001
0000
2001
0000
0000
0000
,  // measure 145
3010
0000
0000
0000
0100
0000
0000
0000
0101
0000
0000
0001
0000
0010
0000
1100
,  // measure 146
0000
0001
0000
1100
0000
1001
0000
0000
0001
0000
0100
0000
0010
0000
1000
0000
,  // measure 147
0100
1000
0100
0000
0010
0000
0001
1000
0001
1000
0001
0000
0100
0000
0000
0110
,  // measure 148
0000
0010
1010
0000
1000
0001
0020
0000
,  // measure 149
0000
0000
0130
0000
2000
0000
0000
3002
0000
0000
0103
0000
0020
0000
0000
0000
,  // measure 150
0000
0000
1030
0100
0010
0100
1000
0000
0001
0000
0010
0000
0200
0000
0000
0000
,  // measure 151
0000
0000
1300
0000
0002
0000
0003
0100
0000
0100
0010
0000
2000
0000
3000
0100
,  // measure 152
0000
0100
0010
0000
0001
0000
1000
0010
0000
0010
0100
0000
0001
0000
0000
0000
,  // measure 153
0101
0000
0000
0000
0200
0000
0000
0320
0000
0000
1030
0000
0200
0000
0000
0000
,  // measure 154
0000
0000
0000
2300
0000
0002
0000
0000
0000
0000
3003
0000
1001
0000
0000
0000
,  // measure 155
1000
0010
0110
0000
0100
0001
0101
1001
,  // measure 156
1100
0000
0100
0010
0001
0000
0000
0000
1000
0000
0010
0000
0100
0001
1000
0010
,  // measure 157
0200
0000
0300
0000
0001
0010
0100
1000
0002
0000
0003
0000
1000
0000
0000
0100
,  // measure 158
0000
0000
0010
0000
0001
0000
0100
0000
0010
0000
0100
0000
0001
1000
0010
0100
,  // measure 159
0001
1000
0010
0100
0001
0000
0000
0000
1000
0000
0000
0100
0010
0000
0000
0100
,  // measure 160
0000
0000
1000
0000
0001
0010
0100
1000
0001
0010
0100
1000
0001
0000
0001
0000
,  // measure 161
0100
0010
1000
1000
0100
1000
0010
0010
,  // measure 162
0100
0000
0000
0001
0000
0000
0021
0000
0000
0000
0000
0000
0000
0000
0000
0030
0000
0000
0110
0000
0000
0000
0000
1100
,  // measure 163
0000
0000
0000
0000
1001
0000
0000
0001
0000
0000
0000
0000
0000
0101
0000
0000
0000
0000
0000
0110
0000
0000
0000
0000
,  // measure 164
1010
0000
0000
0000
0000
1100
0000
0000
0100
0000
0000
0000
0110
0000
0000
0000
0011
0000
0000
0001
0000
0000
0000
1001
,  // measure 165
0000
0000
0000
1010
0000
0000
0000
0110
0000
0000
0000
0101
0000
0000
0000
1001
0000
0000
1000
0000
0000
0000
0000
0000
,  // measure 166
0000
0000
1010
0000
0010
0100
0001
1000
0010
0100
0001
1000
0001
1000
0100
0010
,  // measure 167
0001
1000
0100
0010
0001
0000
0000
0000
1000
0000
0000
0010
0100
0000
0000
0001
,  // measure 168
0000
0000
0010
0000
0100
1000
0001
0010
0100
1000
0010
0100
0001
0000
0000
0001
,  // measure 169
0000
0000
0001
0000
0100
0000
0000
0100
0000
0000
0100
0000
0010
0000
0000
0010
,  // measure 170
0000
0000
0000
0000
0000
0000
0010
0000
0000
0000
0000
0000
1000
0000
0001
0000
1000
0000
0001
0000
1000
0000
0001
0000
1000
0000
0001
0000
1000
0000
0001
0000
1000
0000
0001
0000
1000
0000
0000
0001
0000
0000
0010
0000
0000
0100
0000
0000
,  // measure 171
1000
0001
0010
0100
0000
1000
0010
0100
0001
1000
0010
0100
0000
0001
1000
0100
,  // measure 172
0010
0001
1000
0100
0010
0001
1000
0001
1000
0001
1000
0001
0000
1000
0010
0100
,  // measure 173
0001
1000
0010
0100
0001
0010
0100
1000
0001
0010
0100
1000
0001
0100
0001
1000
,  // measure 174
0001
0100
0001
1000
0001
0010
0100
1000
0001
0100
0010
1000
0001
0100
0010
1000
,  // measure 175
0001
0100
0010
1000
0001
0010
0000
0010
0100
0000
0100
1000
0001
1000
0100
0010
,  // measure 176
0001
0100
0010
1000
0001
0100
0000
0100
0010
0000
0010
1000
0001
0100
0010
1000
,  // measure 177
0001
0010
0001
1000
0001
0010
0100
1000
0001
0010
0100
1000
0001
1000
0001
0100
,  // measure 178
0000
0100
0010
0000
0010
1000
0000
1000
0100
0000
0100
0010
0001
0000
0001
1000
,  // measure 179
0000
1000
0010
0000
0010
0100
0000
0100
0001
0000
1000
0001
1000
0000
0001
0010
,  // measure 180
0000
0010
0100
0000
0100
1000
0000
1000
0001
0000
1000
0100
1000
0000
0001
0100
,  // measure 181
0001
0000
1000
0010
1000
0000
0001
0010
0001
1000
0000
0000
0000
1001
0000
0000
,  // measure 182
0000
1001
0000
0000
0000
1001
0000
0000
0000
1001
0000
0000
0000
1004
0000
4000
,  // measure 183
0000
0000
0000
0000
0000
3003
0000
0000
0000
0000
0000
0000
0000
0000
0000
0000
;
