#TITLE:MAXIMIZER;
#SUBTITLE:;
#ARTIST:CLI-MAX S.;
#TITLETRANSLIT:;
#SUBTITLETRANSLIT:;
#ARTISTTRANSLIT:;
#GENRE:;
#CREDIT:;
#BANNER:MAXIMIZER.png;
#BACKGROUND:MAXIMIZER-bg.png;
#LYRICSPATH:;
#CDTITLE:./CDTITLES/DANCE DANCE REVOLUTION HOME VERSION.PNG;
#MUSIC:MAXIMIZER.mp3;
#OFFSET:-0.075;
#SAMPLESTART:18.320;
#SAMPLELENGTH:15.000;
#SELECTABLE:YES;
#DISPLAYBPM:190.000;
#BPMS:0.000=188.240
,12.000=198.900
,16.000=189.970
,80.000=189.730
,142.000=190.120
;
#STOPS:16.000=0.633
,80.000=0.287
,142.000=0.640
;
#BGCHANGES:;
#KEYSOUNDS:;
#ATTACKS:;

//---------------dance-single - ----------------
#NOTES:
     dance-single:
     :
     Challenge:
     12:
     0.889,0.979,0.921,0.031,0.450,509.000,89.000,3.000,0.000,0.000,0.000,0.889,0.979,0.921,0.031,0.450,509.000,89.000,3.000,0.000,0.000,0.000:
0000
0000
0000
0000
,
0000
0000
0000
0000
0000
0000
0000
0000
0000
0000
0000
0000
0000
0000
0000
1000
,
0000
0100
0000
0100
0000
0001
0000
0100
0000
1000
0000
1000
0000
0001
0000
0101
,
0000
0000
0000
1001
0000
0000
0000
1100
0000
0000
0000
1001
0000
0000
0000
0000
,
0101
0000
1000
0100
0000
0010
0000
0001
,
0000
0100
0000
0010
1000
0010
0001
0010
,
1000
0100
0010
0001
0000
0100
0000
0010
,
0000
1000
0000
0001
0010
0100
1000
0000
,
0001
0000
0100
0010
0000
0010
0000
1000
,
0000
1000
0000
0001
1000
0001
0100
0010
,
1000
0100
0010
0100
0000
0110
0000
1001
,
0000
1010
0000
0100
0001
0010
0001
0000
,
0100
0000
0010
0000
1000
0000
0100
0000
0000
0000
1000
0100
1000
0000
0001
0000
,
0000
0000
0100
0000
0000
0000
0010
0000
1000
0010
1000
0010
1000
0000
0000
0000
,
0001
0100
0010
1000
0000
0001
0000
0101
,
0000
0110
0000
0010
1000
0100
1000
0010
,
0100
0001
0010
0001
0000
0101
0000
1010
,
0000
1001
0000
1000
0100
0001
0100
1000
,
0010
0100
0001
0100
0000
0110
0000
1010
,
0000
1001
0000
1000
0010
0100
0010
1000
,
0000
0101
1001
1100
,
0101
0110
0110
1010
,
0101
0000
0010
0100
0010
1000
0100
0010
,
0100
0001
0100
0010
0001
1000
0010
0100
,
0010
0001
0010
0100
0010
1000
0010
0100
,
0001
1000
0100
0010
0001
0010
0001
1000
,
0001
0100
0010
0100
0001
1000
0100
0001
,
0100
1000
0100
0010
0012
0000
0103
0010
,
1000
0010
0100
0001
0100
1000
0100
0001
,
0010
0100
1000
0100
0001
0100
1000
0010
,
0001
0010
1000
0100
0010
0100
1000
0001
,
0100
1000
0100
0001
1100
1000
0010
0110
,
0001
1000
0100
0001
0101
0001
0100
1100
,
0100
0010
0001
1000
1001
0000
0110
0000
,
1100
0011
0101
1010
,
1001
0000
0000
0000
1000
0100
0010
0001
0022
0000
0000
0030
0000
0000
0000
0003
,
0100
0000
0000
0000
0010
1000
0010
0000
0010
1000
0010
0000
0100
0001
0100
0010
,
0100
0000
0000
0000
0100
0001
1000
0000
1000
0001
1000
0000
1000
0001
0100
0010
,
1000
0000
0000
0000
1000
0001
0010
0000
0010
0001
0010
0000
0100
1000
0010
0100
,
0001
0000
0000
0000
0100
0010
1000
0001
0010
0000
0100
1000
0001
0100
0010
1000
,
0010
0000
0000
0000
0100
0001
0100
0010
1000
0001
0010
0100
1000
0010
0100
0001
,
1000
0000
0000
0000
1000
0100
0010
0001
1000
0100
1000
0001
0010
0100
1000
0001
,
0100
0000
0000
0000
0100
0010
1000
0001
0010
0100
1000
0001
0010
0100
1000
0000
,
0101
1100
1001
0110
,
0011
0000
1000
0010
0000
0010
0000
0110
,
0000
0110
0000
1001
0000
0001
0100
0010
,
0110
0000
1001
0000
0000
1000
0000
0001
,
0000
0100
0000
0010
0000
1000
0101
0000
,
1001
0000
1000
0100
1000
0100
0001
0100
,
0001
0100
1000
0010
0100
0001
0101
0000
,
1010
0000
0001
0100
1000
0100
0101
0000
,
0110
0000
1010
0000
1001
0000
0100
0001
,
0000
0001
0010
1000
0010
0001
0010
0100
,
1000
0010
0100
0001
1001
0000
0110
0000
,
0000
1010
0000
0101
0000
1001
0000
1100
,
0000
0000
0100
0000
0010
0000
0001
0000
1000
0001
1000
0001
1000
0001
1000
0001
,
1000
0001
1000
0001
1000
0001
1000
0000
0101
0000
0001
0000
0101
0000
0100
0000
,
0110
0010
1010
1000
1010
1000
1100
0100
,
0110
0001
0110
1000
0110
0010
0011
0001
,
1001
1000
1001
0001
0101
0100
0110
0010
,
1010
1000
1010
0010
0110
0001
0100
0110
,
0010
1000
1010
1000
0100
0110
0010
0001
,
0011
0001
1000
1100
0100
0010
0011
0001
,
0100
1010
1000
0001
1001
0000
0000
0110
,
0000
0000
0000
0000
1000
0000
0100
0000
0110
0000
0001
0010
0000
0000
0010
0100
,
0000
0000
0100
1000
0000
0000
1000
0001
0000
0000
0001
0100
0000
0000
0100
0010
,
0000
0000
0010
1000
0000
0000
1000
0001
0000
0000
0001
0100
0000
0000
1000
0100
,
0000
0000
0001
0010
0000
0000
1000
0010
0000
0000
0001
1000
0000
0000
1000
0100
,
0000
0000
1000
0001
0000
0000
0001
0010
0000
0000
0010
0100
0000
0000
0100
1000
,
0000
0000
1000
0100
0000
0000
0100
0001
0000
0000
0001
0010
0000
0000
0010
1000
,
0000
0000
1000
0100
0000
0000
0100
0010
0000
0000
0010
0001
0000
0000
0100
0010
,
0000
0000
0010
1000
0000
0000
1000
0100
0010
0000
0001
0000
0100
0000
0010
0000
,
1000
0000
0001
0000
0100
0000
1000
0100
0001
0000
0000
0000
1001
0000
0000
0000
;
