#TITLE:HEART;
#SUBTITLE:(single mix);
#ARTIST:group_inou;
#TITLETRANSLIT:;
#SUBTITLETRANSLIT:;
#ARTISTTRANSLIT:;
#GENRE:;
#CREDIT:;
#BANNER:;
#BACKGROUND:;
#LYRICSPATH:;
#CDTITLE:;
#MUSIC:group_inou - Heart.mp3;
#OFFSET:0.000;
#SAMPLESTART:140.160;
#SAMPLELENGTH:12.000;
#SELECTABLE:YES;
#BPMS:0.000=110.000
,225.000=55.000
,240.500=110.000
;
#STOPS:
;
#BGCHANGES:;
#KEYSOUNDS:;
#ATTACKS:;

//---------------dance-single - Raymond Tracer----------------
#NOTES:
     dance-single:
     :
     Hard:
     10:
     0.504,0.526,0.131,0.073,0.382,635.000,25.000,14.000,12.000,0.000,0.000,0.504,0.526,0.131,0.073,0.382,635.000,25.000,14.000,12.000,0.000,0.000: // measure 0
0000
0000
0000
0000
1000
0000
0001
0000
0100
0010
0000
0010
1000
0000
0000
1000
,  // measure 1
0000
0000
1000
0000
0100
0000
0010
0000
0001
0100
0000
0100
0010
0000
0000
0010
,  // measure 2
0000
0000
0010
0000
1000
0000
0100
0000
1000
0010
0000
0010
0100
0000
0000
0100
,  // measure 3
0000
0000
0100
0000
0001
0000
0010
0001
0010
0001
0000
0000
0100
0000
0010
1000
,  // measure 4
0010
1000
0000
0000
0100
0000
1000
0000
0001
1000
0000
1000
0001
0000
0000
0001
,  // measure 5
0000
0000
0001
0000
0100
0000
0010
0000
1000
0001
0000
0001
1000
0000
0000
1000
,  // measure 6
0000
0000
1000
0000
0010
0000
0100
0000
0001
0100
0000
0100
0010
0000
0000
0010
,  // measure 7
0000
0000
0010
0000
1000
0000
0001
0100
0001
0100
0000
0000
0010
0000
1000
0100
,  // measure 8
1000
0100
0000
0000
0010
0000
0001
0000
1000
0000
0100
0000
0020
0000
0000
0000
,  // measure 9
0001
0000
1030
0010
0001
0100
0020
0000
,  // measure 10
1000
0000
0031
0010
1000
0001
0200
0000
,  // measure 11
0010
0000
1300
0100
0001
1000
0200
0000
,  // measure 12
1000
0010
0301
0100
0000
1000
0000
0010
,  // measure 13
0000
0100
0000
0001
0000
0010
0100
0010
,  // measure 14
0100
0010
0100
0010
0100
0010
0100
1000
,  // measure 15
0000
0001
0100
0001
0100
0001
0100
0000
,  // measure 16
0000
0000
0000
0010
1000
0001
0010
0100
,  // measure 17
0000
1000
0020
0000
0001
0000
1000
0000
,  // measure 18
0001
1030
0010
0100
,  // measure 19
0001
0000
0000
0000
0010
0000
0000
0010
0000
0000
0010
0000
0100
0000
0000
0100
,  // measure 20
0000
0100
1000
0010
0100
0001
0010
0001
,  // measure 21
0000
1000
0200
0000
0001
0000
1000
0000
,  // measure 22
0001
1300
0010
0100
,  // measure 23
0001
0000
0000
0000
1000
0000
0000
1000
0000
0000
1000
0000
0001
0000
1000
0001
,  // measure 24
0000
0000
0001
0000
0100
0000
0010
1000
0000
0000
0100
0000
1000
0010
0000
0000
,  // measure 25
0100
0000
0001
0100
0000
0010
1000
0000
0100
0000
0010
0000
0001
0000
0100
0010
,  // measure 26
0000
0000
1000
0000
0001
0100
0000
0000
0010
0000
0100
0000
0001
0000
0000
0000
,  // measure 27
0010
0000
0100
1000
0001
0100
0010
0000
1000
0000
0001
0000
0100
0000
0000
0000
,  // measure 28
0000
0000
0000
0000
0001
0010
0000
0010
0100
0000
1000
0000
0001
0100
0000
0100
,  // measure 29
0010
0000
0000
0000
0000
0000
1000
0000
0000
0000
0000
0000
0001
0000
0000
0000
0000
0000
0000
0000
0000
1000
0000
0000
0010
0000
0000
0000
0100
0000
0000
0000
0001
0000
0000
0000
1000
0000
0000
0000
0000
0000
0001
0000
0000
0000
0000
0000
,  // measure 30
0010
0000
0100
0000
1000
0000
0010
0100
0001
1000
0010
0000
0100
0000
0001
0000
,  // measure 31
0000
0000
0000
0000
1001
0000
0000
0000
0001
0000
0000
0010
0100
0000
1000
0000
,  // measure 32
0000
0000
0000
0000
0001
0100
0010
0100
0001
0000
1000
0100
0010
0100
1000
0010
,  // measure 33
0100
0001
0100
0000
0010
1000
0001
1000
0010
0000
0100
0001
0100
0000
0000
0000
,  // measure 34
1000
0010
1000
0000
0010
1000
0001
0010
0001
0000
0010
0000
0100
0000
1000
0000
,  // measure 35
0001
1000
0001
0100
0010
0000
1000
0000
0100
0010
0001
1000
0010
0100
0001
1000
,  // measure 36
0100
0000
0000
0000
0010
0000
0100
1000
0100
0000
1000
0000
0010
0100
0001
0000
,  // measure 37
0100
0000
0010
0000
1000
0100
0010
0100
1000
0001
0100
0001
1000
0000
0001
0010
,  // measure 38
0100
0000
0000
0000
1000
0000
0001
0100
0010
0000
1000
0000
0001
0100
0010
0000
,  // measure 39
1001
0000
0000
0000
0001
0000
0010
0000
0100
1000
0001
0000
0100
0000
0010
1000
,  // measure 40
0100
0000
0000
0000
0010
0000
0000
0000
0001
0000
1000
0100
1000
0000
0010
0000
,  // measure 41
0100
0000
0000
0000
0001
0100
0010
0000
0100
0000
0001
0000
0010
0000
0100
1000
,  // measure 42
0010
0100
0001
0100
0010
1000
0100
0010
,  // measure 43
0001
0100
0010
0000
0010
1000
0000
0000
,  // measure 44
0000
0000
0000
0000
1000
0100
0000
0100
0010
0000
0001
0010
0001
0000
0001
0100
,  // measure 45
0000
0000
0000
0000
0100
0010
1000
0100
1000
0000
0010
0000
0100
0000
0001
0100
,  // measure 46
0000
0000
0000
0000
0100
0000
0010
0000
1000
0000
0001
0000
0100
0000
0010
0100
,  // measure 47
0000
0001
1000
0000
0010
0000
0000
0000
0100
0000
0001
0000
0010
0000
0000
0000
,  // measure 48
0100
1000
0010
0100
0010
1000
0001
1000
,  // measure 49
0100
0010
0001
1000
0001
0010
0001
0010
,  // measure 50
0100
1000
0001
0100
0001
0100
0010
0100
,  // measure 51
0010
0000
1000
0000
0100
0000
1000
0000
0100
0000
0010
0000
0001
0000
M010
0M00
,  // measure 52
M001
0M00
10M0
0M00
00M1
0000
0100
0000
0010
0000
1000
0000
1100
0000
0000
0000
,  // measure 53
1100
0000
0110
0010
0001
1000
1010
0000
,  // measure 54
1010
0000
0101
0001
0010
0100
1100
0000
,  // measure 55
1100
1000
0010
0100
0001
1000
1001
0000
,  // measure 56
0001
0100
0110
1000
0100
0010
0001
1000
,  // measure 57
0010
1000
0100
0000
0010
0001
0100
0010
1000
0000
1000
0000
0100
1000
0010
0100
,  // measure 58
0002
0000
1000
1000
1003
0000
M100
0000
0020
0000
0000
0000
2000
0000
0000
0000
,  // measure 59
0000
0000
0000
0000
3030
0000
0000
0000
1000
0000
0000
0100
0000
0000
0001
0000
0100
0000
0000
1000
0000
0000
0010
0000
0110
0000
0000
0000
M00M
0000
0000
0000
,  // measure 60
0MM0
0000
0000
0000
0001
0100
0001
0100
0001
0100
0001
0100
0001
0000
0000
0000
1000
0000
0000
0000
0100
0000
0010
0000
0001
0000
0000
0000
0100
0000
0000
0000
,  // measure 61
0010
1000
0010
0000
0000
0000
0100
0000
0001
0000
0010
0100
1000
0000
0010
0100
,  // measure 62
0001
0100
0010
0000
0000
0000
1000
0000
0010
0000
0100
0001
1000
0001
0010
0100
,  // measure 63
1000
0010
0100
0000
0000
0000
0001
0100
0001
0100
0001
0000
0010
0100
1000
0100
,  // measure 64
0010
0000
0001
0000
0100
0000
0010
0000
1000
0000
0100
0010
0100
0000
1000
0000
,  // measure 65
0010
0100
0001
0000
0000
0000
1000
0000
0100
0000
0010
0000
0001
1000
0010
0100
,  // measure 66
0001
1000
0100
0010
0000
0000
0001
0000
1000
0000
0100
0010
0001
0000
0100
0010
,  // measure 67
0100
0001
1000
0000
0000
0000
1100
0000
0000
0000
0101
0000
0000
0000
0011
0000
,  // measure 68
0000
0000
1010
0000
0000
0000
0110
0000
0100
0000
0001
0000
0010
0000
0100
1000
,  // measure 69
0010
0100
0010
0000
0000
0000
0100
0000
0001
0000
1000
0000
0010
0000
0100
0001
,  // measure 70
0100
0010
1000
0000
0000
0000
0100
0000
0010
0000
0001
0000
1000
0000
0010
0100
,  // measure 71
0001
1000
0010
0000
0000
0000
0100
0000
0000
0000
0001
0000
0200
0000
0000
0000
,  // measure 72
0000
0300
0000
0000
0000
0000
0010
0000
1000
0000
0100
0000
0010
0000
0001
1000
,  // measure 73
0100
1000
0001
0000
0000
0000
0100
0000
0001
0000
0010
0000
0100
0000
1000
0001
,  // measure 74
0010
0001
1000
0000
0000
0000
0001
0000
1000
0000
0010
0000
0100
0000
0001
1000
,  // measure 75
0010
1000
0001
0000
0000
0000
1010
0000
0000
0000
1100
0000
1000
0000
1001
0000
,  // measure 76
0000
0101
0000
0011
0010
0100
1000
0200
,  // measure 77
0000
0001
0000
0000
0010
0000
1300
0000
0100
0000
0010
0000
0001
0000
0020
0000
,  // measure 78
0000
1000
0000
0000
0100
0000
0031
0000
0010
0000
0100
0000
1000
0000
0001
0000
,  // measure 79
0000
1000
0000
0000
1001
0000
1000
0000
0100
0000
0010
0000
0001
0000
1000
0000
,  // measure 80
0000
0001
0000
0000
2002
0000
3003
0000
0000
0000
0000
0000
0000
0000
0000
0000
;

//---------------dance-single - Raymond Tracer----------------
#NOTES:
     dance-single:
     :
     Challenge:
     11:
     0.571,0.779,0.461,0.073,0.382,661.000,88.000,14.000,0.000,1.000,0.000,0.571,0.779,0.461,0.073,0.382,661.000,88.000,14.000,0.000,1.000,0.000: // measure 0
0000
0000
0000
0000
1000
0000
0001
0000
0100
0010
0000
0010
1000
0000
0000
0100
,  // measure 1
0000
0100
0010
0001
1000
1000
0010
0010
,  // measure 2
0100
0000
0100
0000
0001
0000
0010
0000
0100
1000
0000
1000
0001
0000
0000
0010
,  // measure 3
0000
0000
0010
0000
0100
0000
0010
0001
0100
0001
0000
0000
0100
0000
0010
1000
,  // measure 4
0100
1000
0000
0000
0001
0000
0100
0000
0010
1000
0000
1000
0100
0000
0000
0010
,  // measure 5
0000
0001
0100
0010
1000
1000
0100
0100
,  // measure 6
0010
0000
0010
0000
0001
0000
0100
0000
0010
1000
0000
1000
0001
0000
0000
0010
,  // measure 7
0000
0000
0010
0000
0100
0000
1000
0001
0100
0010
0000
0000
1000
0000
0100
0010
,  // measure 8
0001
1000
0000
0000
0010
0000
0100
0000
0001
0000
1000
0000
1100
0000
0000
0110
,  // measure 9
0000
0000
0011
0000
0001
0000
0100
0000
0010
0000
0100
0000
0101
0000
0000
1001
,  // measure 10
0000
0000
1100
0000
0100
0000
0010
0000
0100
0000
0010
0000
0011
0000
0000
0101
,  // measure 11
0000
0000
0110
0000
0010
0000
1000
0000
0100
0000
1000
0000
1010
0000
0000
0100
,  // measure 12
0101
0011
0110
0200
0000
1000
0000
0001
,  // measure 13
0000
1000
0000
0001
0300
0100
1000
0100
,  // measure 14
0001
0100
1000
0010
0001
0010
1000
0001
,  // measure 15
0000
0000
0010
0000
0100
0000
1000
0000
0001
0000
0010
0000
0100
0000
0000
1000
,  // measure 16
1001
0101
0110
0010
1000
0100
0010
0001
,  // measure 17
0000
0100
0020
0000
1000
0000
0001
0030
,  // measure 18
1020
0130
0001
0010
,  // measure 19
0100
0000
0000
0000
1000
0000
0000
0100
0000
0000
0100
0000
0011
0000
0000
0100
,  // measure 20
0000
0100
1000
0100
0010
0001
0100
0010
,  // measure 21
0000
1000
0200
0000
1000
0000
0001
0300
,  // measure 22
2100
3010
0100
0001
,  // measure 23
1000
0000
0000
0000
0100
0000
0000
0100
0000
0000
0011
0000
0100
0000
1000
0001
,  // measure 24
0000
0000
0100
0000
0010
0000
1000
0100
0000
0000
0010
0000
0001
0100
0000
0000
,  // measure 25
0010
0000
1000
0010
0000
0010
0100
0000
0001
0000
0010
0000
0100
0000
1000
0001
,  // measure 26
0000
0000
0100
0000
0010
1000
0000
0000
0100
1000
0100
0000
0010
0000
0000
0000
,  // measure 27
0001
0000
0100
0010
1000
0100
1000
0000
0001
0000
0100
0000
0010
0000
0000
0000
,  // measure 28
1100
0000
1000
0000
1000
0100
0000
0100
0010
0000
0001
0000
0100
0010
0000
0010
,  // measure 29
1000
0000
0000
0000
0000
0000
0100
0000
0000
0000
0000
0000
0010
0000
0000
0000
0000
0000
0000
0000
0000
0001
0000
0000
0010
0000
0000
0000
0100
0000
0000
0000
1000
0000
0000
0000
0001
0000
0000
0000
0000
0000
0100
0000
0000
0010
0000
0000
,  // measure 30
1000
0100
0010
0000
0001
0000
0100
0010
0100
0001
0010
0000
0100
0000
1000
0000
,  // measure 31
0000
0000
0000
0000
1001
0000
0000
0000
1000
0000
0000
0100
0010
0000
0001
0000
,  // measure 32
0001
0000
0101
0000
0100
0010
1000
0100
0010
0000
0100
1000
0010
0100
0001
0010
,  // measure 33
0100
0010
0001
0000
0100
0010
1000
0001
0100
0000
0010
0100
0001
0000
0000
0000
,  // measure 34
1000
0100
1000
0000
0001
1000
0010
0100
0010
0000
1000
0000
1100
0000
0110
0000
,  // measure 35
0010
0001
0100
0001
0010
0000
0110
0000
1100
0000
1001
0000
1000
0001
0100
0001
,  // measure 36
0010
0000
0000
0000
0100
0000
1000
0001
0010
0000
0100
0000
1000
0001
0100
0000
,  // measure 37
0110
0000
0000
0000
0010
1000
0100
1000
0010
0100
0001
0000
0010
0000
0100
1000
,  // measure 38
0010
0000
0000
0000
0100
0000
0001
0010
0001
0000
0100
0000
1000
0100
0001
0000
,  // measure 39
0011
0000
0000
0000
0001
0000
0010
0000
0100
1000
0010
0100
0010
0000
0100
0001
,  // measure 40
0100
0000
0000
0000
0001
0000
0000
0000
0010
0000
0100
1000
0001
0000
0100
0000
,  // measure 41
0100
0000
0000
0000
0010
1000
0010
0000
1000
0100
1000
0000
0100
0000
0010
0001
,  // measure 42
0100
0010
1000
1000
0100
0100
0010
0010
,  // measure 43
0001
0001
0100
0000
0100
0010
0000
1001
,  // measure 44
1001
0000
0000
0000
0001
0100
0000
0100
0010
0000
1000
0100
1000
0000
1000
0010
,  // measure 45
0000
0000
0000
0000
0100
0001
0010
0001
0010
0000
0100
0000
1000
0000
0001
0010
,  // measure 46
0000
0000
0000
0000
0100
0000
0010
0000
0001
0000
0100
0000
0010
1000
0001
0100
,  // measure 47
0000
0001
0100
0010
1000
0000
0000
0000
0100
0000
0010
0000
0001
0000
0000
0000
,  // measure 48
0100
0010
1000
0100
0001
0100
1000
0010
,  // measure 49
0100
0001
1000
0010
0001
0010
1000
0001
,  // measure 50
1000
0100
0011
0001
0100
0010
0100
0010
,  // measure 51
1000
0001
1010
0010
0100
0001
0010
0001
,  // measure 52
0010
0100
1100
1000
0001
0100
0110
0000
,  // measure 53
0110
0000
1010
1000
0001
0010
0011
0000
,  // measure 54
0011
0000
1001
1000
0100
1000
1010
0000
,  // measure 55
1010
0010
0100
0001
0010
0100
1100
0000
,  // measure 56
1000
0001
0101
0010
0100
1000
1001
0001
,  // measure 57
0100
0010
1000
0000
1100
0100
0010
0001
0101
0000
0101
0000
0110
0010
1000
0100
,  // measure 58
0110
0000
0011
0101
0110
0000
0020
0000
0200
0030
1000
0000
0320
0000
0001
0000
,  // measure 59
1030
0000
0100
0000
0010
0000
0000
0000
0011
0000
0000
0110
0000
0000
1010
0000
0110
0000
0000
1100
0000
0000
1010
0000
0110
0000
0000
0000
2002
0000
0000
0000
,  // measure 60
0010
3003
0000
0000
0001
0100
0001
0100
0001
0100
0001
0100
0001
0000
0000
0000
0010
0000
0000
0000
0100
0000
1000
0000
0001
0000
0000
0000
0100
0000
0000
0000
,  // measure 61
0010
1000
0100
0000
0000
0000
0010
0000
0001
0000
0100
0010
0100
0000
0001
0000
,  // measure 62
0010
0100
1000
0000
0000
0000
0001
0000
0100
0000
0010
1000
0100
1000
0001
0010
,  // measure 63
0001
0100
0010
0000
0000
0000
1000
0100
0001
0100
1000
0000
0001
0100
1000
0100
,  // measure 64
0001
0000
0010
0000
0100
0000
1000
0000
0001
0000
0100
0010
1000
0000
0100
0000
,  // measure 65
1000
0010
0100
0000
0000
0000
0001
0000
0010
0000
0100
0000
1000
0001
0100
0001
,  // measure 66
0010
0100
1000
0001
0000
0000
0100
0000
0010
0000
1000
0000
0100
1000
0010
0100
,  // measure 67
0001
0010
0100
0000
0000
0000
1100
0000
0000
0000
1010
0000
0000
0000
1001
0000
,  // measure 68
0000
0000
0101
0000
0000
0000
0011
0000
0010
0000
0110
0000
0100
0000
1000
0001
,  // measure 69
0100
0010
1000
0000
0000
0000
1100
0000
0100
0000
0110
0000
0010
0000
0001
0100
,  // measure 70
0010
1000
0100
0000
0000
0000
0110
0000
0010
0000
0011
0000
0001
0000
0100
0010
,  // measure 71
1000
0001
0010
0000
0000
0000
0100
0000
1000
0000
0001
0000
0202
0000
0000
0000
,  // measure 72
0000
0000
0303
0000
0001
0000
0101
0000
0100
0000
0010
0000
1000
0000
0100
0010
,  // measure 73
0001
0100
0010
0000
0000
0000
1000
0000
0100
0000
0010
0000
0100
0000
1000
0001
,  // measure 74
0010
0100
1000
0000
0000
0000
0001
0000
0100
0000
0010
0000
0100
0000
0001
1000
,  // measure 75
0100
0010
0001
0000
0000
0000
0101
0000
0000
0000
0001
0000
0100
0000
0010
0000
,  // measure 76
0000
1010
0000
1000
1000
0100
0100
0001
,  // measure 77
0000
0100
0000
0000
1000
0000
1010
0000
0100
0000
1010
0000
0001
0000
0110
0000
,  // measure 78
0000
0101
0000
0000
1001
0000
1100
0000
0100
0000
0110
0000
0100
0000
0101
0000
,  // measure 79
0000
0110
0000
0000
1100
0000
0001
0000
0001
0000
0100
0000
0100
0000
1000
0000
,  // measure 80
0000
0000
0000
0000
0000
0000
0000
0000
0000
0000
0000
0000
0100
0000
0000
0000
0000
0000
0000
0000
0000
0000
0000
0000
0000
0000
0000
0000
0000
0000
0000
0000
0000
0000
0000
0000
0000
0000
0000
0000
0000
0000
0000
0000
0000
0000
0000
0000
0022
0000
0000
0000
0000
0000
0000
0000
0000
0000
0000
0000
0000
0000
0000
0000
0000
0000
0000
0000
0000
0000
0000
0033
0011
0000
0000
0000
0000
0000
0000
0000
0000
0000
0000
0000
0000
0000
0000
0000
0000
0000
0000
0000
0000
0000
0000
0000
0000
0000
0000
0000
0000
0000
0000
0000
0000
0000
0000
0000
0000
0000
0000
0000
0000
0000
0000
0000
0000
0000
0000
0000
0000
0000
0000
0000
0000
0000
0000
0000
0000
0000
0000
0000
0000
0000
0000
0000
0000
0000
0000
0000
0000
0000
0000
0000
0000
0000
0000
0000
0000
0000
0000
0000
0000
0000
0000
0000
0000
0000
0000
0000
0000
0000
0000
0000
0000
0000
0000
0000
0000
0000
0000
0000
0000
0000
0000
0000
0000
0000
0000
0000
0000
0000
0000
0000
0000
0000
0000
0000
0000
0000
0000
0000
;
