#TITLE:Giggle at the Ghostly;
#SUBTITLE:(Simple Joy Mix) Part 1;
#ARTIST:PinkiePieSwear;
#TITLETRANSLIT:;
#SUBTITLETRANSLIT:;
#ARTISTTRANSLIT:;
#GENRE:;
#CREDIT:;
#BANNER:;
#BACKGROUND:;
#LYRICSPATH:;
#CDTITLE:;
#MUSIC:PinkiePieSwear - Giggle at the Ghostly (Simple Joy Mix) Part 1.mp3;
#OFFSET:0.000;
#SAMPLESTART:73.392;
#SAMPLELENGTH:12.000;
#SELECTABLE:YES;
#BPMS:0.000=132.000
;
#STOPS:162.500=0.227
,164.500=0.114
,164.750=0.114
,166.000=0.227
,166.500=0.227
,169.500=0.341
,169.750=0.114
,172.500=0.057
,172.625=0.057
,172.750=0.057
,172.875=0.057
,175.000=0.227
,176.000=0.227
,176.500=0.114
,176.750=0.114
,177.000=0.341
,177.750=0.057
,177.875=0.057
,178.000=0.057
,178.125=0.057
,179.250=0.455
,179.750=0.227
,181.750=0.114
,182.000=0.568
,185.250=0.227
,187.250=0.114
,187.500=0.114
,188.750=0.227
,189.250=0.227
,192.250=0.341
,192.500=0.114
,192.750=0.341
,194.500=0.057
,194.625=0.057
,194.750=0.057
,194.875=0.057
,196.000=0.682
,197.000=0.227
,197.500=0.114
,197.750=0.114
,198.000=0.227
,199.000=0.057
,199.125=0.057
,199.250=0.057
,199.375=0.057
,201.500=0.114
,201.750=0.341
,203.500=0.114
,203.750=0.568
;
#DELAYS:;
#TIMESIGNATURES:0.000=4=4
;
#TICKCOUNTS:0.000=2
;
#BGCHANGES:;
#KEYSOUNDS:;
#ATTACKS:;

//---------------dance-single - Blank----------------
#NOTES:
     dance-single:
     Blank:
     Challenge:
     8:
     0.577,0.735,0.732,0.644,0.255,397.000,109.000,96.000,0.000,0.000,0.000,0.000,0.577,0.735,0.732,0.644,0.255,397.000,109.000,96.000,0.000,0.000,0.000,0.000: // measure 1
0000
0000
0000
0000
,  // measure 2
0000
0000
0000
0000
,  // measure 3
0000
0000
0000
0000
,  // measure 4
0000
0000
0000
0000
,  // measure 5
0000
0000
0000
0000
,  // measure 6
0000
0000
0000
0000
,  // measure 7
0000
0000
0000
0000
,  // measure 8
0000
0000
0000
0000
,  // measure 9
0000
0000
0000
0001
0001
0000
0000
0000
,  // measure 10
0000
1001
0000
0000
1001
0000
1000
0000
1000
0000
0000
0000
0000
0000
0000
0000
,  // measure 11
0000
1001
0000
0000
0100
0000
1100
0000
1100
0000
0000
0000
0000
0000
0000
0000
,  // measure 12
0000
0101
0000
0000
0101
0000
0001
0000
0001
0000
0000
0000
0000
0000
0000
0000
,  // measure 13
0000
1100
0000
0000
0101
0000
0010
0000
0010
0000
0000
0000
0000
0000
0000
0000
,  // measure 14
0000
0101
0000
0000
1100
0000
0010
0000
0010
0000
0000
0000
0000
0000
0000
0000
,  // measure 15
0000
1010
0000
0000
0011
0000
1000
0000
1000
0000
0000
0000
0000
0000
0000
0000
,  // measure 16
0000
0011
0000
0000
1010
0000
0001
0000
0001
0000
0000
0000
0000
0000
0000
0000
,  // measure 17
0000
1001
0000
0000
0101
0000
0010
0000
1000
0000
0100
0000
1000
0000
0010
0000
,  // measure 18
0000
1100
0000
0000
1010
0000
0001
0000
0010
0000
0001
0000
0100
0000
0001
0000
,  // measure 19
0000
1100
0000
0000
0110
0000
0100
0000
0100
0000
0001
0000
1000
0000
0100
0000
,  // measure 20
0000
0101
0000
0000
1100
0000
0001
0000
0100
0000
1000
0000
0100
0000
0001
0000
,  // measure 21
0000
1000
0100
0010
0100
0010
0001
1000
,  // measure 22
0000
1100
0000
0000
0011
0000
0100
0000
0010
0000
0001
0000
0010
0000
1000
0000
,  // measure 23
0000
0110
0000
0000
0101
0000
0100
0000
1000
0000
0100
0000
0010
0000
0100
0000
,  // measure 24
0000
0101
0000
0000
1100
0000
1000
0000
0010
0000
0001
0000
0010
0000
1000
0000
,  // measure 25
0000
0000
0010
0000
1000
0002
2000
0000
0000
0000
0000
0000
3003
0000
0202
0000
,  // measure 26
0000
0000
0303
2020
0000
0000
3030
2002
,  // measure 27
0000
0000
3003
0010
0202
0303
2200
0000
,  // measure 28
3300
0000
0000
0000
0100
1000
0010
0000
0100
0000
0010
0000
0001
0000
1000
0000
,  // measure 29
0000
1000
0000
0202
0000
0000
0303
2200
,  // measure 30
0000
0000
3300
0022
0000
0000
0033
2020
,  // measure 31
0000
0000
3030
1100
0202
0303
0022
0000
,  // measure 32
0033
0000
0000
0000
0010
1000
0100
0000
0010
0000
0001
0000
0100
0000
0010
0000
,  // measure 33
0000
0010
0000
1000
1000
0100
0010
0001
,  // measure 34
0000
1100
0000
0000
0101
0000
0100
0000
0010
0000
1000
0000
1000
0000
0100
0000
,  // measure 35
0000
0110
0000
0000
0101
0000
0001
0000
0001
0000
0100
0000
1000
0000
0010
0000
,  // measure 36
0000
1010
0000
0000
1010
0000
0100
0000
0100
0000
0001
0000
0001
0000
0010
0000
,  // measure 37
0000
1000
0001
0010
0010
1000
1000
0001
,  // measure 38
0000
0110
0000
0000
0110
0000
1000
0000
0100
0000
0010
0000
0001
0000
0100
0000
,  // measure 39
0000
0101
0000
0000
0101
0000
1000
0000
0001
0000
0010
0000
0100
0000
1000
0000
,  // measure 40
0000
1001
0000
0000
1001
0000
1000
0000
0010
0000
0100
0000
0010
0000
1000
0000
,  // measure 41
0100
0010
0000
0022
0000
0033
1100
0000
,  // measure 42
0000
0000
1000
0001
0100
0000
0000
0000
0010
0000
0010
0000
2002
0000
0000
0000
,  // measure 43
3003
0000
0000
0000
0000
0000
1000
0100
0010
0000
0000
0000
0010
0000
0000
0000
,  // measure 44
1001
0000
0000
0000
1000
0001
1000
0001
1000
0000
0000
0000
0000
0000
0000
0000
2200
0000
0000
0000
0000
0000
0000
0000
3300
0000
0000
0000
0202
0000
0000
0000
,  // measure 45
0303
0000
0000
0000
1000
0000
0100
0000
0020
0030
0001
0000
0000
0000
1000
0001
1000
0001
1000
0000
0000
0000
0000
0000
0000
0000
0100
0000
0000
0000
0001
0000
,  // measure 46
0000
1000
0000
0000
0000
0000
0000
0100
0010
0001
0000
0000
0000
0000
0000
0000
,  // measure 47
0000
2002
0000
0000
0000
3003
0000
0110
0000
0000
0000
0000
0000
1000
0001
0010
,  // measure 48
0000
0000
0000
0001
0000
1000
0000
0110
0000
0000
0000
0000
0000
0000
0000
0000
,  // measure 49
0000
0000
0001
0000
0100
0000
0020
0030
1000
0000
0000
0000
0000
0000
0000
0000
0101
0000
0000
0000
1000
0100
1000
0100
1000
0000
0000
0000
0000
0000
0000
0000
,  // measure 50
2000
3000
0000
0000
0002
0000
0000
0000
0003
0000
0000
0000
1000
0000
0100
0000
0010
0000
0000
0000
0010
0000
0000
0000
0001
0100
0001
0100
0001
0000
0000
0000
,  // measure 51
0000
0000
2002
0000
3003
0000
1000
0100
0001
0000
0000
0000
0000
0000
0100
1000
,  // measure 52
0202
0000
0303
0000
2002
3003
0220
0000
,  // measure 53
0330
0000
0000
0000
1000
0000
0001
0000
0100
0010
1000
0000
0200
0000
0000
0000
,  // measure 54
0300
0000
0000
0000
1000
0000
0100
0000
0220
0330
0022
0033
2002
3003
1200
0000
,  // measure 55
0000
0000
0000
0000
0301
0000
0000
0000
0100
0000
0010
1000
0100
0000
1000
0000
,  // measure 56
0010
0100
0000
0000
0210
0000
1300
0000
2002
0000
3003
0000
0202
0000
0000
0000
,  // measure 57
0303
0000
0000
0000
0001
0000
0001
0000
1000
0100
1000
0000
0022
0000
0000
0000
,  // measure 58
0033
0000
0000
0000
1000
0000
0010
0000
0202
0303
2002
3003
2200
3300
0201
0000
,  // measure 59
0000
0000
0000
0000
1300
0000
0000
0000
0010
0000
0001
0100
1000
0000
0010
0000
,  // measure 60
0010
1000
0000
0000
0100
0000
0100
0000
2020
0000
3030
0000
2002
0000
0000
0000
,  // measure 61
3003
0000
0000
0000
1000
0000
1000
0000
1000
0100
0001
0000
0002
0000
0000
0000
,  // measure 62
0000
0000
0003
0000
0001
0000
0010
0000
2020
3030
2200
3300
0202
0303
1200
0000
,  // measure 63
0000
0000
0000
0000
0301
0000
0000
0000
0011
0000
0001
0010
1000
0000
0010
0000
,  // measure 64
0001
0010
0000
0000
0012
0000
1003
0000
2002
0000
3003
0000
2002
0000
0000
0000
,  // measure 65
3003
0000
0000
0000
1002
0000
1003
0000
0100
0010
0100
0000
2002
0000
0000
0000
,  // measure 66
3003
0000
0000
0000
1000
0000
0001
0000
0022
0033
2020
3030
0202
0303
2200
0000
,  // measure 67
0000
0000
3300
0000
0101
0000
0000
0000
1100
0000
0100
0001
0010
0000
0011
0000
,  // measure 68
1000
0010
0000
0000
0001
0000
1000
0000
0000
0000
0000
0000
0001
0000
1000
0000
,  // measure 69
0010
0000
0100
0001
0000
0000
0101
0000
0000
0000
0000
0000
0001
0000
0010
0000
,  // measure 70
0100
0000
1000
0010
0000
0000
1010
0000
0000
0000
0000
0000
0001
0000
0010
0000
,  // measure 71
1000
0000
0010
0001
0000
0000
0011
0000
0000
0000
0000
0000
0000
0000
0000
0000
,  // measure 72
1001
0000
1000
0100
0000
0000
1100
0000
1000
0000
0100
0000
0010
0000
0001
0000
,  // measure 73
0100
0000
1000
0100
0000
0000
1100
0000
0100
0000
0001
0000
0100
0000
0001
0000
,  // measure 74
0100
0000
0010
0001
0000
0000
1100
0000
0001
0000
1000
0000
0010
0000
1000
0000
,  // measure 75
0100
0000
0001
0100
0000
0000
1100
0000
1000
0000
0100
0000
0010
0000
0001
0000
,  // measure 76
1001
0100
1001
0010
1001
0000
0000
0000
;
