#TITLE:GOING TO RIP ON THE BUTT;
#SUBTITLE:;
#ARTIST:Renard;
#TITLETRANSLIT:;
#SUBTITLETRANSLIT:;
#ARTISTTRANSLIT:;
#GENRE:;
#CREDIT:;
#BANNER:;
#BACKGROUND:;
#LYRICSPATH:;
#CDTITLE:;
#MUSIC:02. Renard - GOING TO RIP ON THE BUTT.mp3;
#OFFSET:-0.088;
#SAMPLESTART:2.000;
#SAMPLELENGTH:12.000;
#SELECTABLE:YES;
#BPMS:0.000=170.000
;
#STOPS:
;
#BGCHANGES:;
#KEYSOUNDS:;
#ATTACKS:;

//---------------dance-single - Raymond Tracer----------------
#NOTES:
     dance-single:
     :
     Challenge:
     12:
     1.000,1.000,0.205,0.037,1.000,433.000,11.000,2.000,4.000,0.000,0.000,1.000,1.000,0.205,0.037,1.000,433.000,11.000,2.000,4.000,0.000,0.000: // measure 0
0000
0000
0000
0000
,  // measure 1
0000
0000
0000
0000
0000
0000
0000
0000
1000
0100
0010
0001
1000
0000
0010
0100
,  // measure 2
0001
1000
0010
0000
0000
0100
0000
0000
0001
0010
0100
1000
0001
0000
0100
0010
,  // measure 3
1000
0100
0010
0100
1000
0001
0010
0100
1000
0100
1000
0001
0010
0001
1000
0100
,  // measure 4
0010
0000
0000
0000
0001
0000
1000
0000
0001
0000
1000
0000
0001
0000
0000
0000
0000
0000
0100
0000
0010
0000
0100
0000
0010
0000
0000
1000
0000
0000
0001
0000
0000
0100
0000
0000
0010
0000
0000
1000
0000
0000
0100
0000
0000
0010
0000
0000
,  // measure 5
0001
1000
0100
0000
0110
0000
0000
0000
0010
0001
1000
0010
1000
0000
0001
0100
,  // measure 6
0001
1000
0100
0000
0010
0000
0000
0000
0001
0010
0001
1000
0100
0000
0100
1000
,  // measure 7
0001
0010
0001
0100
0010
1000
0001
0100
0010
1000
0100
0010
0001
1000
0100
0010
,  // measure 8
0001
0000
0000
0000
1000
0000
0100
0000
1000
0000
0100
0000
1000
0000
0000
0000
0000
0000
0001
0000
0100
0000
0001
0000
0100
0000
0000
0010
0000
0000
1000
0000
0000
0100
0000
0000
0010
0000
0000
0100
0000
0000
1000
0000
0000
0001
0000
0000
,  // measure 9
0010
0100
1000
0000
1100
0000
0001
0100
0010
1000
0001
0100
0010
1000
0100
0010
,  // measure 10
0001
1000
0100
0010
0001
1000
0010
0100
0001
1000
0010
0100
0001
0010
0100
1000
,  // measure 11
0001
0010
0100
1000
0001
1000
0001
0100
0010
0100
0010
1000
0010
1000
0001
0100
,  // measure 12
0001
1000
0100
1000
0001
0010
0001
1000
0100
0010
0100
1000
0001
0010
0100
1000
,  // measure 13
0000
0000
0000
0101
0000
0000
0000
0000
0000
0110
0000
0000
0000
0000
0000
1010
0000
0000
0000
0000
0000
1000
0000
0000
0100
0000
0000
1000
0000
0000
0000
0000
0000
0001
0000
0000
0000
0000
0000
0010
0000
0001
0000
0010
0000
0001
0000
0000
,  // measure 14
0000
0000
0000
0010
0000
0000
0000
0000
0000
0100
0000
0000
0000
0000
0000
1000
0000
0100
0000
1000
0000
0100
0000
0000
0000
0000
0000
0010
0000
0000
0000
0000
0000
0001
0000
0000
0100
0000
0000
0010
0000
0000
1000
0000
0000
0000
0000
0000
,  // measure 15
0000
0100
0000
0100
0000
0010
0001
1000
0000
0010
0100
0001
1000
0010
1000
0001
,  // measure 16
0000
0010
0000
0100
1000
0001
1000
0100
0000
0010
0000
0001
0000
0100
0000
0010
,  // measure 17
1000
0010
1000
0010
0000
0000
0000
0000
1000
0100
0010
0001
0100
0000
0010
1000
,  // measure 18
0001
0100
0010
0000
0000
0100
0000
0000
0001
1000
0010
1000
0100
0000
0010
0001
,  // measure 19
1000
0100
0010
0001
1000
0010
0100
0001
1000
0010
0100
0001
0010
0001
1000
0001
,  // measure 20
0010
0000
0000
0000
0100
0000
1000
0000
0100
0000
1000
0000
0100
0000
0000
0000
0000
0000
0010
0000
0001
0000
0010
0000
0001
0000
0000
0010
0000
0000
0100
0000
0000
1000
0000
0000
0001
0000
0000
0010
0000
0000
0100
0000
0000
1000
0000
0000
,  // measure 21
0001
0100
0010
0000
0110
0000
0000
0000
0010
1000
0100
1000
0100
0000
0010
0001
,  // measure 22
0100
0001
0100
0000
0000
0010
0000
0000
1000
0100
1000
0100
0010
0000
0001
0100
,  // measure 23
0001
0100
0010
1000
0010
1000
0100
0010
0001
1000
0100
0010
0001
0100
0010
1000
,  // measure 24
0001
0000
0000
0000
1000
0000
0100
0000
0010
0000
0001
0000
1000
0000
0000
0000
0000
0000
0001
0000
1000
0000
0001
0000
1000
0000
0000
0001
0000
0000
1000
0000
0000
0100
0000
0000
0010
0000
0000
0001
0000
0000
1000
0000
0000
0100
0000
0000
,  // measure 25
0010
0001
1000
0000
1100
0000
0001
1000
0001
0100
0001
0010
0100
1000
0001
1000
,  // measure 26
0001
1000
0100
1000
0010
1000
0001
0010
0100
1000
0001
1000
0100
0010
0001
1000
,  // measure 27
0001
0100
0010
1000
0001
1000
0010
0100
0001
0010
0100
1000
0100
1000
0001
0010
,  // measure 28
0100
1000
0001
0010
0001
0010
0100
1000
0001
0100
0010
1000
0001
0100
0010
1000
,  // measure 29
0000
0000
0000
1010
0000
0000
0000
0000
0000
0110
0000
0000
0000
0000
0000
0101
0000
0000
0000
0000
0000
0001
0000
0000
0100
0000
0000
0001
0000
0000
0000
0000
0000
0010
0000
0000
0000
0000
0000
0001
0000
0010
0000
0100
0000
1000
0000
0000
,  // measure 30
0000
0000
0000
0001
0000
0000
0000
0000
0000
0001
0000
0000
0000
0000
0000
0100
0000
0010
0000
1000
0000
0001
0000
0000
0000
0000
0000
0010
0000
0000
0100
0000
0000
1000
0000
0000
0010
0000
0000
0100
0000
0000
0001
0000
0000
0000
0000
0000
,  // measure 31
0000
0100
0000
0100
0000
0010
1000
0100
0000
0010
0000
0001
0100
0010
1000
0100
,  // measure 32
0000
0010
0000
0100
1000
0010
0100
0001
0000
0010
0000
0001
0000
0100
0000
0010
,  // measure 33
1000
0001
0100
0001
0000
0000
0000
2002
0000
0000
0000
0000
0000
3003
0000
0000
,  // measure 34
0000
0000
0000
0000
,  // measure 35
0000
0000
0000
0000
,  // measure 36
0000
0000
0000
0000
,  // measure 37
0000
0000
0000
MMMM
;
