#TITLE:Funday Banana;
#SUBTITLE:;
#ARTIST:triomphe3;
#TITLETRANSLIT:;
#SUBTITLETRANSLIT:;
#ARTISTTRANSLIT:;
#GENRE:;
#CREDIT:;
#BANNER:;
#BACKGROUND:7AM waking up in the morEEEEEE.png;
#LYRICSPATH:;
#CDTITLE:;
#MUSIC:FUNDAY-BANANA.mp3;
#OFFSET:0.000;
#SAMPLESTART:2.900;
#SAMPLELENGTH:12.000;
#SELECTABLE:YES;
#DISPLAYBPM:65.000:596.800;
#BPMS:0.000=149.200
,8.000=596.800
,22.000=2968.000
,30.000=260.000
,192.000=130.000
,208.250=260.000
,216.500=65.000
;
#STOPS:1.000=-2.714
,30.000=0.404
,198.000=0.115
,206.250=0.115
;
#BGCHANGES:0.000=FUNDAY-BANANA.avi=1.000=0=0=0=StretchNoLoop====,
218.000=7AM waking up in the morEEEEEE.png=1.000=0=0=1=====,
99999=-nosongbg-=1.000=0=0=0 // don't automatically add -songbackground-
;
#KEYSOUNDS:;
#ATTACKS:;

//---------------dance-single - Blank----------------
#NOTES:
     dance-single:
     Blank:
     Challenge:
     12:
     0.822,1.000,0.842,1.000,0.802,186.000,43.000,61.000,153.000,3.000,0.000,0.822,1.000,0.842,1.000,0.802,186.000,43.000,61.000,153.000,3.000,0.000: // measure 0
0000
0000
0000
0000
0MM0
0000
0000
0000
0MM0
0000
1000
0000
M001
0000
0010
0000
M000
0000
010M
0000
M000
0000
0010
0000
M001
0000
0100
0000
M000
0000
0010
000M
,  // measure 1
1000
0100
0000
2MM2
3003
0000
0000
0000
0000
0000
0000
0000
0000
0000
0000
0000
,  // measure 2
1000
0001
0010
0000
,  // measure 3
M10M
M00M
M01M
0001
,  // measure 4
0100
0000
0M1M
1000
,  // measure 5
01MM
0000
0000
0000
2MM2
0000
0MM0
0MM0
,  // measure 6
0MM0
0000
0000
0000
0000
0000
0000
0000
0000
0000
0000
0000
0000
0000
0000
0000
0MM0
0000
0000
0000
0000
0000
0000
0000
0000
0000
0000
0000
0000
0000
0000
0000
0MM0
0000
0000
0000
0000
0000
0000
0000
0000
0000
0000
0000
0000
0000
0000
0000
0MM0
0000
0000
0000
0000
0000
0000
0000
0000
0000
0000
0000
0MM0
0000
0000
0000
0000
0000
0000
0000
0000
0000
0000
0000
0MM0
0000
0000
0000
0000
0000
0000
0000
0000
0000
0000
0000
0MM0
0000
0000
0000
0000
0000
0000
0000
0000
0000
0000
0000
0MM0
0000
0000
0000
0000
0000
0000
0000
0MM0
0000
0000
0000
0000
0000
0000
0000
0MM0
0000
0000
0000
0000
0000
0000
0000
0MM0
0000
0000
0000
0000
0000
0000
0000
0MM0
0000
0000
0000
0000
0000
0000
0000
0MM0
0000
0000
0000
0000
0000
0000
0000
0MM0
0000
0000
0000
0000
0000
0MM0
0000
0000
0000
0000
0000
0MM0
0000
0000
0000
0000
0000
0MM0
0000
0000
0000
0000
0000
0MM0
0000
0000
0000
0000
0000
0MM0
0000
0000
0000
0000
0000
0MM0
0000
0000
0000
0000
0000
0MM0
0000
0000
0000
0000
0000
,  // measure 7
0MM0
0000
0000
0000
0MM0
0000
0000
0000
0MM0
0000
0000
0000
0MM0
0000
0000
0000
0MM0
0000
0000
0000
0MM0
0000
0000
0000
0MM0
0000
0000
0000
0MM0
0000
0000
0000
0MM0
0000
0000
0000
0MM0
0000
0000
0000
0MM0
0000
0000
0000
0MM0
0000
0000
0000
0MM0
0000
0000
0MM0
0000
0000
0MM0
0000
0000
0MM0
0000
0000
0MM0
0000
0000
0MM0
0000
0000
0MM0
0000
0000
0MM0
0000
0000
0MM0
0000
0000
0MM0
0000
0000
0MM0
0000
0000
0MM0
0000
0000
0MM0
0000
0000
0MM0
0000
0000
0MM0
0000
0000
0MM0
0000
0000
3MM3
0000
0000
0000
0000
0000
0000
0000
0000
0000
0000
0000
M00M
0000
0000
0000
0000
0000
0000
0000
0000
0000
0000
0000
0000
0000
0000
0000
0000
0000
0000
0000
0000
0000
0000
0000
0000
0000
0000
0000
0000
0000
0000
0000
0000
0000
0000
0000
0000
0000
0000
0000
0000
0000
0000
0000
0000
0000
0000
0000
0000
0000
0000
0000
0000
0000
0000
0000
0000
0000
0000
0000
0000
0000
0000
0000
0000
0000
0000
0000
0000
0000
0000
0000
0000
0000
0000
0000
0000
0000
0000
0000
0000
0000
0000
0000
,  // measure 8
0000
1000
0000
0000
0000
0002
0000
0100
0000
0000
0000
0000
0203
0000
0000
0000
,  // measure 9
0001
0000
0000
0000
0000
1000
0000
1000
0000
0000
0000
0000
0310
0000
0000
0000
,  // measure 10
0101
0000
1010
0000
,  // measure 11
0011
0000
1010
0000
,  // measure 12
1001
0000
0000
0000
0000
2000
0000
0010
0000
0000
0000
0000
3020
0000
0000
0000
,  // measure 13
0031
0000
1010
0000
,  // measure 14
1100
0000
0000
0000
0000
2000
0000
0100
0000
0000
0000
0000
3200
0000
0000
0000
,  // measure 15
0301
0000
1001
0000
,  // measure 16
2002
0000
3000
0000
0000
0000
1000
2203
,  // measure 17
0000
0000
3300
0000
2000
0000
0002
3003
,  // measure 18
2002
0000
0003
0000
0000
0000
0001
3202
,  // measure 19
0000
0000
0000
0000
0303
0000
0000
0000
0000
0000
0000
1111
0000
0000
0000
0000
,  // measure 20
2200
0000
3000
0000
0000
0000
0000
0010
,  // measure 21
0311
0000
0020
0200
,  // measure 22
2330
0000
0000
0000
0000
0000
0100
3101
,  // measure 23
0000
0000
0000
0000
0000
0000
0000
0000
0000
0000
0000
1011
0000
0000
0000
0000
,  // measure 24
0021
0000
1000
0000
0031
0000
0000
0200
,  // measure 25
1000
0001
1300
1100
,  // measure 26
0102
0000
0010
0000
0103
0000
0000
2000
,  // measure 27
0010
0000
0100
0000
0020
3030
0000
0000
,  // measure 28
2001
0000
0100
0000
3001
0000
0000
2000
,  // measure 29
0001
0000
0100
0000
0002
3003
1101
0000
,  // measure 30
0110
0000
0210
0000
1000
0000
0000
0301
,  // measure 31
1000
0200
0301
1100
,  // measure 32
2002
0000
0000
0000
3003
0000
0000
0020
,  // measure 33
0001
0000
0100
1000
,  // measure 34
0100
0000
0100
0000
0130
0000
0000
1001
,  // measure 35
2002
0000
3013
0000
,  // measure 36
1002
0000
1000
0000
1003
0000
0000
0200
,  // measure 37
2000
0301
3001
0000
,  // measure 38
0002
0000
0010
0000
0103
0000
0000
0001
,  // measure 39
0020
0100
1030
0000
,  // measure 40
1001
0000
1000
0100
0001
0000
0000
1000
,  // measure 41
0100
0000
0001
0100
1000
0000
1001
0000
,  // measure 42
0110
0000
0001
0100
1000
0000
0000
0001
,  // measure 43
0100
0000
1000
0100
0001
0000
0000
0000
,  // measure 44
2002
0000
0010
0000
3013
0000
0000
1000
,  // measure 45
0100
0000
0000
0000
0001
0000
0000
0000
0001
0100
0001
0100
0000
0000
0000
0000
,  // measure 46
1000
0000
0000
0000
1000
0000
0000
0000
0100
1000
0100
0000
0000
0010
0000
0100
,  // measure 47
0000
0000
0000
0001
0000
0000
0000
1000
0000
0000
0000
0000
0000
0000
0000
0000
,  // measure 48
1020
0000
0000
0001
0000
0000
1030
0000
1200
0000
0000
0001
0000
0000
1300
0000
,  // measure 49
0102
0000
0000
0010
0000
0000
0103
0000
0000
0000
2002
0000
3003
0000
0000
0000
,  // measure 50
0000
0000
0000
2001
0000
0000
0000
0000
0000
0001
0000
0000
0000
0000
0000
3001
0000
0000
0000
1002
0000
0000
0000
0000
0000
1000
0000
0000
0000
0000
0000
1003
,  // measure 51
0000
0000
0000
0120
0000
0000
0000
0000
0000
0001
0000
0000
0000
0000
0000
1030
0000
0000
0000
0000
0000
0000
1001
0000
0000
0000
0000
0000
0000
0000
0000
0000
,  // measure 52
0000
0000
0000
MMM2
0000
0000
0000
0000
0000
0000
MMM0
0000
0000
0000
0000
0000
0000
0000
MM00
0000
0000
0000
0000
0000
0000
0000
0000
0000
0000
0000
MM23
0000
0000
0000
0000
0000
0000
0000
0000
0000
0000
0000
M00M
0000
0000
0000
0000
0000
,  // measure 53
0000
M23M
0000
00MM
0000
23MM
0000
0MM0
,  // measure 54
0000
0000
0000
0000
3MM2
0000
0000
0000
2000
0000
0000
0000
0000
0100
0000
0000
3013
0000
0000
0000
0000
0000
0000
0000
0000
0000
0000
0000
0000
0000
0000
0000
;

//---------------dance-single - Blank----------------
#NOTES:
     dance-single:
     Blank:
     Hard:
     9:
     0.763,0.907,1.000,0.313,0.753,179.000,78.000,16.000,108.000,0.000,0.000,0.763,0.907,1.000,0.313,0.753,179.000,78.000,16.000,108.000,0.000,0.000:
0000
0000
0000
0000
0000
1000
0001
0010
0000
0100
0000
0010
0001
0100
0000
0010
,
1000
0100
0000
1001
0000
0000
0000
0000
0000
0000
0000
0000
0000
0000
0000
0000
,
1000
0001
0010
0000
,
0100
0000
0010
0001
,
0100
0000
0010
1000
,
0100
0000
0000
0000
2MM2
0000
0MM0
0MM0
,
0MM0
0000
0000
0000
0000
0000
0000
0000
0000
0000
0000
0000
0000
0000
0000
0000
0MM0
0000
0000
0000
0000
0000
0000
0000
0000
0000
0000
0000
0000
0000
0000
0000
0MM0
0000
0000
0000
0000
0000
0000
0000
0000
0000
0000
0000
0000
0000
0000
0000
0MM0
0000
0000
0000
0000
0000
0000
0000
0000
0000
0000
0000
0MM0
0000
0000
0000
0000
0000
0000
0000
0000
0000
0000
0000
0MM0
0000
0000
0000
0000
0000
0000
0000
0000
0000
0000
0000
0MM0
0000
0000
0000
0000
0000
0000
0000
0000
0000
0000
0000
0MM0
0000
0000
0000
0000
0000
0000
0000
0MM0
0000
0000
0000
0000
0000
0000
0000
0MM0
0000
0000
0000
0000
0000
0000
0000
0MM0
0000
0000
0000
0000
0000
0000
0000
0MM0
0000
0000
0000
0000
0000
0000
0000
0MM0
0000
0000
0000
0000
0000
0000
0000
0MM0
0000
0000
0000
0000
0000
0MM0
0000
0000
0000
0000
0000
0MM0
0000
0000
0000
0000
0000
0MM0
0000
0000
0000
0000
0000
0MM0
0000
0000
0000
0000
0000
0MM0
0000
0000
0000
0000
0000
0MM0
0000
0000
0000
0000
0000
0MM0
0000
0000
0000
0000
0000
,
0MM0
0000
0000
0000
0MM0
0000
0000
0000
0MM0
0000
0000
0000
0MM0
0000
0000
0000
0MM0
0000
0000
0000
0MM0
0000
0000
0000
0MM0
0000
0000
0000
0MM0
0000
0000
0000
0MM0
0000
0000
0000
0MM0
0000
0000
0000
0MM0
0000
0000
0000
0MM0
0000
0000
0000
0MM0
0000
0000
0MM0
0000
0000
0MM0
0000
0000
0MM0
0000
0000
0MM0
0000
0000
0MM0
0000
0000
0MM0
0000
0000
0MM0
0000
0000
0MM0
0000
0000
0MM0
0000
0000
0MM0
0000
0000
0MM0
0000
0000
0MM0
0000
0000
0MM0
0000
0000
0MM0
0000
0000
0MM0
0000
0000
3MM3
0000
0000
0000
0000
0000
0000
0000
0000
0000
0000
0000
M00M
0000
0000
0000
0000
0000
0000
0000
0000
0000
0000
0000
0000
0000
0000
0000
0000
0000
0000
0000
0000
0000
0000
0000
0000
0000
0000
0000
0000
0000
0000
0000
0000
0000
0000
0000
0000
0000
0000
0000
0000
0000
0000
0000
0000
0000
0000
0000
0000
0000
0000
0000
0000
0000
0000
0000
0000
0000
0000
0000
0000
0000
0000
0000
0000
0000
0000
0000
0000
0000
0000
0000
0000
0000
0000
0000
0000
0000
0000
0000
0000
0000
0000
0000
,
0000
1000
0000
0000
0000
0001
0000
0100
0000
0000
0000
0000
0100
0000
0000
0000
,
0001
0000
0000
0000
0000
0100
0000
0010
0000
0000
0000
0000
0010
0000
0000
0000
,
1001
0000
1001
0000
,
1001
0000
1001
0000
,
1001
0000
0000
0000
0000
1000
0000
0010
0000
0000
0000
0000
0010
0000
0000
0000
,
0001
0000
1001
0000
,
1001
0000
0000
0000
0000
1000
0000
0100
0000
0000
0000
0000
0100
0000
0000
0000
,
0001
0000
1001
0000
,
1001
0000
0000
0000
0000
0000
1000
1001
,
0000
0000
1000
0001
,
1001
0000
0000
0000
0000
0000
0001
1001
,
0000
0000
0000
0000
0000
0000
0000
0000
0000
0000
0000
1100
0000
0000
0000
0000
,
0001
0000
0000
0000
0000
0000
0000
0010
,
0011
0000
0100
0010
,
0101
0000
0000
0000
0000
0000
0100
0101
,
0000
0000
0000
0000
0000
0000
0000
0000
0000
0000
0000
1010
0000
0000
0000
0000
,
1001
0000
1001
0000
1001
0000
0000
0010
,
1001
1001
1001
0101
,
1001
0000
1001
0000
1001
0000
0000
0100
,
1001
0000
1001
0000
2002
3003
0000
0000
,
1001
0000
1001
0000
1001
0000
0000
0010
,
1001
0000
1001
0000
2002
3003
1100
0000
,
1001
0000
1001
0000
2002
3003
0000
0000
,
2200
0010
3301
0011
,
1100
0000
0000
0000
0000
0000
0000
0010
,
1001
0000
0100
1001
,
0010
0000
0010
0000
0010
0000
0000
0100
,
2002
0000
3013
0000
,
1002
0000
1000
0000
1003
0000
0000
0100
,
2001
0001
3001
0000
,
1001
0000
0010
0000
0100
0000
0000
0001
,
0010
0110
1100
0000
,
1000
0000
0001
0100
0001
0000
0000
1000
,
0100
0000
0010
0001
1000
0000
0001
0000
,
0100
0000
0010
0001
0100
0000
0000
1000
,
1000
0000
0001
0010
0001
0000
0000
0000
,
1001
0000
0110
0000
1001
0000
0000
1000
,
0001
0000
0000
0000
0100
0000
0000
0000
0010
1000
0001
0100
0000
0000
0000
0000
,
1001
0000
0000
0000
0110
0000
0000
0000
0010
1000
0001
0000
0000
1000
0000
0100
,
0000
0000
0000
0001
0000
0000
0000
0100
0000
0000
0000
0000
0000
0000
0000
0000
,
1001
0000
0000
1001
0000
0000
0000
0000
1001
0000
0000
1001
0000
0000
0000
0000
,
1001
0000
0000
1001
0000
0000
0000
0000
0000
0000
1001
0000
0000
0000
0000
0000
,
0000
0000
0000
1001
0000
0000
0000
0000
0000
1001
0000
0000
0000
0000
0000
0000
0000
0000
0000
1001
0000
0000
0000
0000
0000
1001
0000
0000
0000
0000
0000
0000
,
0000
0000
0000
1001
0000
0000
0000
0000
0000
1001
0000
0000
0000
0000
0000
0000
0000
0000
0000
0000
0000
0000
1001
0000
0000
0000
0000
0000
0000
0000
0000
0000
,
0000
1001
0000
0000
0000
0000
0000
0000
0000
0000
1001
0000
0000
0000
0000
0000
,
0000
1001
0000
0000
0000
1001
0000
0000
,
0000
0000
0000
0000
1001
0000
0000
0000
2002
0000
0000
0000
3003
0100
0000
0000
0010
0000
0000
0000
0000
0000
0000
0000
0000
0000
0000
0000
0000
0000
0000
0000
;
