#TITLE:Euphoria;
#SUBTITLE:;
#ARTIST:KaW feat. ☺;
#TITLETRANSLIT:;
#SUBTITLETRANSLIT:;
#ARTISTTRANSLIT:KaW feat. Smiley;
#GENRE:Techno;
#CREDIT:;
#BANNER:Euphoria-banner.png;
#BACKGROUND:Euphoria-bg.png;
#LYRICSPATH:;
#CDTITLE:;
#MUSIC:Euphoria.ogg;
#OFFSET:0.000;
#SAMPLESTART:13.700;
#SAMPLELENGTH:18.000;
#SELECTABLE:YES;
#BPMS:0.000=140.000
,136.000=70.000
,168.000=140.000
;
#STOPS:168.000=1.286
;
#BGCHANGES:-10000.000=songbackground=1.000=0=0=1=====,
0.000=Euphoria.mpg=1.000=1=0=1===CrossFade==,
99999=-nosongbg-=1.000=0=0=0 // don't automatically add -songbackground-
;
#KEYSOUNDS:;
#ATTACKS:;

//---------------dance-single - Raymond Tracer----------------
#NOTES:
     dance-single:
     :
     Hard:
     11:
     0.801,0.982,0.306,0.398,1.000,529.000,33.000,43.000,0.000,23.000,0.000,0.801,0.982,0.306,0.398,1.000,529.000,33.000,43.000,0.000,23.000,0.000: // measure 0
0000
0000
0000
0000
,  // measure 1
0000
0000
0000
0000
,  // measure 2
0000
0000
0000
0000
,  // measure 3
0000
0000
0000
0000
,  // measure 4
1000
0100
0000
0100
0010
0000
0010
0000
0001
0100
0000
0100
0010
0000
0010
0000
,  // measure 5
1000
0001
0000
0001
0010
0000
0010
0000
1100
0000
0000
1000
0010
0000
0010
0000
,  // measure 6
0100
0001
0000
0001
0100
0010
0100
0000
0010
1000
0000
1000
0100
0010
0100
0000
,  // measure 7
0010
0001
0000
0001
1000
0010
1000
0000
1000
0001
0100
0000
0010
1000
0100
0000
,  // measure 8
0010
0001
0000
0001
0100
0000
0100
0010
0000
0010
1000
0100
1000
0010
0100
0001
,  // measure 9
0100
0010
0000
0010
1000
0000
1000
0100
0000
0100
0010
0001
0010
0100
1000
0010
,  // measure 10
0100
0001
0000
0001
0100
0000
0100
0000
0010
1000
0000
1000
0100
0000
0100
0000
,  // measure 11
0010
0001
0000
0001
1000
0000
1000
0000
0010
0100
0001
0000
1000
0010
0100
0000
,  // measure 12
0001
0010
0000
0100
1000
0000
0010
0000
1000
0010
0000
0010
0100
0000
0100
0000
,  // measure 13
0001
1000
0000
1000
0100
0000
0100
0000
0010
0001
0000
0001
1000
0000
1000
0000
,  // measure 14
0010
0100
0000
0100
0001
0100
0010
0000
0010
1000
0000
1000
0100
0010
0100
0000
,  // measure 15
0100
1000
0000
1000
0010
0100
0010
0000
0010
1000
0001
0000
0010
0100
1000
0000
,  // measure 16
1001
0000
1010
0000
,  // measure 17
1100
0000
0101
0011
0000
0110
1001
0000
,  // measure 18
1000
0100
0010
0100
0010
0001
0100
0010
1000
0010
0100
0001
1000
0002
0000
1003
,  // measure 19
0010
0100
0001
1000
0100
0010
0100
1000
0010
0100
0001
1000
0200
0000
0301
0000
,  // measure 20
0100
1000
0010
0100
0001
0000
0000
0000
0100
0000
1000
0000
0000
0000
1000
0000
,  // measure 21
0100
0000
0001
0000
0000
1000
0000
0000
0101
0000
0000
0000
0110
0000
1010
0000
,  // measure 22
1000
0100
1000
0010
0100
0001
0100
0010
1000
0100
0010
0100
1000
0002
0000
1003
,  // measure 23
0010
0100
0001
1000
0100
0010
0001
0100
0010
0100
0001
1000
0200
0000
0310
0000
,  // measure 24
0001
1000
0001
0100
0001
1000
0100
1000
0100
0010
0001
1000
0010
1000
0001
0010
,  // measure 25
0100
0100
0000
1010
0000
1100
0101
1001
,  // measure 26
1000
0100
0010
0001
1000
0010
0100
0001
,  // measure 27
1000
0000
0100
0000
0001
0000
0100
0000
1000
0010
1000
0001
0010
0001
0100
0000
,  // measure 28
0010
1000
0001
0010
1000
0010
0001
1000
,  // measure 29
0010
1000
0001
0100
0101
0110
1010
1001
,  // measure 30
0100
0010
1000
0010
0100
0000
0001
0000
0100
0000
1000
0000
0100
0000
0001
0000
,  // measure 31
0100
0000
0010
0000
1000
0000
0010
0000
0100
0000
0001
0000
1000
0100
0010
0100
,  // measure 32
1000
0001
1000
0010
0001
0010
1000
0100
,  // measure 33
0010
0000
0000
0001
0000
0000
0100
0000
0000
0010
0000
0000
1010
0000
1001
0000
0101
0000
0110
0000
0000
0010
1000
0001
,  // measure 34
0100
0000
0000
0000
0000
0000
0000
0000
0000
0000
0000
0000
0000
0000
0000
0000
0000
0000
0000
0000
0000
0000
0000
0000
0000
0000
0000
0000
0000
0000
0000
0000
0000
0000
0000
0000
0001
0000
0000
0000
1000
0000
0000
0000
0001
0000
0000
0000
2000
0000
0000
0000
0000
0000
0000
0000
0000
0000
0000
0000
0000
0000
0000
0000
0000
0000
0000
0000
0000
0000
0000
0000
0000
0000
0000
0000
0000
0000
0000
0000
0000
0000
0000
0000
0000
0000
0000
0000
0000
0000
0000
0000
0000
0000
0000
0000
0002
0000
0000
0000
0000
0000
0000
0000
0000
0000
0000
0000
3000
0000
0000
0103
0000
0000
0000
0000
0000
0000
0000
0000
0001
0000
0000
0000
0000
0000
0000
0000
0000
0100
0000
0000
0000
0000
0000
0000
0000
0000
0001
0000
0000
0000
0000
0000
0000
0000
0000
0100
0000
0000
0000
0000
0000
0000
0000
0000
0000
0000
0000
0000
0000
0000
0000
0000
0000
0000
0000
0000
0002
0000
0000
0000
0000
0000
0000
0000
0000
0000
0000
0000
0200
0000
0000
0000
0000
0000
0000
0000
0000
0000
0000
0000
,  // measure 35
0023
0000
2300
0000
0230
0000
0000
3020
0302
0000
0000
0000
0230
0023
2300
0230
,  // measure 36
0000
0000
0000
3000
0000
0000
0300
0000
0000
0010
0001
0010
0002
0000
0000
0000
0000
0000
0000
0000
0000
0000
0000
0000
0200
0000
0000
0003
0310
0000
1000
0000
0010
0000
1000
0000
0020
0000
0000
0000
0000
0000
0200
0000
0000
0032
0000
0000
,  // measure 37
0320
0000
0000
0203
0000
0000
2030
0000
0000
0320
0000
0000
3200
0000
0000
0030
0000
0000
0302
0000
0000
0020
0000
0000
0003
0030
0100
1000
0100
1000
0000
0100
0000
1000
0000
0200
0000
0000
0000
0000
0000
0000
0000
0000
0000
0310
0000
0000
,  // measure 38
0001
0000
0000
0001
1000
0000
0010
0000
0100
0000
0001
0000
0000
0000
1000
0000
0001
0000
0000
0001
0010
0000
0100
0000
1000
0000
0010
0000
0000
0000
0100
0000
,  // measure 39
0001
0000
0000
0000
0000
0000
0000
0000
0000
0000
0000
0000
0000
0000
0000
0000
0000
0000
1000
0000
0000
0000
0000
0000
0100
0000
0000
0000
0000
0000
0000
0000
0000
0000
0000
0000
0010
0000
0000
0000
0000
0000
0000
0000
0000
0000
0000
0000
0001
0000
0000
0000
0000
0000
0000
0000
0000
0000
0000
0000
0100
0000
0000
0000
0000
0000
0000
0000
0000
0000
0000
0000
0000
0000
0000
0000
0000
0000
0000
0000
0000
0000
0000
0000
1010
0000
0000
0000
0000
0000
0000
0000
0000
0000
0000
0000
1010
0000
0000
0000
0000
0000
0000
0000
0000
0000
0000
0000
0000
0000
0000
0000
0000
0000
0000
0000
1000
0000
0000
0000
0000
0000
0000
0000
0001
0000
0000
0000
0000
0000
0000
0000
0100
0000
0000
0000
0000
0000
0000
0000
0001
0000
0000
0000
0000
0000
0000
0000
0010
0000
0000
0000
0000
0000
0000
0000
0100
0000
0000
0000
0000
0000
0000
0000
0000
0000
0000
0000
1000
0000
0000
0000
0000
0000
0000
0000
0000
0000
0000
0000
0001
0000
0000
0000
0000
0000
0000
0000
0000
0000
0000
0000
,  // measure 40
1000
0000
0000
0000
0000
0000
0000
0000
0000
0010
0100
0001
1000
0000
0000
0000
0000
0000
0000
0000
0000
0000
0000
0000
1001
0000
0000
0000
1000
0000
0001
0000
1000
0000
0010
0000
0100
0000
0000
0000
0000
0000
0002
0000
0000
0200
0000
0000
,  // measure 41
0023
0000
0000
0000
2300
0000
0000
0000
0230
0000
0000
0000
3020
0000
0000
0000
0302
0000
0000
0000
0030
0000
0000
0003
0002
0000
0000
0000
0200
0000
0000
0000
0000
0000
0000
0000
0000
0000
0000
0000
0000
0000
0000
0000
0023
0000
0000
0000
0000
0000
0000
0000
0000
0000
0000
0000
0000
0000
0000
0000
0000
0000
0000
0000
,  // measure 42
1331
0000
0000
0000
0000
0000
0000
0000
0000
0000
0000
0000
1010
0000
0000
0000
0001
0000
0000
0000
1000
0000
0000
0000
0101
0000
0000
0000
0010
0000
0000
0000
0100
0000
0000
0000
1000
0000
0000
0001
0000
0000
0000
0000
0000
0001
0000
0000
,  // measure 43
1000
0000
1000
0010
0000
0010
1000
0100
0010
0001
0100
0010
1000
0001
0000
0001
,  // measure 44
0010
0000
0010
0100
1000
0100
0010
0001
0100
0010
0100
0001
1000
0010
0000
0010
,  // measure 45
1000
0001
0010
0100
1000
0010
0100
0001
1000
0100
0010
0001
1000
0001
0100
0001
,  // measure 46
1000
0100
0010
0000
0001
1000
0001
0000
0100
0001
0100
0000
0100
0010
0000
0010
,  // measure 47
1000
0010
0100
0000
0100
0001
0000
0001
1000
0001
0100
0000
0010
1000
0000
1000
,  // measure 48
0001
0010
0001
0000
0001
0100
0000
0100
0010
0000
0010
0000
0010
1000
0000
1000
,  // measure 49
0100
0010
0001
0000
0001
0100
0000
0010
1000
0001
0100
0000
0100
0001
0000
1000
,  // measure 50
0010
0100
0001
0000
0010
0100
1000
0000
0010
0100
0001
0000
1001
1000
0000
0001
,  // measure 51
1000
1001
0000
0021
,  // measure 52
0100
1000
0000
0100
0001
0000
2032
0000
,  // measure 53
3003
0000
0000
0000
;

//---------------dance-single - Raymond Tracer----------------
#NOTES:
     dance-single:
     :
     Challenge:
     11:
     0.887,1.000,0.287,0.547,1.000,580.000,31.000,59.000,0.000,0.000,0.000,0.887,1.000,0.287,0.547,1.000,580.000,31.000,59.000,0.000,0.000,0.000: // measure 0
0000
0000
0000
0000
,  // measure 1
0000
0000
0000
0000
,  // measure 2
0000
0000
0000
0000
,  // measure 3
0000
0000
0000
0000
,  // measure 4
0001
0100
0000
0100
0010
1000
0010
0000
1000
0100
0000
0100
0010
0001
1000
0000
,  // measure 5
1000
0010
0000
0010
0100
0001
0010
0000
1100
0000
0000
0100
0010
0000
0001
0000
,  // measure 6
0100
0010
0000
0010
1000
0100
0010
0000
0001
0100
0000
0100
0001
0010
0100
0000
,  // measure 7
1000
0001
0000
0001
0100
0010
1000
0000
0100
1000
0010
0000
0100
0001
0010
0000
,  // measure 8
0100
1000
0000
1000
0001
0000
0010
0100
0000
1000
0001
0100
0010
1000
0100
0010
,  // measure 9
0001
1000
0000
1000
0010
0000
0010
0100
0001
1000
0010
0100
0001
0010
0100
1000
,  // measure 10
0100
1000
0000
1000
0010
0100
0001
0010
0100
1000
0001
0100
0010
1000
0001
0000
,  // measure 11
1000
0000
0010
0000
0100
0000
0001
0000
1000
0000
0100
0000
0010
0000
0001
0000
0100
0000
0010
0000
1000
0000
0100
0000
1000
0001
1000
0000
0010
0000
0100
0000
,  // measure 12
0001
0000
0010
0000
0000
0000
0010
0000
0100
0000
1000
0000
0001
0000
0000
0000
0100
0000
0010
0000
0000
0000
0010
0000
1000
0000
0001
0000
1000
0010
1000
0000
,  // measure 13
0001
0010
0000
0010
0100
1000
0001
0000
1100
0000
0000
0100
0010
0000
0001
0000
,  // measure 14
0100
0010
0000
0010
1000
0001
1000
0000
0100
0010
0000
0010
0001
0010
0001
0000
,  // measure 15
0001
0000
0100
0000
0000
0000
0100
0000
0010
0000
1000
0000
0010
0000
0000
0000
1000
0000
0100
0000
0010
0000
0000
0000
0100
0000
1000
0000
0001
0100
0001
0000
,  // measure 16
1000
0000
1010
0000
,  // measure 17
0120
0000
0130
0201
0000
0301
0011
0000
,  // measure 18
0001
0000
1000
0000
0010
0000
1000
0000
0001
0000
0000
0000
0000
0000
1000
0000
0100
0000
0010
0000
0100
0000
0000
0000
1000
0100
1000
0000
0001
0000
0100
0000
,  // measure 19
0010
0000
0100
0000
0001
0000
0000
0000
0000
0000
0010
0000
0100
0000
1000
0000
0001
0000
0100
0000
0010
0000
1000
0000
0100
0010
0100
0000
1000
0000
0001
0000
,  // measure 20
0100
0000
0010
0000
0100
0000
0000
0000
0000
0000
0000
0000
0100
0000
0001
1000
0100
0000
0010
0000
0100
0000
0000
0000
0000
0000
0001
0000
1000
0000
0010
0100
,  // measure 21
0001
0010
0001
0000
0000
0011
0000
0000
0110
0000
0000
0000
1100
0000
1000
0000
,  // measure 22
0001
0000
0100
0000
0001
0000
0000
0000
0000
0000
0000
0000
0001
0010
0001
0000
1000
0000
0001
0000
0100
0000
0000
0000
0000
0000
0000
0000
0100
0000
0010
0000
,  // measure 23
1000
0000
0010
0000
1000
0000
0000
0000
0000
0000
0000
0000
1000
0000
0100
0000
0010
0000
0100
0000
1000
0000
0001
0100
0001
0000
0010
0000
0100
0000
1000
0000
,  // measure 24
0001
0000
0010
0000
0001
0000
0000
0000
0000
0000
0000
0000
0001
0100
0010
0000
1000
0000
0000
0000
0100
0000
0000
0000
0000
0000
0000
0000
0010
0001
0010
0000
,  // measure 25
0100
1000
0000
0001
0000
0101
0110
0010
,  // measure 26
1000
0100
0010
0100
1000
0000
0001
0000
0101
0000
0100
0000
1010
0000
1000
0000
,  // measure 27
0100
0000
0010
0000
0001
0000
0000
0000
1000
0000
0000
0000
0010
0000
0000
0000
0100
0000
0001
0000
0010
0000
0100
0000
1000
0001
1000
0000
0000
0000
0000
0000
,  // measure 28
0010
1000
0010
0100
0001
0000
0010
0000
0110
0000
0100
0000
1100
0000
1000
0000
,  // measure 29
0001
0100
0010
0000
1000
0000
0100
0000
0110
0000
0011
0000
1001
0000
1010
0000
,  // measure 30
0010
0100
0001
1000
0010
0000
0100
0000
0101
0000
0001
0000
0011
0000
0010
0000
,  // measure 31
0100
0000
1000
0000
0001
0000
0000
0000
0100
0000
0000
0000
0010
0000
0000
0000
1000
0000
0100
0000
1000
0000
0010
0000
0100
0001
1000
0000
0100
0000
0000
0000
,  // measure 32
0010
0001
1000
0001
0100
0000
0010
0000
1010
0000
1000
0000
1100
0000
0001
0000
,  // measure 33
0100
0000
0000
0010
0000
0000
1000
0000
0000
0000
0000
0000
0100
0000
0000
0000
0000
0000
0010
0000
0000
0000
0000
0000
0001
0000
0000
0000
0100
0000
0000
0000
0010
0000
0000
0000
1010
0000
0000
0000
0000
0000
0000
0000
0000
0000
0000
0000
,  // measure 34
2000
0000
0000
0000
0000
0000
0000
0000
3001
0100
0001
0100
0002
0000
0000
0000
0000
0000
0000
0000
0000
0000
0000
0000
0023
0000
0000
0000
0130
0000
1000
0000
0010
0000
0100
0000
0002
0000
0000
0000
0000
0000
2003
0000
0000
3200
0000
0000
,  // measure 35
0320
0000
0000
0000
0000
0000
0032
0000
0103
0010
0100
0010
0200
0000
0000
0000
0000
0000
0000
0000
0000
0302
0000
0000
2003
0000
0000
0000
3100
0010
0100
0000
1000
0000
0001
0000
0010
0000
0000
0100
0000
0000
1000
0000
0000
0020
0000
0000
,  // measure 36
0000
0000
0000
0000
0000
0000
0000
0000
0130
0001
1000
0100
2000
0000
0000
0000
0000
0000
0000
0000
0000
0000
0000
0000
0000
3002
0000
0000
1003
0000
0010
0000
0100
0000
0010
0000
2000
0000
0000
0000
0000
0000
3200
0000
0000
0320
0000
0000
,  // measure 37
0032
0000
0000
0023
0000
0000
0230
0000
0000
1300
0100
1000
0100
2000
0000
0000
0000
0000
3002
0000
0000
0203
0000
0000
0000
0000
0000
0310
0000
1000
0000
0100
0000
0010
0000
0002
0000
0000
0000
0000
0000
0000
0000
0000
0000
0203
0000
0000
,  // measure 38
0320
0000
0000
0000
0000
0000
0000
0000
0000
0000
0000
0000
0000
0000
0000
0000
0000
0000
1030
0000
0000
0000
0000
0000
0100
0000
0000
0000
0000
0000
0000
0000
0000
0000
0000
0000
0010
0000
0000
0000
0001
0000
0000
0000
0010
0000
0000
0000
0002
0000
0000
0000
0000
0000
0000
0000
0000
0000
0000
0000
0203
0000
0000
0000
0000
0000
0000
0000
0000
0000
0000
0000
0000
0000
0000
0000
0000
0000
0000
0000
0000
0000
0000
0000
0320
0000
0000
0000
0000
0000
0000
0000
0000
0000
0000
0000
2030
0000
0000
0000
0000
0000
0000
0000
0000
0000
0000
0000
0000
0000
0000
0000
3100
0000
0000
0000
0000
0000
0000
0000
1000
0000
0000
0000
0000
0000
0000
0000
0001
0000
0000
0000
0000
0000
0000
0000
0100
0000
0000
0000
0000
0000
0000
0000
0020
0000
0000
0000
0000
0000
0000
0000
0000
0000
0000
0000
0000
0000
0000
0000
0000
0000
0000
0000
0000
0000
0000
0000
2030
0000
0000
0000
0000
0000
0000
0000
0000
0000
0000
0000
3200
0000
0000
0000
0000
0000
0000
0000
0000
0000
0000
0000
,  // measure 39
0320
0000
0000
0000
0000
0000
0130
0000
0000
1000
0100
1000
0200
0000
0000
0000
0000
0000
0000
0000
0000
0320
0000
0000
0032
0000
0000
0000
0103
0010
0100
0000
0010
0000
1000
0000
0200
0000
0000
0320
0000
0000
0032
0000
0000
0203
0000
0000
,  // measure 40
0000
0000
0000
0000
0000
0000
0000
0000
0000
0000
0310
1000
0200
0000
0000
0000
0000
0000
0000
0000
0000
0000
0000
0000
0310
0000
0000
0000
0001
0010
0001
0000
1000
0000
0001
0000
0200
0000
0000
0320
0000
0000
2030
0000
0000
3002
0000
0000
,  // measure 41
0203
0000
0000
0320
0000
0000
0230
0000
0000
0310
1000
0010
2000
0000
0000
0000
0000
0000
3200
0000
0000
0320
0000
0000
0000
0000
0000
0000
0031
0010
0100
0000
1000
0000
0001
0000
2000
0000
0000
0000
0000
0000
0000
0000
0000
0000
0000
0000
,  // measure 42
3002
0000
0000
0003
0000
0000
0000
0000
0000
0000
0000
0000
0000
0000
0000
0000
0000
0000
0000
0000
0000
0000
0000
0000
0000
0000
0000
0000
0000
0000
0000
0000
0000
0000
0000
0000
0000
0000
0000
0000
0000
0000
0000
0000
0000
0000
0000
0000
0101
0000
0000
0000
0000
0000
0000
0000
0000
0000
0000
0000
0000
0000
0000
0000
0100
0000
0000
0000
0000
0000
0000
0000
0000
0000
0000
0000
0000
0000
0000
0000
0010
0000
0000
0000
0000
0000
0000
0000
0000
0000
0000
0000
0000
0000
0000
0000
1010
0000
0000
0000
0000
0000
0000
0000
0000
0000
0000
0000
0000
0000
0000
0000
1000
0000
0000
0000
0000
0000
0000
0000
0000
0000
0000
0000
0000
0000
0000
0000
0100
0000
0000
0000
0000
0000
0000
0000
0000
0000
0000
0000
0000
0000
0000
0000
0010
0000
0000
0000
0000
0000
0000
0000
0000
0000
0000
0000
0001
0000
0000
0000
0000
0000
0000
0000
0000
0000
0000
0000
0000
0000
0000
0000
0000
0000
0000
0000
0000
0000
0000
0000
0001
0000
0000
0000
0000
0000
0000
0000
0000
0000
0000
0000
,  // measure 43
0100
0000
0100
0010
0000
0010
1000
0100
1000
0001
0100
0010
1000
0100
0000
0100
,  // measure 44
0010
0000
0000
0000
0010
0000
0001
0000
0100
0000
0010
0000
1000
0000
0001
0000
0100
0000
0010
0000
1000
0000
0100
0000
1000
0001
1000
0000
0000
0000
1000
0000
,  // measure 45
0100
0010
0001
1000
0010
0100
0001
1000
0100
1000
0001
0010
0001
0100
0001
1000
,  // measure 46
0100
0000
0010
0000
0001
0000
0000
0000
1000
0000
0010
0000
0100
0000
0000
0000
0001
0100
0001
0000
1000
0000
0000
0000
0100
0000
0010
0000
0000
0000
0010
0000
,  // measure 47
0001
0000
0000
0000
0001
0000
0000
0000
0100
0000
0010
0000
0000
0000
0010
0000
1000
0000
0000
0000
1000
0001
1000
0000
0000
0000
0000
0000
0000
0000
0001
0000
,  // measure 48
0100
0000
0000
0000
0010
0000
0000
0000
1000
0000
0100
0000
0000
0000
0100
0000
0010
0000
0000
0000
0001
0000
0000
0000
0100
0001
0100
0000
0000
0000
0100
0000
,  // measure 49
0010
1000
0100
0000
0100
0010
0000
0010
0001
1000
0001
0000
0001
0100
0000
0100
,  // measure 50
0010
1000
0010
0000
1000
0100
0010
0000
0100
1000
0001
0000
0101
0000
0000
0100
,  // measure 51
0010
0000
0000
0000
0000
0000
0000
0000
1010
0000
0000
0000
0000
0000
0000
0000
0000
0000
0000
0000
1000
0100
1000
0000
0002
0000
0000
0000
0000
0000
0003
0000
,  // measure 52
0101
0100
0000
0100
0110
0000
2002
0000
,  // measure 53
3003
0000
0000
0000
;
