#TITLE:End of GAL-O Sengen;
#SUBTITLE:;
#ARTIST:ポリスマン;
#TITLETRANSLIT:;
#SUBTITLETRANSLIT:;
#ARTISTTRANSLIT:Policeman;
#GENRE:;
#CREDIT:;
#BANNER:;
#BACKGROUND:;
#LYRICSPATH:;
#CDTITLE:;
#MUSIC:End of GAL-O Sengen.mp3;
#OFFSET:-0.125;
#SAMPLESTART:43.015;
#SAMPLELENGTH:12.000;
#SELECTABLE:YES;
#DISPLAYBPM:30.008:120.030;
#BPMS:0.000=120.030
,52.000=60.015
,60.000=120.030
,126.000=1920.480
,222.000=120.030
,276.000=30.007
;
#STOPS:
;
#BGCHANGES:;
#KEYSOUNDS:;
#ATTACKS:;

//---------------dance-single - Blank----------------
#NOTES:
     dance-single:
     :
     Challenge:
     11:
     0.453,0.803,0.288,0.253,0.257,302.000,33.000,29.000,39.000,7.000,6.000,0.453,0.803,0.288,0.253,0.257,302.000,33.000,29.000,39.000,7.000,6.000:
MMMM
0000
0000
0000
,
M000
0000
0000
0000
,
0M00
0000
0000
0000
,
00M0
0000
0000
0000
,
101M
1100
0101
0011
,
1000
0100
0010
0001
0100
0010
1000
0100
,
0020
0001
0000
1000
0000
0001
0030
0010
,
0001
0010
0100
1000
0010
0100
0001
0010
,
0200
1000
0000
0001
0000
1000
0300
0100
,
0010
0001
0100
0010
1000
0001
0100
0010
,
2000
0100
0000
0010
0000
0001
3000
1000
,
0100
0010
0001
1000
0010
0100
0001
1000
,
0002
0000
0000
0000
0000
0000
0000
0000
0010
0000
0000
0000
0000
0000
0000
0000
0000
0000
0000
0000
0000
0000
0000
0000
0100
0000
0000
0000
0000
0000
0000
0000
0000
0000
0000
0000
0000
0000
0000
0000
1000
0000
0000
0000
0000
0000
0000
0003
2002
0000
0000
0000
0000
0000
0000
0000
3003
0000
0000
0000
0000
0000
0000
0000
,
0000
0000
0100
0100
0001
0100
1000
0010
0100
0100
1000
0100
0001
0010
0010
1000
,
0100
1000
0010
0100
0100
1000
0001
0100
0100
1000
0010
0001
0001
0010
1000
1000
,
0200
0000
0010
0010
0000
0000
0010
0000
0320
0000
0001
0001
0000
0000
0001
0000
,
0032
0000
0100
0100
0000
0000
0100
0000
0203
0000
0010
0010
0000
0000
0010
0000
,
0320
0000
1000
1000
0000
0000
1000
0000
2030
0000
0100
0100
0000
0000
0100
0000
,
3200
0000
0001
0010
0000
0000
1000
0000
2300
0000
0100
0010
0000
0000
0002
0000
,
0000
0000
0000
0000
0000
0000
0000
0000
3003
0000
0000
0000
1001
0000
0000
1000
0000
0000
0100
0000
0000
0010
0000
0000
,
0101
0001
0000
1000
1010
1000
0010
0100
,
0110
0010
0110
0000
0101
0010
1000
0100
,
1100
1000
0000
0010
0011
0001
1000
0010
,
0110
0100
0110
0000
0101
0010
1000
0100
,
1100
0100
0000
0100
0110
0100
1000
0100
,
0011
0001
1001
0000
0101
0001
1000
0100
,
1100
0000
1000
0000
0000
0000
0001
0000
1000
0001
0000
0001
0010
0000
0100
0000
,
1100
0000
0001
0000
0010
0001
1000
0000
0001
0000
0010
0000
0000
1000
0001
0000
,
1000
0000
0010
0000
0000
0100
0001
0000
0010
0000
0100
0000
0000
0010
0001
0000
,
0100
0000
0010
0000
0000
1000
0001
0000
1000
0000
0100
0000
0000
0001
1000
0000
,
0001
0000
0100
0000
0000
0001
0010
0000
0100
0000
1100
0000
0000
1000
0010
0000
,
0100
0101
0000
0000
4MM4
0000
0000
0000
,
0000
0000
0000
0000
,
0000
0000
0000
0000
,
0000
0000
0000
0000
,
0000
0000
0000
0000
,
0000
0000
0000
0000
,
0000
0000
0MM0
0000
,
0000
0000
0MM0
0000
,
0000
0000
0000
0000
,
0000
0000
0000
0000
,
0000
0000
0MM0
0000
,
0000
0000
0MM0
0000
,
0000
0000
0MM0
0000
,
0000
0000
0MM0
0000
,
0000
0000
00M0
0000
,
0000
0000
0M00
0000
,
0000
0000
00M0
0000
,
0000
0000
0M00
0000
,
0000
0000
00M0
0000
,
0000
0000
0M00
0000
,
0000
0000
00M0
0000
,
0000
0000
0M00
0000
,
0000
0000
00M0
0000
,
0000
0000
0M00
0000
,
0000
0000
0000
0000
0000
0000
0000
0000
0000
0000
0000
0000
00M0
0M00
00M0
0M00
00M0
0M00
30M3
0000
0000
0000
0000
0000
,
1001
0001
0010
0100
1000
0010
0100
0001
,
0040
0100
0000
0001
0000
0100
0030
0001
,
1000
0100
0010
0001
0100
0010
1000
0001
,
0400
0010
0000
1000
0000
0010
0300
1000
,
0100
0010
0001
0100
0010
1000
0001
0100
,
0004
1000
0000
0100
0000
1000
0003
0100
,
0010
0001
0010
0100
1000
0010
0100
0001
,
4000
0000
0000
0000
0000
0000
0000
0000
0100
0000
0000
0000
0000
0000
0000
0000
0000
0000
0000
0000
0000
0000
0000
0000
0001
0000
0000
0000
0000
0000
0000
0000
3000
0000
0000
0000
0000
0000
0000
0000
2002
0000
0000
0000
0000
0000
0000
3003
2002
0000
0000
0000
0000
0000
0000
0000
3003
0000
0000
0000
0000
0000
0000
0000
,
0001
0010
0100
0010
0001
0000
0001
0100
0010
0000
0010
1000
0100
0000
0100
0010
,
0022
0000
0000
0000
0000
0000
0000
0000
0000
0000
0000
0000
0000
0000
0000
0000
1000
0000
0000
0000
0000
0000
0000
0000
0000
0000
0000
0000
0000
0000
0000
0000
0000
0000
0000
0000
0000
0000
0000
0000
0000
0000
0000
0000
0000
0000
0000
0000
0000
0000
0000
0000
0000
0000
0000
0000
0000
0000
0000
0000
0000
0000
0000
0003
,
2032
0000
0000
0000
0000
0000
0000
0000
0000
0000
0000
0000
0000
0000
0000
0000
0010
0000
0000
0000
0000
0000
0000
0000
0000
0000
0000
0000
0000
0000
0000
0000
0000
0000
0000
0000
0000
0000
0000
0000
0000
0000
0000
0000
0000
0000
0000
0000
0000
0000
0000
0000
0000
0000
0000
0000
0000
0000
0000
0000
0000
0000
0000
0003
,
3202
0000
0000
0000
0000
0000
0000
0000
0000
0000
0000
0000
0000
0000
0000
0000
1000
0000
0000
0000
0000
0000
0000
0000
0000
0000
0000
0000
0000
0000
0000
0000
0000
0000
0000
0000
0000
0000
0000
0000
0000
0000
0000
0000
0000
0000
0000
0000
0000
0000
0000
0000
0000
0000
0000
0000
0000
0000
0000
0000
0000
0000
0000
0300
,
0223
0001
0000
0000
,
0330
0000
0000
0000
0000
0000
0000
0000
0000
0000
0000
0000
0000
0000
0000
0000
0000
0000
0000
0000
0000
0000
0000
1000
0000
0000
0000
0100
0000
0000
0010
0000
0000
0000
0000
0010
0100
0000
0000
0000
1000
0000
0000
0001
0000
0000
0000
0000
0100
0000
0000
0010
0000
0000
0100
0000
0000
0000
0000
0100
0001
0000
0000
2000
,
0000
0000
0000
0000
0000
0000
0000
0000
0000
0000
0000
0000
0000
0000
0000
0000
0000
0000
0000
0000
0000
0000
0000
0000
0000
0000
0000
0000
0000
0000
0000
0000
0000
0000
0000
0000
0000
0000
0000
0000
0000
0000
0000
0000
0000
0000
0000
0000
0000
0000
0000
0000
0000
0000
0000
0000
0000
0000
0000
0000
0000
0000
0000
0000
0000
0000
0000
0000
0000
0000
0000
0000
0000
0000
0000
0000
0000
0000
0000
0000
0000
0100
0000
0000
0000
0000
0000
0000
0000
0000
0000
0000
0000
0000
0000
0000
0000
0000
0000
0000
0000
0000
0000
0000
0000
0000
0000
0000
0000
0000
0000
0000
0000
0000
0000
0000
0000
0000
0000
0000
3100
0000
0000
0000
0000
0000
0000
0000
0000
0000
0000
0000
0000
0000
0000
0000
0000
0000
0000
0000
0000
0100
0000
0000
0010
0000
0001
0000
1000
0000
0100
0000
0020
0000
0000
0000
0030
0000
0000
0000
0000
0000
0000
0000
0000
0000
0000
0000
0000
0000
0000
0000
0000
0000
0000
0000
0000
0000
0000
0000
0000
0000
0000
0000
0000
0000
0000
0000
0000
0000
0000
0000
;

//---------------dance-single - bs----------------
#NOTES:
     dance-single:
     :
     Edit:
     12:
     0.695,1.000,1.000,0.392,0.283,318.000,133.000,45.000,7.000,78.000,0.000,0.695,1.000,1.000,0.392,0.283,318.000,133.000,45.000,7.000,78.000,0.000: // measure 0
0000
0000
0000
0000
,  // measure 1
0000
0000
0000
0000
,  // measure 2
0000
0000
0000
0000
,  // measure 3
0000
0000
0000
0000
,  // measure 4
1020
0100
0001
1130
,  // measure 5
1020
0001
0130
0111
0020
1000
0100
1030
,  // measure 6
1110
1110
0000
1011
0000
0111
0000
1011
,  // measure 7
1110
1000
0002
0200
0020
1333
0100
0010
,  // measure 8
0002
0200
0000
0313
0000
0111
0000
0111
,  // measure 9
1011
2000
0200
0010
3301
0010
0100
1000
,  // measure 10
2002
0100
0000
3110
0000
1010
0000
1103
,  // measure 11
0110
0001
0110
1000
0110
0010
0101
0010
,  // measure 12
2200
0001
0000
0010
3300
1102
1120
0000
,  // measure 13
0033
0000
0010
0010
0100
1000
0010
0100
0101
0101
0010
1000
0100
0100
0010
0001
,  // measure 14
0101
0101
0010
0010
1010
1010
1001
1001
1100
1100
0110
0011
1001
0101
0110
1010
,  // measure 15
1001
0000
0001
0100
0000
0000
0110
0000
0010
0000
1000
0100
0000
0000
0110
0000
,  // measure 16
0101
0000
0010
1000
0000
0000
0110
0000
1001
0000
1000
0100
0000
0000
0110
0000
,  // measure 17
0001
0000
0001
0100
0000
0000
0110
0000
0111
0000
0010
1000
0000
0000
1110
0000
,  // measure 18
1001
0000
0001
1000
0000
0000
1011
0000
0010
0000
0010
0101
0000
0000
2202
0000
,  // measure 19
0000
0000
3000
0300
1113
0010
1000
0100
,  // measure 20
0111
0010
0101
0010
1101
0010
1100
0010
,  // measure 21
0101
0010
1011
0000
1011
0100
1011
0100
,  // measure 22
1110
0111
0000
0011
1011
0100
1101
1100
,  // measure 23
0011
0111
1010
0000
1001
0010
0101
0020
,  // measure 24
0131
1000
0001
0100
0001
0010
1000
0100
,  // measure 25
0001
0101
0011
0000
0010
1001
0010
1000
,  // measure 26
1100
0000
0001
0000
0101
0000
0111
0000
0010
1000
0000
1000
0200
0000
0310
0000
,  // measure 27
0111
0000
0010
0000
1011
0000
0001
1000
0100
0000
0010
0000
0000
0001
0100
0000
,  // measure 28
0110
0000
1010
0000
0000
1000
0100
0000
0110
0000
0011
0000
0000
0001
0100
0000
,  // measure 29
0110
0000
1010
0000
0000
1000
0100
0000
0110
0000
0011
0000
0000
1000
0010
0000
,  // measure 30
1011
0000
1011
0000
0000
0001
0100
0000
1101
0000
1101
0000
0000
1100
0011
0000
,  // measure 31
1111
1111
0000
0000
2222
0000
0000
0000
,  // measure 32
0000
0000
0000
0000
,  // measure 33
0000
0000
0000
0000
,  // measure 34
0000
0000
0000
0000
,  // measure 35
0000
0000
0000
0000
,  // measure 36
0000
0000
0000
0000
,  // measure 37
0000
0000
0000
0000
,  // measure 38
0000
0000
0000
0000
,  // measure 39
0000
0000
0000
0000
,  // measure 40
0000
0000
0000
0000
,  // measure 41
0000
0000
0000
0000
,  // measure 42
0000
0000
0000
0000
,  // measure 43
0000
0000
0000
0000
,  // measure 44
0000
0000
0000
0000
,  // measure 45
0000
0000
0000
0000
,  // measure 46
0000
0000
0000
0000
,  // measure 47
0000
0000
0000
0000
,  // measure 48
0000
0000
0000
0000
,  // measure 49
0000
0000
0000
0000
,  // measure 50
0000
0000
0000
0000
,  // measure 51
0000
0000
0000
0000
,  // measure 52
0000
0000
0000
0000
,  // measure 53
0000
0000
0000
0000
,  // measure 54
0000
0000
0000
0000
,  // measure 55
0000
0000
0000
0000
0000
0000
0000
0000
0000
0000
0000
0000
0000
0000
0000
0000
0000
0000
0000
0000
0000
0000
0000
0000
0000
0000
0000
0000
0000
0000
0000
0000
0000
0000
0000
0000
0000
0000
0000
0000
0000
0000
0000
0000
0000
0000
0000
0000
0000
0000
0000
0000
0000
0000
0000
0000
0000
0000
0000
0000
0000
0000
0000
3003
,  // measure 56
1331
0110
1000
0100
0010
0100
2000
0002
,  // measure 57
3013
1011
0000
0111
0000
1110
0000
1101
,  // measure 58
0010
0101
1001
1000
0110
0001
0011
1001
,  // measure 59
0202
0313
0000
0111
0000
1111
0000
1110
,  // measure 60
1100
1000
0100
0010
0110
1000
0001
0100
,  // measure 61
0121
0001
0000
1000
0000
0101
0000
0130
,  // measure 62
1011
0001
1000
0100
1101
0010
0100
0001
,  // measure 63
0211
0011
0000
0010
0000
1000
0010
0300
,  // measure 64
0100
0001
0010
0001
0100
0000
0100
0010
1010
0000
1000
0100
1100
0000
0100
0010
,  // measure 65
0011
0000
0000
1000
0100
0010
0001
0000
0000
0000
0000
0000
,  // measure 66
1111
0000
0000
0001
0010
0100
1000
0000
0000
0000
0000
0000
,  // measure 67
1111
0000
0000
1000
0010
0100
0001
0000
0000
0000
0000
0000
,  // measure 68
1111
0000
0000
0001
0100
0010
2000
0000
0000
0000
0MMM
0000
,  // measure 69
0111
0000
0000
0000
0000
0000
0000
0000
0000
0000
0000
0000
0000
0000
0000
0000
3000
0000
0000
0000
0000
0000
0000
0000
0000
0000
0000
0000
0000
0000
0000
0000
0000
0000
0000
0000
0000
0000
0000
0000
0000
0000
0000
0000
0000
0000
0000
0000
0000
0000
0000
0000
0000
0000
0000
0000
0000
0000
0000
0000
0000
0000
0000
0000
0000
0000
0000
0000
0000
2000
0000
0000
0000
0000
0000
0000
0000
0000
0000
0000
0000
0200
0000
0000
0000
0000
0000
0000
0000
0000
0020
0000
0000
0000
0000
0000
3330
0000
0000
0000
0000
0000
0000
0000
0000
0010
0000
0000
1110
0000
0000
0000
0000
0000
0000
0000
0000
0000
0000
0000
2000
0000
0000
0000
0000
0000
0000
0000
0000
0002
0000
0000
0000
0000
0000
0000
0000
0000
0000
0000
0000
0000
0000
0000
0200
0000
0000
0000
0000
0000
3303
0000
0000
1101
0000
0000
0000
0000
0000
0000
0000
0000
2000
0000
0000
0000
0000
0000
0M00
0000
0000
0000
0000
0000
0000
0000
0000
0020
0000
0000
0M02
0000
0000
0000
0000
0000
3033
0000
0000
2022
0000
0000
,  // measure 70
0M00
0000
0000
0000
0000
0000
0000
0000
0000
0000
0000
0000
0M00
0000
0000
0000
0000
0000
0000
0000
0000
0000
0000
0000
0000
0000
0000
0000
0000
0000
0000
0000
0000
0000
0000
0000
0000
0000
0000
0000
0000
0000
0000
0000
0000
0000
0000
0000
0000
0000
0000
0000
0000
0000
0000
0000
0000
0000
0000
0000
0000
0000
0000
0000
0000
0000
0000
0000
0000
0000
0000
0000
0000
0000
0000
0000
0000
0000
0000
0000
0000
0100
0000
0000
0000
0000
0000
0000
0000
0000
0000
0000
0000
0000
0000
0000
0000
0000
0000
0000
0000
0000
0000
0000
0000
0000
0000
0000
0000
0000
0000
0000
0000
0000
0000
0000
0000
0000
0000
0000
3133
0000
0000
0000
0000
0000
0000
0000
0000
0000
0000
0000
0000
0000
0000
0000
0000
0000
0000
0000
0000
1000
0000
0000
0010
0000
0001
0000
1000
0000
0100
0000
0002
0000
0000
0000
0003
0000
0000
0000
0000
0000
0000
0000
0000
0000
0000
0000
0000
0000
0000
0000
0000
0000
0000
0000
0000
0000
0000
0000
0000
0000
0000
0000
0000
0000
0000
0000
0000
0000
0000
0000
;
