#TITLE:Destination Unknown;
#SUBTITLE:;
#ARTIST:Renard;
#TITLETRANSLIT:;
#SUBTITLETRANSLIT:;
#ARTISTTRANSLIT:;
#GENRE:;
#CREDIT:;
#BANNER:;
#BACKGROUND:;
#LYRICSPATH:;
#CDTITLE:;
#MUSIC:unknown.ogg;
#OFFSET:0.000;
#SAMPLESTART:51.200;
#SAMPLELENGTH:12.200;
#SELECTABLE:YES;
#DISPLAYBPM:75.000:225.000;
#BPMS:0.000=150.000
,32.000=1200.000
,32.500=600.000
,33.500=300.000
,35.000=150.000
,36.500=600.000
,37.500=300.000
,39.500=150.000
,40.500=1200.000
,41.000=150.000
,41.500=300.000
,42.000=150.000
,42.500=300.000
,42.750=600.000
,43.250=300.000
,43.500=150.000
,45.000=300.000
,46.000=150.000
,47.500=600.000
,48.000=300.000
,48.500=150.000
,50.000=600.000
,51.000=300.000
,53.000=600.000
,53.500=150.000
,55.000=300.000
,56.000=150.000
,90.000=300.000
,93.000=150.000
,94.500=300.000
,95.000=150.000
,95.500=300.000
,96.000=150.000
,96.500=300.000
,97.500=150.000
,98.000=300.000
,101.000=150.000
,102.000=300.000
,105.500=150.000
,110.500=300.000
,111.000=150.000
,111.500=300.000
,112.000=150.000
,112.500=300.000
,113.500=150.000
,118.000=300.000
,121.000=150.000
,122.000=75.000
,138.000=150.000
,202.000=600.000
,205.000=150.000
,206.500=300.000
,207.000=150.000
,207.500=300.000
,208.000=150.000
,208.500=300.000
,209.500=150.000
,210.000=600.000
,213.000=150.000
,214.000=300.000
,217.500=150.000
,222.500=300.000
,223.000=150.000
,223.500=300.000
,224.000=150.000
,224.500=300.000
,225.000=600.000
,225.250=300.000
,225.500=150.000
,230.000=300.000
,231.000=600.000
,231.250=300.000
,232.500=600.000
,232.750=300.000
,233.000=150.000
,234.000=225.000
,258.000=150.000
;
#STOPS:32.000=0.375,
32.500=0.150,
33.000=0.150,
33.500=0.500,
34.000=0.500,
34.500=0.300,
36.500=0.150,
37.000=0.150,
37.500=0.100,
38.000=0.100,
38.500=0.100,
39.000=0.100,
40.500=0.575,
41.500=0.050,
41.750=0.050,
42.500=0.050,
42.750=0.150,
43.250=0.050,
45.000=0.100,
45.500=0.100,
47.500=0.550,
48.000=0.300,
50.000=0.150,
50.500=0.150,
51.000=0.100,
51.500=0.100,
52.000=0.100,
52.500=0.100,
53.000=0.350,
55.000=0.100,
55.500=0.050,
55.750=0.050,
90.000=0.100,
90.500=0.100,
91.000=0.100,
91.500=0.100,
92.000=0.100,
92.500=0.100,
94.500=0.050,
94.750=0.050,
95.500=0.050,
95.750=0.050,
96.500=0.050,
96.750=0.050,
97.000=0.050,
97.250=0.050,
98.000=0.100,
98.500=0.100,
99.000=0.100,
99.500=0.100,
100.000=0.100,
100.500=0.100,
102.000=0.050,
102.250=0.050,
102.500=0.050,
102.750=0.050,
103.000=0.050,
103.250=0.050,
103.500=0.050,
103.750=0.050,
104.000=0.050,
104.250=0.050,
104.500=0.050,
104.750=0.050,
105.000=0.050,
105.250=0.050,
110.500=0.050,
110.750=0.050,
111.500=0.050,
111.750=0.050,
112.500=0.050,
112.750=0.050,
113.000=0.050,
113.250=0.050,
118.000=0.050,
118.250=0.050,
118.500=0.050,
118.750=0.050,
119.000=0.050,
119.250=0.050,
119.500=0.050,
119.750=0.050,
120.000=0.050,
120.250=0.050,
120.500=0.050,
120.750=0.050,
202.000=0.150,
202.500=0.150,
203.000=0.150,
203.500=0.150,
204.000=0.150,
204.500=0.150,
206.500=0.050,
206.750=0.050,
207.500=0.050,
207.750=0.050,
208.500=0.050,
208.750=0.050,
209.000=0.050,
209.250=0.050,
210.000=0.150,
210.500=0.150,
211.000=0.150,
211.500=0.150,
212.000=0.150,
212.500=0.150,
214.000=0.050,
214.250=0.050,
214.500=0.050,
214.750=0.050,
215.000=0.050,
215.250=0.050,
215.500=0.050,
215.750=0.050,
216.000=0.050,
216.250=0.050,
216.500=0.050,
216.750=0.050,
217.000=0.050,
217.250=0.050,
222.500=0.050,
222.750=0.050,
223.500=0.050,
223.750=0.050,
224.500=0.050,
224.750=0.050,
225.000=0.075,
225.250=0.050,
230.000=0.050,
230.250=0.050,
230.500=0.050,
230.750=0.050,
231.000=0.075,
231.250=0.050,
231.500=0.050,
231.750=0.050,
232.000=0.050,
232.250=0.050,
232.500=0.075,
232.750=0.050
;
#BGCHANGES:;
#KEYSOUNDS:;
#ATTACKS:;

//---------------dance-single - Raymond Tracer----------------
#NOTES:
     dance-single:
     Raymond Tracer:
     Challenge:
     11:
     0.852,0.896,0.252,0.130,1.000,643.000,29.000,15.000,0.000,6.000,0.000,0.852,0.896,0.252,0.130,1.000,643.000,29.000,15.000,0.000,6.000,0.000: // measure 0
0000
0000
0000
0000
,  // measure 1
0000
0000
0000
0000
,  // measure 2
0000
0000
0000
0000
,  // measure 3
0000
0000
0000
0000
,  // measure 4
1001
0000
0000
0000
1000
0100
0000
0010
,  // measure 5
0000
0000
0000
0000
0000
0000
0001
0100
,  // measure 6
0010
0000
0000
1000
0000
0000
0110
0000
,  // measure 7
0001
0000
1000
0000
0100
0010
0001
0000
,  // measure 8
1001
0001
0100
0010
0110
1010
1001
0000
,  // measure 9
0000
1000
0100
0010
1000
0010
0001
0100
,  // measure 10
0000
0000
1001
0000
0100
0000
0010
0001
1000
0000
1000
0100
0000
0100
0010
0000
,  // measure 11
0001
0000
0001
0010
0100
0000
0000
0110
,  // measure 12
0100
1000
0000
0000
0010
0100
0010
1000
,  // measure 13
0001
0000
0100
0000
0010
0000
0100
0000
0000
0000
0000
0000
0001
0000
1000
0100
,  // measure 14
0010
0000
0000
0000
0000
0000
0001
1000
0100
1000
0010
0100
,  // measure 15
0010
1000
0100
0010
0001
1000
0100
0010
0001
1000
0100
1000
,  // measure 16
0001
0010
0100
0010
0001
1000
0100
0010
0001
1000
0001
0100
,  // measure 17
0010
1000
0001
0100
0010
0100
0001
1000
0100
0010
0001
0010
,  // measure 18
0100
1000
0001
0010
0100
1000
0001
1000
0001
0100
0001
0100
,  // measure 19
0010
1000
0001
0100
0010
1000
0001
0100
0001
1000
0010
0100
,  // measure 20
0001
1000
0001
0100
0001
1000
0100
0010
0001
1000
0010
1000
,  // measure 21
0100
0010
0001
1000
0010
1000
0010
0100
0010
0100
0010
1000
,  // measure 22
0001
0000
1000
0000
0001
0000
1000
0000
0100
0000
0010
0000
0001
0000
0000
2000
0000
0000
0100
0000
0000
0200
0000
0000
,  // measure 23
0010
0000
0020
0000
3331
0000
0000
0000
0000
0000
0001
0010
0100
0000
0010
0100
,  // measure 24
1000
0000
0001
0010
0100
1000
0001
0000
1000
0000
0002
0000
0100
0000
0200
0000
,  // measure 25
0010
0000
0020
0000
1333
0000
0000
0000
0001
0100
0001
0100
0010
1000
0010
1000
,  // measure 26
0100
0010
0001
1000
0010
0100
0001
0000
1000
0000
0100
0010
0000
0010
0001
0000
,  // measure 27
0001
0100
0000
0100
0010
0000
0100
0000
0000
0000
0001
0100
0010
0000
1000
0100
,  // measure 28
0010
0000
0001
1000
0100
1000
0001
0000
0010
0000
0100
1000
0000
1000
0100
0000
,  // measure 29
0100
0010
0000
0010
0001
0000
0100
0000
0010
1000
0100
0010
0100
0010
0001
0100
,  // measure 30
0010
0100
0010
1000
0001
0000
0000
0000
1002
0000
0000
0000
0103
0000
2010
0001
,  // measure 31
0000
0000
0001
0000
3100
0000
0000
0000
1020
0001
0000
0000
1000
0000
0000
0130
,  // measure 32
0201
0000
0010
0000
1000
0000
0010
0301
0012
0000
0000
0000
1003
0000
0021
0100
,  // measure 33
0000
0000
1000
0000
0031
0000
0000
0000
0201
1000
0000
0000
0001
0300
2002
0000
,  // measure 34
0000
3003
0000
0000
0000
0000
0000
0000
0000
0000
0000
0000
0000
0000
0000
0000
0001
0000
0010
0000
0100
0000
1000
0000
0010
0000
0100
0000
0001
0000
1000
0000
,  // measure 35
0100
0010
0001
0010
0100
1000
0001
0010
0100
1000
0001
0010
0001
1000
0100
0010
,  // measure 36
0001
1000
0010
0100
0001
1000
0010
1000
0001
0010
0100
1000
0001
0010
0100
0010
,  // measure 37
0100
1000
0010
0100
0010
0100
0001
1000
0100
0010
0100
1000
0001
0010
0100
1000
,  // measure 38
0001
0100
0001
0100
0010
1000
0010
1000
0100
1000
0010
0100
0001
1000
0010
0100
,  // measure 39
0001
1000
0100
0010
0001
1000
0100
0010
0001
1000
0001
1000
0010
1000
0001
1000
,  // measure 40
0010
1000
0001
1000
0100
1000
0001
1000
0100
1000
0010
1000
0100
1000
0010
0100
,  // measure 41
0001
0010
0001
1000
0001
0100
0001
0010
0001
1000
0100
0010
0001
1000
0100
1000
,  // measure 42
0010
1000
0001
1000
0100
0010
0001
1000
0100
0010
0001
1000
0010
0100
0001
1000
,  // measure 43
0010
0100
0001
1000
0001
1000
0100
1000
0010
0100
0001
1000
0010
1000
0100
0010
,  // measure 44
0001
1000
0100
1000
0001
0010
0100
1000
0001
0100
0001
0100
0010
1000
0100
0010
,  // measure 45
0001
0100
0010
1000
0100
1000
0100
1000
0100
0010
0001
0010
0001
0010
0001
1000
,  // measure 46
0010
1000
0010
1000
0010
0100
0001
0100
0001
0100
0001
1000
0100
0010
0001
1000
,  // measure 47
0010
0100
0001
0010
0100
1000
0001
0100
0010
1000
0001
0100
0010
0100
0001
1000
,  // measure 48
0100
0010
0100
1000
0010
0100
0001
1000
0010
0100
0001
1000
0010
1000
0100
0010
,  // measure 49
0001
0010
0100
0010
0001
1000
0100
0010
0100
1000
0100
0010
0001
0100
0010
1000
,  // measure 50
0001
0010
0100
1000
0001
0100
0001
0000
1000
0000
1010
0000
0001
0000
0110
0000
,  // measure 51
1000
0000
1100
0000
0010
0000
0000
0000
0000
0000
1000
0010
0100
0000
0010
0100
,  // measure 52
0001
0000
1000
0010
0100
0001
0010
0000
1100
0000
0010
0000
0101
0000
0100
0000
,  // measure 53
1010
0000
0001
0000
1100
0000
0000
0000
0001
0010
0100
1000
0001
0010
0100
1000
,  // measure 54
0001
0010
0100
1000
0010
0100
0001
0000
1000
0000
0001
0100
0000
0100
0010
0000
,  // measure 55
0010
1000
0000
1000
0100
0000
0010
0000
0000
0000
0001
1000
0100
0000
1000
0001
,  // measure 56
0100
0000
0001
1000
0010
0010
0001
0000
1000
0000
0001
0010
0000
0010
1000
0000
,  // measure 57
1000
0100
0000
0100
0001
0000
0010
0000
1000
0100
0010
0001
0010
0010
1000
0100
,  // measure 58
0010
0000
0001
0000
0100
0000
0100
0000
1000
0000
0000
0000
0000
0000
0000
0000
0101
0000
0000
0000
0000
0000
0010
0000
0000
1000
0000
0000
0100
0000
0000
0000
,  // measure 59
0000
0000
0010
0000
0000
0000
0000
0000
0011
0000
0000
0000
0000
0000
0100
0000
0000
0010
0000
0000
1000
0000
0000
0000
0000
0000
0010
0000
0000
0000
0000
0000
,  // measure 60
1010
0000
0000
0000
0000
0000
0001
0000
0000
0100
0000
0000
0010
0000
0000
0000
0000
0000
1000
0000
0000
0001
0000
0000
0010
0000
0000
0000
0000
0000
1000
0000
,  // measure 61
0000
0100
0000
0000
0010
0000
0000
0000
0000
0000
0001
0000
0000
0000
0000
0000
1100
0000
0000
0000
0000
0000
1000
0000
0000
0010
0000
0000
1000
0000
0000
0000
,  // measure 62
0000
0000
1000
0000
0000
0000
0000
0000
0100
0000
0000
0000
0000
0000
0010
0000
0000
0001
0000
0000
0010
0000
0000
0000
0000
0000
0010
0000
0000
0000
0000
0000
,  // measure 63
0001
0000
0000
0000
0000
0000
0100
0000
0000
0001
0000
0000
0100
0000
0000
0000
0000
0000
0001
0000
0000
0010
0000
0000
0100
0000
0000
0000
0000
0000
1000
0000
,  // measure 64
0000
0100
0000
0000
1000
0000
0000
0000
0000
0000
0110
0000
0000
0000
0000
0000
0101
0000
0000
0000
0000
0000
0000
0000
0000
0000
0000
0000
0000
0000
0000
0000
;
