#TITLE:Cupcakes;
#SUBTITLE:;
#ARTIST:Futret;
#TITLETRANSLIT:;
#SUBTITLETRANSLIT:;
#ARTISTTRANSLIT:;
#GENRE:;
#CREDIT:;
#BANNER:;
#BACKGROUND:;
#LYRICSPATH:;
#CDTITLE:;
#MUSIC:Futret - Cupcakes - 01 Cupcakes -Explicit-.OGG;
#OFFSET:0.000;
#SAMPLESTART:19.800;
#SAMPLELENGTH:12.000;
#SELECTABLE:YES;
#BPMS:0.000=194.300
,143.500=194.500
,296.000=195.000
,343.000=194.000
,459.500=97.000
,494.000=195.000
,523.500=194.000
,556.000=195.000
,597.000=192.000
,606.000=195.000
,620.000=190.000
,633.000=195.000
,709.000=196.000
,713.000=195.000
,716.500=196.000
,724.000=195.000
,733.000=196.000
,773.000=197.000
,780.000=195.000
,781.000=194.000
;
#STOPS:
;
#BGCHANGES:;
#KEYSOUNDS:;
#ATTACKS:;

//---------------dance-single - Blank----------------
#NOTES:
     dance-single:
     :
     Challenge:
     12:
     0.800,1.000,0.204,0.064,0.697,1410.000,54.000,17.000,18.000,0.000,0.000,0.800,1.000,0.204,0.064,0.697,1410.000,54.000,17.000,18.000,0.000,0.000: // measure 0
0000
0000
0000
0000
,  // measure 1
0000
0000
0000
0000
,  // measure 2
0000
0000
0000
0000
,  // measure 3
0000
0000
0000
0000
,  // measure 4
0000
0000
0000
0000
,  // measure 5
0000
0000
0000
0000
,  // measure 6
0000
0000
0000
0000
,  // measure 7
0000
0000
0000
0000
,  // measure 8
0000
0000
0000
0000
,  // measure 9
0000
0000
0000
0000
,  // measure 10
0000
0000
0000
0000
,  // measure 11
0000
0000
0000
0000
,  // measure 12
0000
0000
0000
0000
,  // measure 13
0000
0000
0000
0000
,  // measure 14
0000
0000
0000
0000
,  // measure 15
0000
0000
0000
0000
,  // measure 16
1000
0010
0100
0001
0010
0100
1000
0000
,  // measure 17
0001
0100
0010
1000
0100
0010
0000
0000
,  // measure 18
0001
0100
0010
0100
0001
1000
0100
0010
,  // measure 19
0100
1000
0001
0000
0001
0100
0000
0000
,  // measure 20
0010
1000
0100
0010
0000
0001
0100
0000
,  // measure 21
0001
0010
0000
0110
0000
0000
0000
0000
,  // measure 22
0100
1000
0010
0100
0000
0001
0100
0010
,  // measure 23
1000
0100
0000
0010
0000
0000
0000
0000
,  // measure 24
0000
0001
0000
1000
0000
0001
0100
0000
,  // measure 25
0000
0010
0000
0100
0000
0110
0000
0000
,  // measure 26
0000
0010
1000
0100
0000
0100
0010
0000
,  // measure 27
0010
0001
0000
0001
0100
1000
0100
0001
,  // measure 28
0000
0100
0000
0010
1000
0100
0000
0010
,  // measure 29
0001
0100
0001
0000
0000
0000
1000
0010
,  // measure 30
0100
0001
0100
0100
0010
1000
0100
0100
,  // measure 31
0010
0001
1000
0100
0100
0010
0000
0001
,  // measure 32
0010
0000
0000
0001
0000
0000
1000
0000
0000
0001
0100
0001
0100
0000
0000
0010
0000
0000
1000
0010
1000
0010
0000
0000
,  // measure 33
1000
0000
0000
0001
0000
0000
0010
0000
0000
0100
0000
0000
0010
0000
0000
0001
0000
0000
1000
0000
0010
0000
0100
0000
,  // measure 34
0001
0000
1000
0000
0100
0000
0010
0000
0000
0001
0000
0000
0100
0000
0000
0010
0000
0000
0100
0000
0000
0001
0000
0000
,  // measure 35
1000
0010
1000
0100
0010
0001
0100
0010
,  // measure 36
0000
1000
0000
0001
0000
1000
0000
0100
,  // measure 37
0000
1000
0000
0001
0000
0100
0000
0001
,  // measure 38
0000
0000
0010
0000
0000
0000
0100
0000
0000
0000
1000
0000
0000
0000
0001
0100
,  // measure 39
0010
1000
0100
0010
0001
1000
0001
1000
0001
1000
0100
1000
0100
0000
1000
0000
,  // measure 40
0001
0000
1000
0000
0100
0000
1000
0010
1000
0000
0010
0000
0100
0000
0001
0000
,  // measure 41
0010
0000
0000
0000
0000
0000
0100
0000
0000
1000
0000
0000
0100
0000
0000
1000
0000
0000
0100
0000
0000
0000
0000
0000
1000
0000
0000
0000
0000
0000
0001
0000
0000
0000
0000
0000
0100
0000
0000
0000
0000
0000
0010
0000
0000
0000
1000
0000
,  // measure 42
0000
0010
0000
1000
0000
0001
0000
1000
0000
0100
0000
0010
0000
0001
0000
1000
0000
0010
0000
0100
0000
0001
0000
0000
,  // measure 43
0000
0100
0000
0000
0010
0000
0000
1000
0000
0000
0100
0000
0010
0000
0001
0000
,  // measure 44
0010
0100
1000
0100
0010
0100
1000
0001
,  // measure 45
0100
0010
1000
0001
0100
0010
1000
0100
,  // measure 46
0010
0000
0001
0000
0010
0000
0100
0000
1000
0000
0001
0000
0100
0010
1000
0001
,  // measure 47
0100
0001
1000
0100
0010
0001
1000
0100
0010
0001
1000
0100
1000
0000
0100
0000
,  // measure 48
0010
0001
1000
0010
0100
0001
1000
0010
,  // measure 49
1000
0000
0000
0001
0000
0000
0100
0000
0000
0001
0000
0000
0100
0000
0000
0010
0000
0000
1000
0000
0100
0000
0010
0000
,  // measure 50
0001
0000
1000
0000
0010
0000
0100
0000
0000
0001
0000
0000
0200
0000
0000
0000
0000
0000
0310
0000
0000
1000
0000
0000
,  // measure 51
0100
0010
0001
1000
0100
0010
0001
0000
,  // measure 52
0100
1000
0100
0001
,  // measure 53
0010
1000
0001
0100
,  // measure 54
0001
0000
0000
0000
1000
0000
0000
0000
0100
0000
0000
0000
0010
0001
1000
0100
,  // measure 55
1000
0001
0010
0100
1000
0001
0010
0100
1000
0001
0100
0001
0100
0000
0001
0000
,  // measure 56
0100
0000
0100
0000
0010
1000
0010
0100
0010
0000
1000
0000
0100
0000
0010
0000
,  // measure 57
0001
0000
0000
0100
0000
0000
0010
0000
0000
1000
0000
0000
0001
0000
0000
0100
0000
0000
0010
0000
0000
1000
0000
0000
0100
0000
0000
0000
0000
0000
0010
0000
0000
0001
0000
0000
0010
0000
0000
0000
0001
0000
0000
0000
1000
0000
0000
0000
,  // measure 58
0010
0100
0001
1000
0100
0010
0001
1000
0010
1010
0000
0110
,  // measure 59
0000
0101
0000
1001
0000
1100
0000
0110
0000
0011
0000
0000
,  // measure 60
0001
0000
0010
0000
0100
0000
1000
0010
,  // measure 61
0100
0001
1000
0010
0100
0001
2000
0000
,  // measure 62
3200
0000
0000
0000
0320
0000
0000
0000
0032
0000
0000
0000
0103
0010
1000
0100
,  // measure 63
0010
0001
1000
0100
0010
0100
1000
0001
0010
0100
1000
0001
0010
0000
0001
0000
,  // measure 64
0010
0000
0000
0001
0000
0000
1000
0000
0000
0100
0000
0000
1000
0000
0000
0100
0000
0000
1000
0100
0010
0001
0000
0000
,  // measure 65
0100
0010
1000
0100
1000
0010
0100
0001
,  // measure 66
1000
0100
0010
0001
1000
0010
0000
0010
,  // measure 67
0100
0001
1000
0100
0010
0000
0000
0010
,  // measure 68
0001
0100
0010
1000
0100
0010
0100
1000
,  // measure 69
0010
0100
0000
0100
0001
0000
1000
0010
,  // measure 70
0100
0001
0000
0000
0010
0100
0000
0100
,  // measure 71
1000
0000
0100
0000
0000
0000
0000
1000
,  // measure 72
0001
0100
0010
0000
1000
0010
1000
0100
,  // measure 73
0010
0001
0000
0000
,  // measure 74
1001
0000
1001
0000
0001
1000
0000
0000
,  // measure 75
1001
2002
0000
3003
,  // measure 76
0100
0010
1000
0000
1000
0100
0000
0100
,  // measure 77
0010
0000
0010
0001
0100
0002
0000
0003
,  // measure 78
1000
0000
0100
0010
0001
0000
0100
0010
,  // measure 79
1000
0100
0000
0000
0000
0000
1000
0100
,  // measure 80
0010
0000
0001
0000
0010
M00M
0010
0000
1000
0000
0100
0000
0010
M00M
0010
0000
,  // measure 81
1000
0000
0001
0000
0100
M00M
0100
0000
1000
0000
0000
0000
1010
0000
1000
0000
,  // measure 82
1010
0000
0010
0000
0100
0000
0001
0000
0100
0000
0010
0000
1000
0010
1000
0000
,  // measure 83
0001
1000
0001
0000
0101
0000
0101
0000
0011
0000
0011
0000
0000
0000
0000
0000
,  // measure 84
0000
0000
0000
0000
0000
0000
0001
0100
,  // measure 85
0010
0000
0000
1000
0000
0000
0100
0000
0000
0010
0000
0000
0001
0000
0000
0100
0000
0000
0010
0000
1000
0000
0010
0000
,  // measure 86
0100
0001
1000
0010
0100
0001
0010
0100
1000
0001
0010
0001
,  // measure 87
1000
0100
0010
0001
0100
0010
0100
0010
1000
0010
0100
0010
,  // measure 88
1000
0010
0100
0001
0100
0010
1000
0100
0010
0100
1000
0001
,  // measure 89
0010
0001
1000
0010
0100
0001
0100
0010
0100
0001
1000
0100
,  // measure 90
0010
0001
0100
0010
0100
0001
1000
0100
0010
0001
0100
0010
,  // measure 91
1000
0010
0100
0001
1000
0100
0010
0001
1000
0100
1000
0001
,  // measure 92
1000
0010
0100
0010
1000
0100
0010
0001
1000
0001
0100
0001
,  // measure 93
0010
0100
1000
0001
0010
0100
1000
0100
0010
0100
1000
0100
,  // measure 94
0010
0001
1000
0100
0010
0001
0010
0100
0010
0001
1000
0010
,  // measure 95
0100
0001
0100
0001
0100
0010
1000
0100
0010
0001
1000
0100
,  // measure 96
0010
0100
1000
0010
0100
0010
1000
0100
0010
0001
0010
0100
,  // measure 97
1000
0100
0010
0100
1000
0001
0010
0100
0010
0001
0100
0010
,  // measure 98
0100
0010
1000
0010
0100
0001
0100
0001
1000
0100
1000
0100
,  // measure 99
0010
0100
1000
0010
0100
0001
1000
0100
0010
0002
0000
1000
,  // measure 100
0003
0002
0000
0100
0003
0002
0000
0010
0003
0200
0000
1000
,  // measure 101
0300
0000
0020
0000
0000
0000
0100
0000
0030
0000
0002
0000
0000
0000
0000
0010
0003
0000
0100
0000
0000
1000
0000
0000
,  // measure 102
0010
0100
0000
0100
0001
0100
0010
1000
,  // measure 103
0100
0000
0010
0001
0010
0100
1000
0000
,  // measure 104
1000
0000
0000
0010
0000
0000
0100
0000
0000
0001
0000
0000
1000
0000
0000
0100
0000
0000
1000
0000
0000
0000
0010
0000
,  // measure 105
0000
0000
0100
0000
0000
0000
0001
0000
0000
0100
0000
0000
1000
0000
0000
0100
0000
0000
0001
0000
0000
1000
0000
0000
,  // measure 106
0100
0001
0100
1000
0001
0010
1000
0010
,  // measure 107
0001
0000
0000
1000
0000
0100
0000
1000
0000
0100
0000
1000
0000
0100
0000
1000
0000
0100
0000
0010
0000
0100
0000
0010
,  // measure 108
0000
0100
0000
0010
0000
0001
0000
0010
0000
0001
0000
0010
0000
0001
0000
0010
0000
0001
0000
1000
0000
0001
0000
0100
,  // measure 109
0000
0010
0000
1000
0000
0001
0000
0100
0000
0010
0000
1000
0000
0100
0000
0010
0000
0001
0000
1000
0000
0100
0000
0010
,  // measure 110
0000
0001
0000
1000
0000
0010
0000
0100
0000
0001
0000
1000
0000
0010
0000
0100
0000
0000
0001
0000
0000
1000
0000
0000
,  // measure 111
0100
0010
0000
0010
0001
0100
0010
1000
,  // measure 112
0010
0000
0000
0001
0000
0000
0010
0000
0000
1000
0000
0000
0001
0000
0100
0000
0010
0000
1000
0000
0001
0000
0100
0000
,  // measure 113
0010
1000
0100
0010
0001
1000
0100
0010
0001
0010
0100
1000
,  // measure 114
0000
0000
0101
0000
0000
0000
0000
0000
0110
0000
0000
0000
1010
0000
0000
0000
1100
0000
0000
0000
0000
0110
0000
0000
,  // measure 115
0000
0000
0000
0000
0000
0000
0000
0000
0000
0010
1000
0001
0100
0010
1000
0100
,  // measure 116
0000
0100
0010
0001
1000
0010
0100
0000
0010
1000
0001
1000
0100
0010
0001
1000
,  // measure 117
0010
0100
0001
1000
0100
1000
0001
0000
0000
0000
0010
0000
0001
0000
0100
0010
,  // measure 118
0000
0010
1000
0000
1000
0000
0000
0000
0000
1000
0100
1000
0000
0100
0000
0010
,  // measure 119
0001
0100
0000
0010
0000
0000
0000
0000
1000
0100
0000
0001
0000
0100
1000
0000
,  // measure 120
0000
1000
0000
0010
0000
0000
0000
0000
0000
0001
0010
1000
0000
1000
0100
0000
,  // measure 121
0100
0010
0000
0001
0000
0000
0000
0000
0000
1000
0000
0010
0100
0001
0000
1000
,  // measure 122
0100
0000
0010
0000
0001
0000
0000
0000
0000
0000
0000
0000
0000
0000
0100
0000
0010
0000
1000
0000
0100
0000
0010
M00M
0010
0000
1000
0000
0001
0000
0100
M00M
,  // measure 123
0100
0000
1000
0000
0001
0000
0010
M00M
0010
0000
1000
0000
0000
0000
0000
0000
1000
0000
0000
0000
0100
0000
0000
0000
0010
0000
0000
0000
0001
0000
0000
0000
,  // measure 124
0100
0010
1000
0000
1000
0010
0100
0001
,  // measure 125
1000
0100
0000
0000
0010
0001
0100
0001
,  // measure 126
0010
0100
0010
0001
0100
0010
1000
0000
,  // measure 127
0100
0010
0000
0001
1000
0010
0100
0010
,  // measure 128
0000
0010
1000
0000
1000
0100
0000
0100
,  // measure 129
0000
0000
0000
0010
0001
0100
0001
1000
,  // measure 130
0000
0100
0010
0001
0010
0001
0000
1000
,  // measure 131
0000
0000
1000
0010
,  // measure 132
0100
0001
0000
0000
0001
0000
0100
0000
,  // measure 133
0101
0000
0000
0000
1000
0100
0010
0000
,  // measure 134
0100
1000
0000
0001
0100
0000
0010
1000
,  // measure 135
0100
1000
0000
0000
0010
0000
0100
0001
,  // measure 136
0010
0000
0100
1000
0100
0010
0000
0000
,  // measure 137
0000
0000
0000
0000
0001
0000
0100
0000
0010
0000
1000
0000
0100
M00M
0100
0000
,  // measure 138
0001
0000
0010
0000
0100
M00M
0100
0000
0001
0000
1000
0000
0010
M00M
0010
0000
,  // measure 139
0001
0000
0000
1000
0010
0100
0001
1000
,  // measure 140
0100
0010
0001
1000
0100
0010
0001
1000
,  // measure 141
0001
0000
0000
0010
0000
0000
0001
0000
0100
0000
0001
0000
1000
0000
0100
0000
0010
0000
0001
0000
0000
0100
0000
0000
,  // measure 142
0010
1000
0000
1000
0100
0010
0001
1000
,  // measure 143
0001
0010
0100
1000
0000
0001
0000
0100
,  // measure 144
0000
0010
0000
1000
0000
0100
0000
0010
,  // measure 145
0000
0001
0000
0100
0010
1000
0100
0100
,  // measure 146
1000
0010
0100
0100
0001
0010
0100
1000
,  // measure 147
1000
0000
0001
0000
0000
0000
0100
0000
0010
0000
1000
0000
0100
1000
0100
0010
,  // measure 148
0001
0000
0100
0000
0010
0000
0100
0000
0001
1000
0001
1000
0001
0000
0100
0000
,  // measure 149
0010
0000
0000
0100
0000
0000
0001
0000
1000
0000
0100
0000
1000
0000
0001
0000
0100
0000
0001
0000
0010
0000
0001
0000
,  // measure 150
1000
0010
1000
0100
1100
0000
0110
0000
0011
0000
0101
0000
,  // measure 151
0110
0000
0000
0000
1010
0000
0000
0000
1001
0000
0000
0000
0001
0000
0000
0100
0000
0000
0010
0000
0000
0010
0000
0000
,  // measure 152
1000
0100
0010
0010
0001
1000
0100
0100
,  // measure 153
0010
0100
1000
1000
0010
0100
0001
0001
,  // measure 154
1000
0010
0100
0100
0001
0100
0010
0010
,  // measure 155
0100
0000
0001
0100
0010
0100
0001
1000
,  // measure 156
0100
0010
0001
0010
0001
1000
0010
0100
,  // measure 157
0001
0000
0000
0100
0000
0000
0010
0000
1000
0000
0001
0000
0100
0000
0010
0000
1000
0000
0100
0000
0000
0010
0000
0000
,  // measure 158
0002
0000
0103
0010
1000
0010
0100
0001
,  // measure 159
1000
0100
0110
0000
0110
0000
0011
0000
,  // measure 160
0011
0101
0101
0110
,  // measure 161
0110
1010
1010
1001
,  // measure 162
1001
0000
0000
0000
1000
0100
0010
0001
1000
0100
0010
0001
0010
0001
1000
0010
,  // measure 163
0100
0001
1000
0010
0100
0000
0001
0000
1000
0000
0100
0000
1000
0000
0001
0000
,  // measure 164
0010
0100
1000
0001
0010
0100
1000
0001
,  // measure 165
0100
0000
0000
0001
0000
0000
1000
0000
0010
0000
1000
0000
0010
0000
0100
0000
0001
0000
0100
0000
0010
0000
1000
0000
,  // measure 166
0100
0010
0001
0100
0001
0010
0100
1000
,  // measure 167
0001
0100
0010
0000
1000
0000
0100
0000
,  // measure 168
0010
0001
0100
0010
,  // measure 169
1000
1100
0110
0011
,  // measure 170
1001
0000
0000
0000
0001
0100
0010
1000
0001
0010
0100
1000
0001
0010
0100
1000
,  // measure 171
0001
0100
0010
0100
0001
0000
1000
0000
0100
0000
0010
0001
1000
0100
0010
0000
,  // measure 172
0001
0100
0010
0000
0100
0000
0001
0000
1000
0001
0010
0100
1000
0000
0001
0000
,  // measure 173
0100
0000
0000
0010
0000
0000
0100
0000
0000
0000
0000
0000
0001
0000
0000
0000
0100
0000
0000
0000
0001
0000
0000
0000
1000
0000
0000
0000
0100
0000
0000
0000
1000
0000
0000
0000
0100
0000
0000
0000
0010
0000
0000
0000
0001
0000
0000
0000
,  // measure 174
1000
0010
0100
0101
0000
0110
0000
1010
0000
1100
0000
0110
,  // measure 175
0000
0000
0011
0000
0000
0000
0001
0000
0000
0100
0000
0000
0010
0000
0000
1000
0000
0000
0100
0000
0000
0010
0000
0000
,  // measure 176
0001
1000
0010
0100
0001
1000
0010
1000
,  // measure 177
0100
0010
0001
0000
0100
0000
0010
0000
,  // measure 178
1000
0000
0000
0000
0100
0010
0001
1000
0100
0010
0100
1000
0001
0010
0100
1000
,  // measure 179
0001
0100
0010
0000
1000
0000
0010
0000
0100
0000
0010
0000
1000
0000
0100
0000
,  // measure 180
0010
0001
0000
0001
1000
0100
1000
0001
,  // measure 181
0010
0000
0100
1000
0001
0100
0010
1000
,  // measure 182
0100
0010
0001
0100
0010
0000
0010
1000
,  // measure 183
0000
0000
1000
0100
0010
0001
0000
0001
,  // measure 184
0100
0000
0100
0010
0000
1000
0000
0000
,  // measure 185
0000
0000
0100
0010
0001
0100
0010
0000
,  // measure 186
1000
0100
1000
0010
0100
0000
0001
0000
,  // measure 187
0000
0000
1000
0100
,  // measure 188
0010
0001
0000
0000
0100
0000
0010
0000
,  // measure 189
0000
0000
0000
0000
1000
0100
0010
0000
,  // measure 190
0100
1000
0000
0001
0100
0000
0010
0100
,  // measure 191
0002
0000
0000
0000
1003
0000
0100
0010
,  // measure 192
0001
0000
0100
0010
1000
0010
0000
0000
,  // measure 193
0000
0000
1000
0010
1000
0001
0010
0010
,  // measure 194
0001
1000
0100
0100
0010
0001
1000
0010
,  // measure 195
0100
0001
0001
0001
,  // measure 196
0001
0000
0001
0000
0001
0000
0001
0100
,  // measure 197
1000
0100
0001
0000
0001
0000
0001
0000
,  // measure 198
0001
0000
0001
0000
0001
0000
0001
0010
,  // measure 199
1000
0010
0001
0000
0001
0000
0001
0000
,  // measure 200
0001
0000
0001
0000
0001
0000
0001
1000
,  // measure 201
0100
0001
0100
0000
0100
0000
0100
0000
,  // measure 202
0100
0000
0100
0000
0100
0000
0100
1000
,  // measure 203
0010
0100
0002
0000
0000
0000
0000
0000
,  // measure 204
0003
0000
0000
0000
;
