#TITLE:Chicken Techno;
#SUBTITLE:;
#ARTIST:Oli Chang;
#TITLETRANSLIT:;
#SUBTITLETRANSLIT:;
#ARTISTTRANSLIT:;
#GENRE:;
#CREDIT:;
#BANNER:;
#BACKGROUND:;
#LYRICSPATH:;
#CDTITLE:;
#MUSIC:Chicken Techno by Oli Chang.mp3;
#OFFSET:0.113;
#SAMPLESTART:46.813;
#SAMPLELENGTH:12.000;
#SELECTABLE:YES;
#BPMS:0.000=133.330
,167.000=99.997
,170.750=66.665
,186.750=133.330
,216.000=99.997
,217.167=66.665
;
#STOPS:96.500=0.338
;
#BGCHANGES:;
#KEYSOUNDS:;
#ATTACKS:;

//---------------dance-single - Blank----------------
#NOTES:
     dance-single:
     :
     Challenge:
     11:
     0.444,1.000,0.100,0.118,0.637,318.000,11.000,13.000,75.000,0.000,0.000,0.444,1.000,0.100,0.118,0.637,318.000,11.000,13.000,75.000,0.000,0.000: // measure 0
0000
0000
0000
MMMM
,  // measure 1
MMMM
0000
0000
MMMM
,  // measure 2
MMMM
0000
0000
0000
0000
0000
MMMM
0010
,  // measure 3
MM0M
0000
0000
1000
0001
1000
0001
0000
0000
0000
0000
0000
0100
0000
0000
0000
0000
0000
MMMM
0000
0000
0000
0000
0000
,  // measure 4
MMMM
0000
0000
0000
0000
0000
0000
0000
0000
0000
0000
0000
1MMM
0100
0010
0000
,  // measure 5
MM0M
0000
0000
0001
0000
0000
MMMM
0000
,  // measure 6
MMMM
0000
0000
0000
0000
0000
MMMM
0001
,  // measure 7
MMM0
0000
0000
0100
0010
0100
0010
0000
0000
0000
0000
0000
1000
0000
0000
0000
0000
0000
MMMM
0000
0000
0000
0000
0000
,  // measure 8
MMMM
0000
0000
0000
0000
0000
0000
0000
0000
MMMM
0000
0000
0000
0000
0000
0000
,  // measure 9
0000
MMMM
0000
0000
MMMM
0000
0000
0000
0000
0000
0000
0000
0000
0000
0000
0000
,  // measure 10
0000
0000
0000
0000
1000
0001
1000
0000
0000
0000
0000
0000
0000
0000
0100
0000
,  // measure 11
0000
0000
0000
0000
0011
0000
0000
0000
0011
0000
0000
0000
0001
0100
0000
0000
,  // measure 12
0010
0000
0000
0000
1000
0010
0100
0000
0000
0000
0000
0000
0000
0000
0001
0000
,  // measure 13
0000
0000
0000
1000
0000
0000
0000
0000
0000
0001
0010
0001
0010
0000
0000
0000
0000
0000
0200
0000
0000
0000
0000
0000
,  // measure 14
0000
0000
0300
0000
1000
0100
0010
0000
0000
0000
0000
0000
0000
0000
0001
0000
,  // measure 15
0000
0000
0000
0000
0101
0000
0000
0000
0101
0000
0000
0000
0100
0010
0000
0000
,  // measure 16
1000
0000
0100
0000
1000
0010
0100
0000
0001
0100
0000
0000
0010
0000
0000
0000
,  // measure 17
1000
0000
0000
0001
0000
0000
0100
0000
0000
0000
0000
0000
0000
0000
0000
0000
0000
0000
0010
0000
1000
0000
0010
0000
1000
0000
0000
0000
0000
0000
0000
0000
0000
0000
0000
0000
0002
0000
0000
0000
0000
0000
0000
0000
0000
0000
0000
0000
,  // measure 18
0000
0000
0003
0000
1000
0100
0010
0000
0000
0001
0000
0000
0100
0000
0000
0000
,  // measure 19
0000
0000
0010
0000
0000
0000
0000
0000
1000
0000
0000
0000
0000
0000
0000
1100
,  // measure 20
0000
0000
0000
1000
0010
0100
0000
0000
0001
0000
0000
0001
0000
0000
0000
0000
,  // measure 21
0000
0000
0010
0000
0000
0000
0000
0000
0000
0100
0000
0000
0000
0000
2000
0000
,  // measure 22
0000
3000
0000
0001
0100
0010
0000
0000
0100
0000
0000
0000
0101
0000
0000
0000
,  // measure 23
0000
1000
0000
0000
0100
0000
0000
0010
,  // measure 24
0000
0000
0020
0000
0000
0000
0000
0001
0000
0000
0100
0000
0000
0001
0000
0000
,  // measure 25
0100
0000
0000
0001
0000
0000
0100
0000
0000
0001
0000
0030
0000
0000
0000
0000
,  // measure 26
0000
0000
1000
0010
0100
0000
0000
0000
0000
0000
0000
0001
0000
0000
0000
0000
,  // measure 27
1000
0000
0000
0010
0000
0010
0100
0001
0100
0002
0000
0000
0000
0003
0000
0000
,  // measure 28
0000
1000
0000
0001
1000
0000
0010
0000
0000
0000
0000
0000
0100
0000
0001
1000
,  // measure 29
0010
0000
0000
0000
0000
0000
0000
0000
0000
0000
0000
0000
0100
0000
0001
0000
0100
0000
0001
0000
0000
0000
0000
0000
0000
0000
0000
0000
0000
0000
2000
0000
0000
0000
0000
0000
0000
0000
0000
0000
0000
0000
0000
0000
0000
3000
0000
0000
,  // measure 30
0000
0000
0001
0010
0002
0000
0000
0000
0003
0000
0000
0000
1000
0000
0000
0000
,  // measure 31
1001
0000
0000
0001
0000
0001
0010
0100
1000
0001
1000
0000
0010
0000
0010
0000
,  // measure 32
0100
0000
0001
0100
0000
0000
0020
0000
0000
0000
0000
0000
2030
3000
0001
1000
,  // measure 33
0001
0000
0100
0000
0010
0000
1000
0100
0000
0000
0000
0100
0000
0010
0001
0000
,  // measure 34
1000
0001
0100
0000
0010
1000
0100
0000
0010
0000
0000
0000
0000
0000
0000
0000
,  // measure 35
0000
0000
0001
1000
0000
1000
0010
0000
0100
0000
0001
0000
1000
0100
0000
0010
,  // measure 36
0000
0010
0001
0000
0000
0000
0001
0000
1000
0000
0010
0000
0000
0000
0000
0000
,  // measure 37
0000
0000
0100
0001
0000
0001
0010
0000
0100
1000
0100
1000
0000
1000
0010
0000
,  // measure 38
0100
0001
1000
0000
0010
1000
0001
0000
0001
0100
0001
0000
0000
0000
0000
0000
,  // measure 39
1001
0000
0100
0001
0000
0001
1000
0000
0010
0000
0000
0000
0110
0000
0000
0000
,  // measure 40
2000
0000
0000
0000
0000
0000
0000
0000
0000
0100
0000
0000
0100
0000
0000
0100
,  // measure 41
0000
0000
0100
0000
0000
0100
0000
3000
0000
0000
0000
0000
0000
0000
0000
0000
,  // measure 42
0000
0000
0000
0000
0000
0000
0000
0000
0000
0000
0000
0MMM
1000
0000
1000
0000
,  // measure 43
0000
0000
0000
0000
0000
0000
0000
0000
0001
0100
0010
0000
0000
0000
0000
0000
0000
0000
1000
0000
0000
0000
0000
0000
0100
0000
0000
0000
0100
0000
0000
0000
,  // measure 44
0000
0000
0000
0000
0000
0000
0000
0000
0000
0000
0000
0000
0000
0000
0000
0000
0000
0000
0000
0000
0000
0000
0000
0000
0000
0000
0000
0000
0000
0000
0000
0000
0000
0000
0000
0000
0000
0000
0000
0000
0000
0000
0000
0000
0000
0000
0000
0000
0000
0000
0000
0000
0000
0000
0000
0000
0000
0000
0000
0000
0010
0000
0000
0000
0000
0000
0000
0000
0000
0000
0000
0000
0000
0000
0000
0000
0000
0000
0000
0000
0000
0000
0000
0000
0001
0000
0000
0000
0010
0000
0000
0000
0001
0000
0000
0000
0100
0000
0000
0000
0000
0000
0000
0000
0000
0000
0000
0000
0000
0000
0000
0000
0000
0000
0000
0000
0000
0000
0000
0000
0000
0000
0000
0000
0000
0000
0010
0000
0000
0000
0000
0000
0000
0000
0000
0000
0000
0000
0000
0000
0000
0000
0000
0000
0000
0000
0000
0000
0000
0000
0000
0000
0000
0000
0000
0000
0000
0000
0000
0000
0000
0000
0000
0000
0000
0000
0000
0000
0000
0000
0000
0000
0000
0000
0000
0000
0000
0000
0000
0000
0000
0000
0000
0000
0000
0000
0000
0000
0000
0000
0000
0000
,  // measure 45
0000
0000
0000
0000
0000
0000
0000
0000
1000
0001
0100
0000
0000
0000
0000
0000
0000
0000
0000
0010
0000
0000
1000
0010
0100
0001
1000
0010
0100
0001
1000
0100
,  // measure 46
0010
0000
0000
0000
0000
0000
0001
0000
0000
0000
0000
0000
1000
0000
0000
0000
0000
0000
0100
0000
0000
0000
0000
0000
0010
0000
0000
0000
0000
0000
0001
0000
0000
0000
0000
0000
1000
0000
0000
0000
0000
0000
0100
0000
0000
0000
0000
0000
1000
0000
0000
0000
0000
0000
0001
0000
0000
0000
0000
0000
0010
0000
0000
0000
0000
0000
0100
0000
0000
0000
0000
0000
1000
0000
0000
0000
0000
0000
0001
0000
0000
0000
0000
0000
0010
0000
0000
0000
0100
0000
0000
0000
0010
0000
0000
0000
0100
0000
0000
0000
1000
0000
0000
0000
0001
0000
0000
0000
1000
0000
0000
0000
0001
0000
0000
0000
0100
0000
0000
0000
0001
0000
0000
0000
0100
0000
0000
0000
0010
0000
0000
0000
0100
0000
0000
0000
0000
0000
0000
0000
0000
0000
0000
0000
0010
0000
0000
0000
0000
0000
0000
0000
0000
0000
0000
0000
0100
0000
0000
0000
0000
0000
0000
0000
0000
0000
0000
0000
0001
0000
0000
0000
0000
0000
0000
0000
0000
0000
0000
0000
1000
0000
0000
0000
0000
0000
0000
0000
0000
0000
0000
0000
,  // measure 47
0010
0100
0001
0100
0010
1000
0100
0010
0001
1000
0100
1000
0001
0000
0001
0010
,  // measure 48
0000
0010
0100
0000
0100
1000
0001
1000
0010
0000
0010
0000
1000
0000
1000
0010
,  // measure 49
0000
0000
0020
0000
0000
0000
0000
0000
0031
0000
1000
0001
0100
0000
0000
0000
,  // measure 50
0010
0000
1000
0000
0010
0000
1000
0000
0000
0000
0000
0000
0000
0000
0000
0000
0000
0000
0002
0000
0000
0000
0000
0000
0000
0000
0000
0000
0000
0000
0003
0000
0000
0000
0000
0000
0010
0000
0000
0100
0000
0000
1000
0000
0000
0001
0000
0000
,  // measure 51
0100
0000
0000
0000
0000
0000
0000
0000
0010
0000
0000
0000
1001
0000
0000
1000
,  // measure 52
0000
1000
0010
0000
0010
0001
0100
0100
1000
0000
0001
0000
1001
0000
0000
0001
,  // measure 53
0000
0000
0001
0000
0000
0000
0000
0000
1000
0000
0010
0010
0001
0000
0000
0000
,  // measure 54
0100
0000
0000
0000
0000
0000
0000
0000
0000
0000
0000
0000
0000
0000
0000
0000
0000
0000
0100
0000
0000
0000
0000
0000
0000
0000
0000
0000
0000
0000
0000
0000
0000
0000
0000
0000
0000
0000
0000
0000
0000
0000
0000
0000
0000
0000
0000
0000
0000
0000
0000
0000
0000
0000
2000
0000
0000
0000
0000
0000
0000
0000
0000
0000
0000
0000
0000
0000
0000
0000
0000
0000
0000
0000
0000
0000
0000
0000
0000
0000
0000
0000
0000
0000
0000
0000
0000
0000
0000
0000
0000
0000
0000
0000
0000
0000
0000
0000
0000
0000
0000
0000
0000
0000
0000
0000
0000
0000
0000
0000
0000
0000
0000
0000
0000
3000
0000
0000
0000
0000
0000
0000
0000
0000
0000
0000
0000
0000
0000
0000
0000
0000
0000
0000
0000
0000
0000
0000
0000
0000
0000
0000
0000
0000
0000
0000
0000
0000
0000
0000
0000
0000
0000
0000
0000
0000
0000
0000
0000
0000
0000
0000
0000
0000
0000
0000
0000
0000
0000
0000
0000
0000
0000
0000
0000
0000
0000
0000
0000
0000
0000
0000
0000
0000
0000
0000
0000
0000
0000
0000
0000
0000
;
