#TITLE:Brutal Swing;
#SUBTITLE:;
#ARTIST:Igorrr;
#TITLETRANSLIT:;
#SUBTITLETRANSLIT:;
#ARTISTTRANSLIT:;
#GENRE:;
#CREDIT:Mad Matt;
#BANNER:../Tachyon Delta-bn.png;
#BACKGROUND:../Tachyon Delta-bg.png;
#LYRICSPATH:;
#CDTITLE:;
#MUSIC:Brutal Swing.ogg;
#OFFSET:-0.773;
#SAMPLESTART:43.205;
#SAMPLELENGTH:9.500;
#SELECTABLE:YES;
#BPMS:0.000=226.000
;
#STOPS:
;
#BGCHANGES:;
#KEYSOUNDS:;
#ATTACKS:;

//---------------dance-single - Raymond Tracer----------------
#NOTES:
     dance-single:
     :
     Challenge:
     11:
     0.857,1.000,0.540,0.492,0.966,525.000,57.000,52.000,20.000,0.000,15.000,0.857,1.000,0.540,0.492,0.966,525.000,57.000,52.000,20.000,0.000,15.000: // measure 0
1000
0000
0100
0000
2000
0000
0000
0000
0000
0000
0000
0000
0002
0000
0000
0000
3000
0000
0003
0000
0000
0010
0000
0000
,  // measure 1
0100
0000
0010
0000
0200
0000
0000
0000
0000
0000
0000
0000
2000
0000
0000
0000
0300
0000
3000
0000
0000
0001
0000
0000
,  // measure 2
0100
0000
0001
0000
0200
0000
0000
0000
0000
0000
0000
0000
0020
0000
0000
0000
0300
0000
0030
0000
0000
1000
0000
0000
,  // measure 3
0100
0000
1000
0000
0200
0000
0000
0000
0000
0000
0000
0000
0020
0000
0000
0000
0300
0000
0030
0000
0000
0001
0000
0000
,  // measure 4
0100
0000
0001
0000
0200
0000
0000
0000
0000
0000
0000
0000
0020
0000
0000
0000
0300
0000
0030
0000
0000
1000
0000
0000
,  // measure 5
0100
0000
1000
0000
0200
0000
0000
0000
0000
0000
0000
0000
0020
0000
0000
0000
0300
0000
0030
0000
0000
0100
0000
0000
,  // measure 6
1000
0000
0100
0000
2000
0000
0000
0000
0000
0000
0000
0000
0020
0000
0000
0000
3000
0000
0030
0000
0000
0100
0000
0000
,  // measure 7
0001
0200
0002
0000
0000
0303
0202
0000
0000
0000
0000
0303
,  // measure 8
0001
0000
0100
0000
0002
0000
0000
0000
0000
0000
0000
0000
0020
0000
0000
0000
0003
0000
0030
0000
0000
0100
0000
0000
,  // measure 9
1000
0000
0100
0000
2000
0000
0000
0000
0000
0000
0000
0000
0020
0000
0000
0000
3000
0000
0030
0000
0000
0100
0000
0000
,  // measure 10
0001
0000
0100
0000
0002
0000
0000
0000
0000
0000
0000
0000
2000
0000
0000
0000
0003
0000
3000
0000
0000
0100
0000
0000
,  // measure 11
0010
0000
0100
0000
0020
0000
0000
0000
0000
0000
0000
0000
0002
0000
0000
0000
0030
0000
0003
0000
0000
1000
0000
0000
,  // measure 12
0001
0000
1000
0000
0002
0000
0000
0000
0000
0000
0000
0000
0200
0000
0000
0000
0003
0000
0300
0000
0000
0010
0000
0000
,  // measure 13
1000
0000
0010
0000
2000
0000
0000
0000
0000
0000
0000
0000
0200
0000
0000
0000
3000
0000
0300
0000
0000
0010
0000
0000
,  // measure 14
0002
0000
0020
0000
0000
0000
0000
0000
0000
0000
0000
0000
0000
0000
0000
0000
0003
0000
0030
0000
0000
0020
0000
0000
,  // measure 15
0200
0000
0000
0000
0000
0000
0000
0030
,  // measure 16
1300
0000
0000
0000
0000
0000
0000
0000
0001
0000
0000
0000
0000
0000
0000
0000
0000
0000
0000
0010
0000
0000
0000
0000
0100
0000
0000
0000
0000
0000
0000
0000
1000
0000
0000
0000
0000
0000
0000
0000
0000
0000
0000
0000
0001
0000
0000
0000
,  // measure 17
0000
0000
0000
0000
0000
0000
0000
0000
0100
0000
0000
0000
0000
0000
0000
0000
0000
0000
0000
0010
0000
0000
0000
0000
1000
0000
0000
0000
0000
0000
0000
0000
0100
0000
0000
0000
0000
0000
0000
0000
0000
0000
0000
0000
0010
0000
0000
0000
,  // measure 18
0000
0000
0000
0000
0000
0000
0000
0000
0001
0000
0000
0000
0000
0000
0000
0000
0000
0000
0000
0100
0000
0000
0000
0000
0010
0000
0000
0000
0000
0000
0000
0000
1000
0000
0000
0000
0000
0000
0000
0000
0000
0000
0000
0000
0100
0000
0000
0000
,  // measure 19
0000
0000
0000
0000
0000
0000
0000
0000
0010
0000
0000
0000
0000
0000
0000
0000
0000
0000
0000
0100
0000
0000
0000
0000
1100
0000
0000
0000
0000
0000
0000
0000
1000
0000
0000
0000
0000
0000
0000
0000
0000
0000
0000
0000
0000
0000
0000
0000
,  // measure 20
1001
0000
0000
0000
0000
0000
0000
0000
0001
0000
0000
0000
0000
0000
0000
0000
0000
0000
0000
0100
0000
0000
0000
0000
0010
0000
0000
0000
0000
0000
0000
0000
1000
0000
0000
0000
0000
0000
0000
0000
0000
0000
0000
0000
0100
0000
0000
0000
,  // measure 21
0000
0000
0000
0000
0000
0000
0000
0000
0010
0000
0000
0000
0000
0000
0000
0000
0000
0000
0000
0100
0000
0000
0000
0000
1000
0000
0000
0000
0000
0000
0000
0000
0010
0000
0000
0000
0000
0000
0000
0000
0000
0000
0000
0000
0100
0000
0000
0000
,  // measure 22
0000
0000
0000
0000
0000
0000
0000
0000
0001
0000
0000
0000
0000
0000
0000
0000
0000
0000
0000
0010
0000
0000
0000
0000
0100
0000
0000
0000
0000
0000
0000
0000
1000
0000
0000
0000
0000
0000
0000
0000
0000
0000
0000
0000
0001
0000
0000
0000
,  // measure 23
0000
0000
0000
0000
0000
0000
0000
0000
0100
0000
0000
0000
0000
0000
0000
0000
0000
0000
0000
0010
0000
0000
0000
0000
1000
0000
0000
0000
0000
0000
0000
0000
0100
0000
0000
0000
0000
0000
0000
0000
0000
0000
0000
0000
0000
0000
0000
0000
,  // measure 24
0010
0001
1000
0010
1000
0001
0100
0001
,  // measure 25
1000
0100
1000
0001
0010
0001
0100
0001
,  // measure 26
1000
0000
0000
0000
0000
0000
0000
0000
0000
0000
0000
0000
1010
0000
0000
0000
0000
0000
0000
0000
0000
0000
0000
0010
0000
0000
0000
0000
0100
0000
0000
0000
0000
0000
0000
0000
0001
0000
0000
0000
0000
0000
0000
0000
0020
0000
0000
0000
,  // measure 27
0130
0000
0000
0000
0000
0000
0000
0000
0000
0000
0000
0000
1000
0000
0000
0000
0000
0000
0000
0000
0000
0000
0000
0001
0000
0000
0000
0000
0100
0000
0000
0000
0000
0000
0000
0000
0010
0000
0000
0000
0000
0000
0000
0000
0000
0000
0000
0000
,  // measure 28
1000
0100
1000
0001
0100
0001
1000
0010
1000
0001
0010
0001
,  // measure 29
1000
0000
0010
0000
0100
0000
0001
0000
1000
0000
0010
0000
0100
0000
0000
0001
0000
0000
1000
0000
0000
0100
0000
0000
,  // measure 30
0110
0011
0101
0110
,  // measure 31
1010
0000
1100
0000
0100
0010
0001
1000
,  // measure 32
0010
0000
0000
0000
0000
0000
0000
0000
0010
0000
0000
0000
0000
0000
0000
0000
0000
0000
0000
0100
0000
0000
0000
0000
0001
0000
0000
0000
0000
0000
0000
0000
0001
0000
0000
0000
0000
0000
0000
0000
0000
0000
0000
0000
0100
0000
0000
0000
,  // measure 33
0000
0000
0000
0000
0000
0000
0000
0000
0010
0000
0000
0000
0000
0000
0000
0000
0000
0000
0000
1000
0000
0000
0000
0000
0100
0000
0000
0000
0000
0000
0000
0000
0100
0000
0000
0000
0000
0000
0000
0000
0000
0000
0000
0000
0010
0000
0000
0000
,  // measure 34
0000
0000
0000
0000
0000
0000
0000
0000
0001
0000
0000
0000
0000
0000
0000
0000
0000
0000
0000
0100
0000
0000
0000
0000
0010
0000
0000
0000
0000
0000
0000
0000
0010
0000
0000
0000
0000
0000
0000
0000
0000
0000
0000
0000
0100
0000
0000
0000
,  // measure 35
0000
0000
0000
0000
0000
0000
0000
0000
0001
0000
0000
0000
0000
0000
0000
0000
0000
0000
0000
0010
0000
0000
0000
0000
0100
0000
0000
0000
0000
0000
0000
0000
0100
0000
0000
0000
0000
0000
0000
0000
0000
0000
0000
0000
2000
0000
0000
0000
,  // measure 36
3100
0000
0000
0000
0000
0000
0000
0000
0010
0000
0000
0000
0000
0000
0000
0000
0000
0000
0000
0001
0000
0000
0000
0000
0100
0000
0000
0000
0000
0000
0000
0000
0010
0000
0000
0000
0000
0000
0000
0000
0000
0000
0000
0000
1000
0000
0000
0000
,  // measure 37
0000
0000
0000
0000
0000
0000
0000
0000
1000
0000
0000
0000
0000
0000
0000
0000
0000
0000
0000
0100
0000
0000
0000
0000
0010
0000
0000
0000
0000
0000
0000
0000
0001
0000
0000
0000
0000
0000
0000
0000
0000
0000
0000
0000
0100
0000
0000
0000
,  // measure 38
0000
0000
0000
0000
0000
0000
0000
0000
0001
0000
0000
0000
0000
0000
0000
0000
0000
0000
0000
1000
0000
0000
0000
0000
0100
0000
0000
0000
0000
0000
0000
0000
0010
0000
0000
0000
0000
0000
0000
0000
0000
0000
0000
0000
0100
0000
0000
0000
,  // measure 39
0000
0000
0000
0000
0000
0000
0000
0000
1000
0000
0000
0000
0000
0000
0000
0000
0000
0000
0000
0001
0000
0000
0000
0000
0101
0000
0000
0000
0000
0000
0000
0000
0100
0000
0000
0000
0000
0000
0000
0000
0000
0000
0000
0000
0000
0000
0000
0000
,  // measure 40
0110
0010
1000
0001
1000
0100
0010
0001
,  // measure 41
1000
0001
1000
0100
0010
0100
0010
0001
,  // measure 42
0100
0001
1000
0010
1000
0100
1000
0001
,  // measure 43
0010
0100
1000
0010
0100
0001
1000
0100
,  // measure 44
1000
0000
0000
0000
0000
0000
0000
0000
0010
0000
0000
0000
0000
0000
0000
0000
0000
0000
0000
0100
0000
0000
0000
0000
0001
0000
0000
0000
0000
0000
0000
0000
0001
0000
0000
0000
0000
0000
0000
0000
0000
0000
0000
0000
0010
0000
0000
0000
,  // measure 45
0000
0000
0000
0000
0000
0000
0000
0000
0100
0000
0000
0000
0000
0000
0000
0000
0000
0000
0000
1000
0000
0000
0000
0000
0001
0000
0000
0000
0000
0000
0000
0000
0001
0000
0000
0000
0000
0000
0000
0000
0000
0000
0000
0000
0101
0000
0000
0000
,  // measure 46
0000
0000
0000
0000
0000
0000
0000
0000
0110
0000
0000
0000
0000
0000
0000
0000
0000
0000
0000
0010
0000
0000
0000
0000
1000
0000
0000
0000
0000
0000
0000
0000
1010
0000
0000
0000
0000
0000
0000
0000
0000
0000
0000
0000
1100
0000
0000
0000
,  // measure 47
0000
0000
0000
0000
0000
0000
0000
0000
0110
0000
0000
0000
0000
0000
0000
0000
0000
0000
0000
0010
0000
0000
0000
0000
0001
0000
0000
0000
0000
0000
0000
0000
0011
0000
0000
0000
0000
0000
0000
0000
0000
0000
0000
0000
0000
0000
0000
0000
,  // measure 48
0004
0003
0000
0000
0400
0300
0000
0000
0040
0030
0000
0000
4000
3000
0000
0000
,  // measure 49
0400
0300
0000
0000
0020
0000
0000
0000
M000
0000
0000
0000
0M30
0000
0000
0000
,  // measure 50
00M4
0003
0000
0000
4000
3000
0000
0000
0400
0300
0000
0000
0020
0000
0000
0000
,  // measure 51
0000
M000
0M30
00M0
,  // measure 52
0001
0100
0001
1000
0010
1000
0001
0010
,  // measure 53
0001
1000
0100
1000
0001
0010
0100
1000
,  // measure 54
0010
0100
0001
1000
0100
0010
0001
1000
,  // measure 55
0001
0010
0100
1000
0001
0100
0010
1000
0001
0010
0001
1000
,  // measure 56
0100
0000
0000
0000
0040
0030
0000
0000
0011
0000
0000
0000
0400
0300
0000
0000
,  // measure 57
1100
0000
0000
0000
0004
0003
0000
0000
2020
0000
0000
0000
0M0M
0000
0000
3030
,  // measure 58
0101
0000
0000
0000
0004
0003
0000
0000
0110
0000
0000
0000
4000
3000
0000
0000
,  // measure 59
1100
0110
0011
1001
,  // measure 60
1010
MMMM
1100
MMMM
,  // measure 61
0011
0001
0011
MMMM
,  // measure 62
1100
1000
0010
0100
,  // measure 63
0001
0000
2000
3100
0000
0200
0310
0000
0000
0001
0000
0000
,  // measure 64
0101
0000
0100
0000
,  // measure 65
0110
0000
0010
1000
,  // measure 66
1010
0000
1000
0000
,  // measure 67
1100
0000
0100
0000
,  // measure 68
0110
0000
0010
0000
,  // measure 69
0011
0000
0001
0100
,  // measure 70
0101
0010
1000
0010
0100
0001
1000
0100
,  // measure 71
0010
0000
0000
0001
0010
0001
0010
0000
0000
0100
0000
0000
,  // measure 72
1000
0001
1000
0100
1000
0001
0010
0100
0010
0001
1000
0100
,  // measure 73
0010
0001
1000
0100
1000
0100
0010
0001
1000
0001
0010
0100
,  // measure 74
1000
0001
0010
0100
0010
0001
1000
0100
1000
0100
0010
0001
,  // measure 75
0100
0010
1000
0001
0100
0010
1000
0001
0100
0010
0100
0001
,  // measure 76
1000
0100
0010
0100
1000
0001
0010
0100
,  // measure 77
1000
0001
0010
0001
1000
0010
1000
0001
,  // measure 78
1000
0000
0100
0000
0010
0000
0001
0000
0100
0000
0010
0000
,  // measure 79
1000
0000
0100
0010
0100
0010
0000
0001
0010
0001
0010
0000
,  // measure 80
0100
0000
0000
0000
1000
0000
0000
0000
0100
0000
0000
0000
1000
0000
0000
0000
0000
0000
0000
0000
0000
0000
0000
0000
0001
0000
0000
1000
0000
0000
0001
0000
0000
1000
0000
0000
0001
0000
0000
1000
0000
0000
0001
0000
0000
1000
0000
0000
,  // measure 81
0001
1000
1010
0010
,  // measure 82
0101
0001
0011
0010
,  // measure 83
0100
0000
1000
0000
0001
0000
0010
0000
0100
0000
1000
0000
,  // measure 84
0001
0000
0100
0000
0010
0000
1000
0000
0100
0000
0010
0000
,  // measure 85
0011
0000
1100
0000
,  // measure 86
0101
0100
1010
1000
,  // measure 87
0110
0000
1001
0100
,  // measure 88
0110
0000
1010
0000
,  // measure 89
2000
0000
0000
0100
3000
0000
0000
0000
0000
0000
0000
0000
0200
0000
0000
0010
0300
0000
0000
0000
0000
0000
0000
0000
0020
0000
0000
0001
0030
0000
0000
0000
0000
0000
0000
0000
0002
0000
0000
0100
0003
0000
0000
0000
0000
0000
0000
0000
,  // measure 90
0200
0000
0000
0010
0300
0000
0000
0000
0000
0000
0000
0000
0040
0000
0000
4000
0000
0000
0000
0000
0000
0000
0000
0000
0000
0000
0000
0000
0000
0000
0000
0000
0000
0000
0000
0000
0000
0000
0000
0000
0000
0000
0000
0000
0000
0030
0000
0000
,  // measure 91
3001
0000
0010
0000
0100
0000
1000
0000
0001
0000
0010
0000
,  // measure 92
0100
0000
1000
0000
0001
0000
0100
0000
0010
0000
1000
0000
,  // measure 93
0002
0000
0003
0000
0000
0000
0011
0000
0000
0000
0000
0000
,  // measure 94
0110
0000
0000
0200
0000
0300
0000
0000
0000
1100
0000
0000
,  // measure 95
2000
0000
3000
0101
0000
0000
0110
0000
0000
1010
0000
0000
,  // measure 96
2002
0000
0000
3003
;
