#TITLE:Big Beat Mario;
#SUBTITLE:;
#ARTIST:SkyGuy16;
#TITLETRANSLIT:;
#SUBTITLETRANSLIT:;
#ARTISTTRANSLIT:;
#GENRE:;
#CREDIT:;
#BANNER:;
#BACKGROUND:;
#LYRICSPATH:;
#CDTITLE:;
#MUSIC:SkyGuy16 - Big Beat Mario.mp3;
#OFFSET:0.000;
#SAMPLESTART:34.840;
#SAMPLELENGTH:12.000;
#SELECTABLE:YES;
#DISPLAYBPM:100.222:152.333;
#BPMS:0.000=105.000
,11.500=114.000
,13.000=104.000
,17.500=106.000
,23.500=105.000
,29.500=104.750
,51.750=106.000
,85.250=212.000
,85.500=106.000
,85.750=212.000
,86.000=106.000
,86.250=212.000
,86.500=106.000
,86.750=212.000
,87.000=106.000
,87.250=212.000
,88.250=106.000
,89.750=105.000
,110.750=106.000
,184.750=212.000
,185.250=105.000
,208.250=107.000
,209.250=106.000
,236.000=141.333
,242.000=145.333
,243.000=150.333
,247.500=152.333
,259.500=150.333
,309.500=148.333
,342.500=150.333
,346.500=148.333
,352.500=150.333
,355.500=148.333
,356.000=152.333
,359.500=148.333
,360.000=147.333
,361.000=150.333
,387.500=100.222
,427.000=104.222
,431.000=102.222
,454.250=106.222
,520.000=100.222
,555.250=102.222
,569.500=104.222
,571.750=106.222
,679.000=104.222
,687.000=106.222
;
#STOPS:85.250=0.071,
85.750=0.071,
86.250=0.071,
86.750=0.071,
87.250=0.071,
87.500=0.071,
87.750=0.071,
88.000=0.071,
184.750=0.142
;
#BGCHANGES:;
#KEYSOUNDS:;
#ATTACKS:;

//---------------dance-single - ----------------
#NOTES:
     dance-single:
     Raymond Tracer:
     Challenge:
     11:
     0.727,0.769,0.282,0.023,1.000,1867.000,110.000,9.000,174.000,0.000,0.000,0.727,0.769,0.282,0.023,1.000,1867.000,110.000,9.000,174.000,0.000,0.000: // measure 0
0000
0000
0010
1000
0000
1000
0100
0000
0010
0000
0001
0100
0000
0100
0010
0000
,  // measure 1
1000
0000
0100
0010
0000
0010
0001
0100
0000
0100
0010
1000
0000
1000
0001
0010
,  // measure 2
0000
0010
0100
1000
0000
1000
0001
0100
0010
1000
0100
0010
0100
1000
0101
0000
,  // measure 3
0110
0000
1010
0000
1000
0100
1000
0000
0100
0010
0001
0000
0001
0100
0010
0000
,  // measure 4
0100
0010
0000
0010
1000
0100
1000
0000
1000
0100
0010
0000
0100
0010
0001
0000
,  // measure 5
0001
0010
0000
0010
0001
1000
0010
0000
0010
1000
0100
0000
1000
0100
0010
0000
,  // measure 6
0010
0100
0000
0100
0010
0001
0100
0000
0010
0100
0001
0000
1000
0001
0010
0000
,  // measure 7
0100
0010
0000
0010
0001
0000
0001
1000
0010
0100
0001
0100
0000
0110
0000
0010
,  // measure 8
1000
0010
0000
0000
0000
0100
0001
1000
0100
0010
0001
0000
0011
0000
0000
0100
,  // measure 9
1000
0001
0000
0000
0000
0010
0100
0010
0001
0100
0010
0000
1010
0000
0000
1000
,  // measure 10
0100
1000
0000
0000
0000
0100
1000
0010
0100
0001
0100
0000
0110
0000
0000
0010
,  // measure 11
1000
0100
0000
1000
0100
1100
0000
0001
0000
0101
0000
0010
0000
1010
0000
0001
,  // measure 12
0100
0000
0010
0000
1000
0100
0000
0110
0000
0010
0000
0011
0000
0001
0000
1000
,  // measure 13
0010
0000
0100
0000
0001
1000
0000
1100
0000
0010
0000
0110
0000
0001
0000
0010
,  // measure 14
0100
0000
1000
0000
0010
0100
0000
0101
0000
0010
0000
1010
0000
1000
0000
0001
,  // measure 15
0010
0000
0000
0000
0001
0000
0000
0000
0001
0000
1000
0000
0010
0000
1000
0000
0010
0000
0100
0000
0001
0000
0100
0000
0001
0000
0010
MM0M
0010
0000
1000
0000
,  // measure 16
0100
0000
1000
0000
0010
0000
0100
0000
M0MM
0000
0100
0000
1000
0000
0100
0000
0010
0000
0001
0000
0100
0000
0010
0000
1000
0000
0100
M0MM
0100
0000
0001
0000
,  // measure 17
0010
0000
0100
0000
1000
0000
1100
0000
0000
0000
0010
0000
1000
0000
0010
0000
0100
0000
0010
0000
1000
0000
0100
0000
0010
0000
0100
M0MM
0100
0000
0001
0000
,  // measure 18
0010
0000
0000
0100
0000
0000
1000
0000
0000
0010
0000
0000
MM0M
0000
0000
0010
0000
0000
0001
0000
0000
1000
0000
0000
0010
0000
0000
1000
0000
0000
0001
0000
0000
0010
0000
0000
0001
0000
0000
0100
0000
0000
0010
0000
1000
0000
0010
0000
,  // measure 19
1000
0001
0000
0001
0000
1000
0010
0100
0001
1000
0010
0100
0001
1000
0100
0010
,  // measure 20
0001
1000
0100
0010
0001
0100
0010
1000
0001
0100
0010
1000
0001
0010
0100
1000
,  // measure 21
0001
0010
0100
1000
0010
1000
0001
1000
0010
1000
0001
1000
00M0
1000
0100
0010
,  // measure 22
0001
0100
0000
0110
0000
1010
0000
1000
0010
0100
0000
0100
0001
0010
0000
0100
,  // measure 23
0010
0000
0010
0001
1000
0010
0000
0010
0100
0001
0000
1000
0010
0100
0000
0100
,  // measure 24
0001
0000
0001
0010
0100
1000
0000
1000
0001
0100
0000
0100
0010
1000
0000
1000
,  // measure 25
0100
0000
0100
0010
0001
0010
0000
0100
1000
0100
0000
0010
0001
0100
0000
0100
,  // measure 26
0010
0000
0010
1000
0100
1000
0000
1000
0010
0100
0000
0100
0001
0010
0000
0010
,  // measure 27
0100
0000
0100
1000
0010
0100
0000
0100
0001
0010
0000
0010
0100
1000
0000
1000
,  // measure 28
0010
0000
0010
0100
0001
0100
0000
0100
0010
1000
0000
1000
0100
1000
0000
1000
,  // measure 29
0010
0000
0010
0100
0001
0010
0000
0010
0100
1000
0000
1000
0001
0100
0000
0001
,  // measure 30
1000
0000
0000
0000
1000
0000
0100
0000
0000
0000
1000
0000
0100
0000
1000
0000
0010
0000
0100
0000
0010
0000
1000
0000
0100
0000
0010
MM0M
0010
0000
1000
0000
,  // measure 31
0001
0000
0010
0000
0100
0000
0010
0000
MM0M
0000
0010
0000
1000
0000
0001
0000
0010
0000
0100
0000
0010
0000
0001
0000
0100
0000
0010
MM0M
0010
0000
0001
0000
,  // measure 32
0100
0000
0010
0000
1000
0000
1001
0000
0000
0000
1000
0000
0010
0000
0100
0000
0010
0000
1000
0000
0001
0000
0010
0000
0100
0000
0010
MM0M
0010
0000
1000
0000
,  // measure 33
0010
0000
0100
0000
0001
0000
0100
0000
M0MM
0000
0100
0000
1000
0000
0010
0000
0100
0000
0001
0000
0010
0000
0100
0000
1000
0000
0010
MM0M
0010
0000
0001
0000
,  // measure 34
0010
0000
0110
0000
0000
0000
1001
0000
0000
0000
1000
0000
0100
0000
0010
0000
0001
0000
1000
0000
0001
0000
1000
0000
0100
0000
0010
MM0M
0010
0000
1000
0000
,  // measure 35
0001
0000
1000
0000
0100
0000
0010
0000
MM0M
0000
0010
0000
1000
0000
0100
0000
0010
0000
0100
0000
0010
0000
0001
0000
0100
0000
0010
MM0M
0010
0000
0001
0000
,  // measure 36
1000
0000
0010
0000
0100
0000
0101
0000
0000
0000
0100
0000
0010
0000
1000
0000
0001
0000
0100
0000
0010
0000
1000
0000
0100
0000
0010
MM0M
0010
0000
0100
0000
,  // measure 37
0001
0000
0000
1000
0000
0000
0100
0000
0000
0010
0000
0000
MM0M
0000
0000
0010
0000
0000
1000
0000
0000
0001
0000
0000
0100
0000
0000
0001
0000
0000
1000
0000
0000
0100
0000
0000
1000
0000
0000
0010
0000
0000
0100
0000
0001
0000
0100
0000
,  // measure 38
0010
1000
0000
0100
0000
0010
0001
0100
0010
1000
0100
0010
0100
1000
0001
0100
,  // measure 39
0010
0100
0001
1000
0100
0010
0000
0001
0000
0100
0000
0000
0000
0010
0000
1000
,  // measure 40
0100
0000
0000
0000
0000
0000
0000
0000
0000
0000
0010
0000
0001
0000
0010
0000
0100
0000
1000
0000
0010
0000
0100
0000
0001
0000
0010
MM0M
0010
0000
1000
0000
,  // measure 41
0010
0100
0001
1000
0100
0010
0000
0001
0000
1000
0000
0000
0000
0010
0000
0010
,  // measure 42
0100
0000
0000
0101
0000
1010
0010
0100
0001
1000
0100
0010
0001
0100
0010
1000
,  // measure 43
0010
0100
0010
1000
0100
0010
0000
0001
0000
0100
0000
0000
0000
0010
0000
1000
,  // measure 44
0001
0000
0000
0000
0000
0000
0000
0000
0000
0000
1000
0000
0010
0000
0100
0000
0001
0000
0010
0000
0100
0000
1000
0000
0010
0000
0100
M0MM
0100
0000
1000
0000
,  // measure 45
0100
0010
0001
1000
0010
0100
0000
0010
0000
0100
0000
0000
0000
0001
0000
0001
,  // measure 46
0010
0000
0000
0011
0000
1100
1000
0010
0100
0001
1000
0010
0100
0010
1000
0001
,  // measure 47
0010
0100
1000
0001
0010
0100
0000
1000
0000
0001
0000
0000
0000
0100
0000
0100
,  // measure 48
0010
0000
0000
0000
0000
0000
0000
0000
0000
0000
1000
0000
0010
0000
1000
0000
0001
0000
0100
0000
0010
0000
1000
0000
0100
0000
0010
MM0M
0010
0000
1000
0000
,  // measure 49
0010
0100
0001
0100
0010
0100
0000
0001
0000
1000
0000
0000
0000
0100
0000
0100
,  // measure 50
0010
0000
0000
0000
0000
0001
0010
0100
0010
0100
1000
0001
0100
0010
1000
0100
,  // measure 51
0010
0001
0100
0001
0010
0001
0000
0100
0000
0010
0000
0000
0000
1000
0000
1000
,  // measure 52
0100
0000
0000
0000
0000
0000
0000
0000
0000
0000
0010
0000
0001
0000
0100
0000
0001
0000
1000
0000
0100
0000
0010
0000
0001
0000
0100
M0MM
0100
0000
1000
0000
,  // measure 53
0010
0100
0001
0100
0010
1000
0000
0100
0000
1000
0000
0000
0000
0010
0000
0010
,  // measure 54
0100
0000
0000
0000
0000
0000
0101
0000
0000
0000
1010
0000
0010
0000
0100
0000
0001
0000
0100
0000
0010
0000
1000
0000
0100
0000
0010
MM0M
0010
0000
1000
0000
,  // measure 55
0100
0000
1000
0000
0001
0000
0100
0000
M0MM
0000
0100
0000
1000
0000
0100
0000
0010
0000
0001
0000
0100
0000
0010
0000
1000
0000
0100
M0MM
0100
0000
0001
0000
,  // measure 56
0010
0000
0100
0000
1000
0000
1010
0000
0000
0000
1000
0000
0100
0000
1000
0000
0010
0000
0100
0000
0001
0000
0010
0000
0100
0000
0010
MM0M
0010
0000
1000
0000
,  // measure 57
0100
0000
0000
0010
0000
0000
0100
0000
0000
1000
0000
0000
0000
0000
0000
0001
0000
0000
0100
0000
0000
0010
0000
0000
0100
0000
0000
0001
0000
0000
1000
0000
0000
0100
0000
0000
0010
0000
0000
0001
0000
0000
1000
0000
0010
0000
0100
0000
,  // measure 58
0001
0100
0000
0101
0000
0000
0000
0000
0000
0000
0000
0000
0000
0000
0000
0000
,  // measure 59
1000
000M
1000
00M0
1000
0M00
1000
00M0
,  // measure 60
1000
000M
1000
00M0
1000
0M00
1000
0001
,  // measure 61
0000
1000
0000
0001
0000
1000
0001
1000
,  // measure 62
0000
0000
0001
0000
0000
0000
1000
0000
0000
0001
0000
0000
1000
0000
0010
0000
,  // measure 63
0010
0100
0001
0000
1000
0100
0010
0000
0001
0000
0010
0000
0110
0000
0010
0000
,  // measure 64
0001
0010
0100
0000
1000
0010
0100
0000
1000
0000
0100
0000
0101
0000
0110
0000
,  // measure 65
0010
1010
1000
1100
0100
0110
0010
0011
,  // measure 66
0001
1001
0010
1001
0010
1010
1000
1010
,  // measure 67
0100
0101
0100
1001
0100
1001
1000
1100
,  // measure 68
0100
0011
0001
1001
1000
1100
0100
1001
,  // measure 69
1000
0010
0000
0000
0110
0000
0000
0000
0100
0001
0000
0000
1001
0000
0000
0000
,  // measure 70
1000
0100
0000
0000
0110
0000
0000
0000
0010
0001
0000
0000
1100
0000
0000
0000
,  // measure 71
0100
0010
0000
0000
0011
0000
0000
0000
0001
1000
0000
0000
1010
0000
0000
0000
,  // measure 72
0010
0100
0000
0000
0101
0000
0000
0000
1000
0100
0011
0000
0000
0000
0001
0000
,  // measure 73
1000
0010
1000
0010
1000
0000
0100
0000
0010
0001
0010
0001
0010
0000
0100
0000
,  // measure 74
1000
0100
1000
0100
1000
0000
0001
0000
0100
0001
0100
0001
0100
0000
0010
0000
,  // measure 75
1000
0100
1000
0010
0100
0000
0001
0000
0010
0100
1000
0010
0100
0000
0001
0000
,  // measure 76
0100
0010
1000
0100
0010
0000
0001
0000
0100
0001
0100
0010
1000
0000
0010
0000
,  // measure 77
1000
0100
0010
0100
1000
0000
0001
0000
0100
0010
0100
0010
0100
0000
0010
0000
,  // measure 78
1000
0100
1000
0100
0010
0000
0001
0000
0100
0010
1000
0010
0100
0000
0001
0000
,  // measure 79
0010
0100
1000
0100
1000
0000
0010
0000
0100
0001
0100
0010
1000
0000
0100
0000
,  // measure 80
0010
0001
0010
0100
1000
0000
0001
0000
0100
0010
1000
0001
0100
0000
0010
0000
,  // measure 81
1000
0100
0010
0001
1000
0010
1001
0010
,  // measure 82
1000
0100
0010
0001
0010
0100
0011
0001
,  // measure 83
1000
0010
0100
0001
0010
0100
1100
0001
,  // measure 84
0100
0000
0010
0000
1000
0000
0001
0000
0010
0000
0100
0000
0010
0001
0100
0001
,  // measure 85
0100
0000
0100
0010
0100
0000
0010
1000
0010
0000
1000
0010
0100
0001
1000
0001
,  // measure 86
0010
0000
0010
0100
1000
0000
0010
0100
0001
0000
1000
0100
1000
0010
0100
0001
,  // measure 87
0100
0000
0100
0010
1000
0000
1000
0100
0010
0000
0010
0001
0100
0001
0010
0100
,  // measure 88
1000
0000
0010
0100
0001
0000
0100
0010
1000
0000
0100
0010
0001
0000
2100
0000
,  // measure 89
0100
0000
3001
0000
1000
0010
0000
0102
,  // measure 90
0100
0000
0013
0000
1000
0100
0000
0012
,  // measure 91
0010
0000
0103
0000
1000
0100
0000
2010
,  // measure 92
0010
0000
3100
0000
0001
1000
0000
2001
,  // measure 93
0001
0000
3100
0000
0010
1000
0000
0210
,  // measure 94
0010
0000
0301
0000
1000
0010
0000
1002
,  // measure 95
1000
0000
0013
0000
0100
0001
0100
0000
,  // measure 96
0010
0000
1000
0100
0010
0000
0100
0010
0001
0000
0010
0001
0100
0010
1001
0000
,  // measure 97
M000
0M00
00M0
000M
0000
0000
0000
0000
0000
0000
0000
0000
0000
0000
0000
0000
0000
0000
0000
0000
0000
0000
0000
0000
0000
0000
0000
0000
0000
0000
0000
0000
,  // measure 98
0000
0000
0000
0000
,  // measure 99
0000
0000
0000
0000
,  // measure 100
0000
0000
0000
0000
,  // measure 101
0000
0000
0000
0000
,  // measure 102
0000
0000
0000
0000
,  // measure 103
0000
0000
0000
0000
,  // measure 104
0000
0000
0000
0000
,  // measure 105
0000
0000
0000
0000
1000
0000
0010
0100
0001
0100
0000
0010
0000
1000
0000
0100
,  // measure 106
0010
0000
0001
0000
0100
0000
0000
0010
0000
0000
0000
0000
1000
0000
0100
0000
1000
0000
0010
0000
0100
0000
0000
0000
0001
0000
0000
0000
0000
0000
0010
0000
,  // measure 107
0100
1000
0000
0001
0000
0100
0010
1000
0001
0000
0100
0000
0010
0000
1000
0010
,  // measure 108
0100
0000
0001
0000
0000
0010
0000
0000
0000
0000
0100
0000
1000
0000
0010
0000
0100
0000
0010
0000
0000
0000
1000
0000
0000
0000
0000
0000
0001
0000
0100
0000
,  // measure 109
0010
0000
0000
0000
1000
0000
0000
0000
0100
0000
0010
0000
0001
0000
0010
0000
0000
0100
0000
0000
0000
0000
1000
0000
0000
0000
0010
0000
0100
0000
0001
0000
,  // measure 110
1000
0000
0000
0100
0000
0000
0000
0000
1000
0000
0010
0000
0100
0000
0010
0000
1000
0000
0000
0000
0100
0000
0000
0000
0000
0000
0010
0000
0001
0000
0100
0000
,  // measure 111
0000
0010
0000
1000
0100
0010
0100
0000
1000
0000
0010
0000
0100
0001
0010
0100
,  // measure 112
0000
0000
1000
0000
0000
0000
0000
0000
0000
0001
0000
0000
0100
0000
0000
0010
0000
0000
0100
0000
0000
0001
0000
0000
0000
0000
0000
1000
0000
0000
0000
0000
0000
0000
0000
0000
0100
0000
0000
0010
0000
0000
0001
0000
0000
0000
0000
0000
,  // measure 113
0100
0000
0000
0000
0000
0000
0010
0000
0000
1000
0000
0000
0100
0000
0000
1000
0000
0000
0000
0000
0100
0000
0000
0000
0000
0000
0000
0010
0000
0000
0000
0000
0000
0001
0000
0000
0100
0000
0000
0010
0000
0000
0100
0000
0000
0000
0001
0000
,  // measure 114
0000
0000
0000
0000
1100
0000
1001
0000
0001
1000
0100
0000
0000
0000
0000
0000
,  // measure 115
0010
0000
0000
0000
0001
0000
0100
0000
0010
0000
1000
0000
0000
0000
0100
0000
0000
0000
0010
0000
0000
0000
0001
0000
1000
0000
0010
0000
1000
0000
0000
0001
,  // measure 116
0000
0000
1000
0100
0010
0001
0100
0010
0000
1000
0000
0000
0010
0100
0001
0000
,  // measure 117
1000
0000
0000
0000
0001
0000
0100
0000
0001
0000
1000
0000
0000
0000
0100
0000
0000
0000
0010
0000
0000
0000
0001
0000
1000
0000
0010
0000
1000
0000
0000
0001
,  // measure 118
0000
0000
0000
0000
0100
0001
0100
0000
0100
0010
1000
0000
0000
0000
0000
0000
,  // measure 119
1000
0000
0000
0000
0001
0000
0010
0000
0100
0000
0010
0000
0000
0000
0001
0000
0000
0000
0100
0000
0000
0000
0010
0000
1000
0000
0100
0000
1000
0000
0000
0001
,  // measure 120
0000
0000
0000
0000
0000
0000
0000
0000
1000
0000
0010
MM0M
0010
0000
0001
0000
1000
0000
0001
0000
1000
0000
0100
M0MM
0100
0000
0001
0000
1000
0000
0000
0000
,  // measure 121
0100
0000
0010
0001
1000
0010
0100
0001
0100
0001
1000
0100
0010
0001
1000
0010
,  // measure 122
0100
0001
1000
0001
1000
0010
0100
0001
1000
0100
0010
0001
0010
0100
1000
0010
,  // measure 123
0100
0001
1000
0010
0100
0001
1000
0010
1000
0100
0010
0100
1000
0010
0100
0001
,  // measure 124
1000
0100
0010
0001
1000
0010
1000
0001
0010
0001
1000
0010
0100
0001
1000
0100
,  // measure 125
1000
0001
0010
0001
1000
0010
1000
0001
0100
0001
1000
0100
0010
0100
1000
0010
,  // measure 126
0100
0010
0100
0001
0010
0100
0010
0001
1000
0100
0010
0001
1000
0010
0100
0001
,  // measure 127
1000
0001
1M00
0000
10M0
0000
100M
0000
10M0
0000
1M00
0000
10M0
0000
100M
0000
,  // measure 128
1000
0000
0000
0000
0001
0000
0100
0000
0001
0000
1000
0001
1000
0001
1000
0000
0000
0000
1100
0000
0000
0000
0110
0000
0000
0000
0011
0000
0000
0000
1001
0000
,  // measure 129
0000
0000
1010
0000
0000
0000
1000
0000
0100
0000
0110
0000
0000
0000
0000
0000
0000
0000
1001
0000
0000
0000
1001
0000
0000
1000
0100
1000
0001
1000
0100
1000
,  // measure 130
0001
0000
1010
0000
0001
0010
0100
1000
0010
0100
0001
1000
0100
0010
0100
1000
,  // measure 131
0010
0100
0001
1000
0100
0010
0100
1000
0001
0010
0100
1000
0001
1000
0010
0100
,  // measure 132
0001
1000
0100
0010
0001
1000
0001
1000
0010
1000
0100
1000
0001
0010
0100
1000
,  // measure 133
0001
0010
0001
0100
0001
1000
0001
0010
0100
1000
0100
1000
0010
0100
0001
0100
,  // measure 134
0001
1000
0100
0010
0001
1000
0010
0100
0001
1000
0010
1000
0100
1000
0010
0100
,  // measure 135
0001
1000
0010
0100
0010
1000
0010
0100
0001
1000
0100
0010
0100
1000
0100
0010
,  // measure 136
0001
0100
0010
1000
0100
0010
0100
1000
0001
0010
0100
0010
0001
1000
0010
0100
,  // measure 137
0001
0000
0100
0000
0010
0000
1000
0000
0100
0000
0010
0000
0001
0000
0100
0000
0010
0000
1000
0000
0010
0000
1000
0000
0100
M00M
0010
0000
0001
0000
1000
0000
,  // measure 138
0010
0000
0100
0000
0001
0000
1000
0000
0100
0000
0010
MM0M
0010
0000
1000
0000
0010
0000
0100
0000
0001
0000
0100
0000
M0MM
0000
0100
0000
1000
0000
0010
0000
,  // measure 139
0100
0000
0001
0000
1000
0000
0010
0000
0100
0000
0010
MM0M
0010
0000
0001
0000
0100
0000
0010
0000
0110
0000
0000
0000
0010
0000
0100
0000
0001
0000
1000
0000
,  // measure 140
0100
0000
0010
0000
0001
0000
0100
M0MM
0100
0000
1000
0000
0001
0000
0010
0000
0100
0000
1000
0000
0010
0000
MM0M
0000
0010
0000
0001
0000
1000
0000
0001
0000
,  // measure 141
0010
0000
0100
0000
1000
0000
0010
MM0M
0010
0000
0001
0000
1000
0000
1001
0000
0000
0000
0110
0000
0000
0000
0010
0000
0000
0000
1000
0000
0000
0000
0100
0000
,  // measure 142
0000
0000
0000
0010
0000
0001
0100
0000
0000
0000
0000
0010
0000
0100
0000
0001
,  // measure 143
0000
0000
0000
1000
0000
0001
0100
0000
0000
0000
0000
0010
0000
1000
0000
0001
,  // measure 144
0000
0000
0000
0010
0000
0100
1000
0000
0000
0000
0000
0010
0000
0100
0000
0001
,  // measure 145
0000
0000
0000
0010
0000
0100
1000
0000
0000
0001
0000
1001
0010
0100
0001
1000
,  // measure 146
0100
0000
0010
0000
0001
0000
0100
M0MM
0100
0000
1000
0000
0010
0000
0100
0000
0001
0000
1000
0000
0000
0000
1000
0000
0000
0000
0000
0000
0000
0000
1000
0000
,  // measure 147
0000
0000
0000
1000
0000
0000
1000
0000
0000
1000
0000
0001
1000
0010
0100
0001
,  // measure 148
1000
0000
0001
0000
0100
0000
0010
MM0M
0010
0000
0001
0000
0100
0000
0010
0000
1000
0000
0100
0000
0000
0000
0100
0000
0000
0000
0000
0000
0000
0000
0100
0000
,  // measure 149
0000
0000
0000
0000
0000
0000
0100
0000
0000
0000
0000
0000
0100
0000
0000
0000
0000
0000
0100
0000
0000
0000
1000
0000
0100
0000
0010
MM0M
0010
0000
1000
0000
,  // measure 150
0010
0000
0100
0000
0001
0000
0100
M0MM
0100
0000
1000
0000
0010
0000
1000
0000
0100
0000
0010
0000
0000
0000
0000
0000
0000
0000
0010
0000
0000
0000
0010
0000
,  // measure 151
0000
0000
0000
0000
0000
0000
0010
0000
0000
0000
0010
0000
0000
0000
0000
0000
0000
0000
0010
0000
0000
0000
0001
0000
1000
0000
0010
MM0M
0010
0000
0001
0000
,  // measure 152
1000
0000
0100
0000
0010
0000
0100
M0MM
0100
0000
0001
0000
0100
0000
0010
0000
1000
0000
0100
0000
0000
0000
0000
0000
0000
0000
0010
0000
0010
0000
0000
0000
,  // measure 153
0000
0000
0000
0000
0000
0000
0100
0000
0100
0000
0100
0000
0000
0000
0000
0000
0000
0000
0100
0000
0000
0000
0100
0000
1000
0000
0010
MM0M
0010
0000
0001
0000
,  // measure 154
0010
0000
0100
0000
1000
0000
0010
MM0M
0010
0000
0001
0000
1000
0000
0100
0000
0010
0000
0001
0000
0000
0000
0000
0000
0000
0000
0001
0000
0000
0000
0001
0000
,  // measure 155
0000
0000
0000
0000
0000
0000
0001
0000
0000
0000
0001
0000
0000
0000
0000
0000
0000
0000
0001
0000
0000
0000
0001
0000
0100
0000
0010
MM0M
0010
0000
0001
0000
,  // measure 156
1000
0000
0001
0000
0010
0000
0100
M0MM
0100
0000
0001
0000
0010
0000
0100
0000
1000
0000
0001
0000
0000
0000
0000
0000
0000
0000
1000
0000
1000
0000
0000
0000
,  // measure 157
0000
0000
0000
0000
0001
0001
0001
0000
0000
0000
0100
0000
0110
0000
0010
0000
,  // measure 158
0100
0010
1000
0100
0010
0000
0001
0000
0100
0010
1000
0010
0100
0000
0001
0000
,  // measure 159
1000
0100
0010
0100
1000
0000
0010
0000
0100
0001
1000
0010
0100
0000
0010
1000
,  // measure 160
0100
0000
0100
1000
0010
0000
0010
0100
0000
0100
0001
0010
0100
0000
0100
1000
,  // measure 161
0001
0000
0001
0100
0010
0000
0010
1000
0000
1000
0100
0000
0010
0001
0100
0001
,  // measure 162
0010
0100
0000
1100
0000
0000
1000
0010
0100
0000
M001
0010
010M
1000
0001
1000
,  // measure 163
0010
0100
0000
0101
0000
0000
1000
0100
0010
0000
M001
1000
001M
0100
0001
0100
,  // measure 164
0010
1000
0000
1010
0000
0000
0010
0100
0001
0000
0001
0100
0110
0000
1000
0000
,  // measure 165
0100
0000
0000
0000
0000
0000
0000
0000
0000
0000
0000
0000
0000
0000
0000
0000
0000
0000
0000
0000
0000
0000
0000
0000
0010
0000
0000
0000
0000
0000
0000
0000
0000
0000
0000
0000
0000
0000
0000
0000
0000
0000
0001
0000
0000
0000
0000
0000
0000
0000
0000
0000
0000
0000
0000
0000
0000
0000
0000
0000
0100
0000
0000
0000
0000
0000
0000
0000
0000
0000
0000
0000
0000
0000
0000
0000
0000
0000
0000
0000
0000
0000
0000
0000
0000
0000
0000
0000
0010
0000
0000
0000
0000
0000
0000
0000
0000
0000
0000
0000
0000
0000
0000
0000
0000
0000
0000
0000
0000
0000
0000
0000
0000
0000
0000
0000
0000
0000
0000
0000
1000
0000
0000
0000
0000
0000
0000
0000
0000
0000
0000
0000
0000
0000
0000
0000
0000
0000
0000
0000
0000
0000
0000
0000
1100
0000
0000
0000
0000
0000
0000
0000
0000
0000
0000
0000
0000
0000
0000
0000
0000
0000
0000
0000
0000
0000
0000
0000
0100
0000
0000
0000
0000
0000
0000
0000
0000
0000
0000
0000
0000
0000
0000
0000
0000
0000
0000
0000
0000
0000
0000
0000
,  // measure 166
0110
0000
0010
0000
0011
0000
0001
0100
0010
0100
0001
0000
0101
0000
0100
0000
,  // measure 167
0110
0000
0010
0000
1010
0000
1000
0100
0010
0100
1000
0000
1001
0000
0001
0000
,  // measure 168
0101
0000
0100
0000
0110
0000
0010
1000
0100
1000
0010
0000
1010
0000
0010
0000
,  // measure 169
0110
0000
0100
0000
0101
0000
0001
1000
0010
1000
0001
0000
1MM1
0000
1000
0010
,  // measure 170
1000
0000
1000
0100
1000
0000
1000
0001
0100
0001
1000
0000
1MM1
0000
0001
0100
,  // measure 171
0001
0000
0001
0010
0001
0000
0001
1000
0010
1000
0001
0000
M1M1
0000
0100
0001
,  // measure 172
0010
0000
0010
0100
1000
0000
1000
0001
0100
0001
1000
0000
11MM
0000
0001
0100
,  // measure 173
0010
0000
1000
0001
0100
0000
0001
0010
0100
0010
0001
0000
M1M1
0000
0010
0000
,  // measure 174
1100
0000
0100
0000
0011
0000
0100
0001
0010
0100
1000
0000
M11M
0000
0001
1000
,  // measure 175
0100
0000
0000
0000
0000
0000
0000
0000
0010
0000
0000
0000
0100
0000
0000
0000
1000
0000
0000
0000
0000
0000
0000
0000
0001
0000
0000
0000
0010
0000
0000
0000
0100
0000
0000
0000
1000
0000
0000
0000
0010
0000
0000
0000
0000
0000
0000
0000
2MM2
0M00
0000
00M0
0000
0000
0M00
0000
0000
0000
00M0
0000
0000
0000
0000
0M00
,  // measure 176
0000
0000
0000
0000
0000
00M0
0000
0000
0000
0000
0000
0000
0M00
0000
0000
0000
3003
0000
0000
0000
00M0
0000
0000
0000
0000
0000
0000
0000
0000
0M00
0000
0000
0000
0000
0000
0000
0000
0000
0000
0000
0000
0000
0000
0000
0000
0000
0000
0000
0000
0000
0000
0000
0000
0000
0000
0000
0000
0000
0000
0000
0000
0000
0000
0000
;
