#TITLE:BarneyCore;
#SUBTITLE:(Version 2);
#ARTIST:RawrBag;
#TITLETRANSLIT:;
#SUBTITLETRANSLIT:;
#ARTISTTRANSLIT:;
#GENRE:;
#CREDIT:;
#BANNER:;
#BACKGROUND:;
#LYRICSPATH:;
#CDTITLE:;
#MUSIC:BareyCore-Rawrbagv2.mp3;
#OFFSET:0.120;
#SAMPLESTART:39.000;
#SAMPLELENGTH:12.000;
#SELECTABLE:YES;
#BPMS:0.000=250.000
;
#STOPS:
;
#BGCHANGES:;
#KEYSOUNDS:;
#ATTACKS:;

//---------------dance-single - Raymond Tracer----------------
#NOTES:
     dance-single:
     :
     Challenge:
     16:
     1.000,1.000,0.186,0.230,1.000,880.000,17.000,21.000,69.000,1.000,6.000,1.000,1.000,0.186,0.230,1.000,880.000,17.000,21.000,69.000,1.000,6.000: // measure 0
0000
0001
0000
1000
,  // measure 1
0000
0001
0000
0100
,  // measure 2
0000
0010
1000
0000
0000
0000
0100
0000
,  // measure 3
0000
0010
0000
0001
,  // measure 4
0000
0100
0010
0000
0000
0000
0100
0000
,  // measure 5
0000
0001
0000
1000
,  // measure 6
0000
0100
0010
0000
0000
0000
0001
0000
,  // measure 7
0000
1000
0000
0010
,  // measure 8
0000
0100
0001
0000
0000
0000
1000
0000
,  // measure 9
0000
0100
0000
0010
,  // measure 10
0000
0100
1000
0000
0000
0000
0010
0000
,  // measure 11
0000
0100
0000
0001
,  // measure 12
0000
1000
0010
0000
0000
0000
1000
0000
,  // measure 13
0000
0001
0000
0010
,  // measure 14
0100
1000
0010
0000
0000
0000
0100
0000
,  // measure 15
0000
0001
0000
1000
,  // measure 16
0010
1000
0010
1000
0010
0000
0000
0000
0000
0000
1000
0100
0010
0001
1000
0100
,  // measure 17
0010
0001
0000
0100
0010
0000
1000
0000
,  // measure 18
0010
1000
0010
1000
0010
0000
0000
0000
0000
0000
0100
0001
1000
0010
0100
0001
,  // measure 19
1000
0001
0000
1000
0000
0100
0010
0000
,  // measure 20
0001
0010
0001
0010
0000
0000
0000
0000
0000
0000
0000
0000
0000
0000
0000
0000
0000
0000
0100
0000
0000
0000
0000
0000
,  // measure 21
2000
0002
0000
0000
,  // measure 22
0000
0000
0000
0000
,  // measure 23
0000
0000
0000
3003
1001
0000
0000
0000
0000
0000
0000
0000
2002
0000
0000
0000
,  // measure 24
0000
0000
0000
0000
3003
0000
0000
0000
0000
0000
0000
0000
1000
0010
0100
0001
,  // measure 25
1000
0010
0100
0001
0100
0001
1000
0100
1000
0100
0010
0001
1000
0100
0010
0001
,  // measure 26
1000
0100
1000
0001
0010
0100
1000
0001
0010
0100
0010
0001
0010
0100
1000
0100
,  // measure 27
0010
0000
0000
0100
0000
0000
1000
0000
0000
0001
0000
0000
0200
0000
0000
0000
0000
0000
0000
0000
0000
0000
0000
0000
0310
0000
1000
0000
0010
0000
1000
0000
0000
0010
0000
0000
1000
0000
0000
0010
0000
0000
0100
0000
0000
0010
0000
0000
,  // measure 28
1000
0010
0100
0001
1000
0010
0100
0001
1000
0010
1000
0010
0100
0001
0100
0001
,  // measure 29
1000
0100
0010
0001
1000
0100
0010
0100
1000
0100
0010
0001
1000
0100
0010
0001
,  // measure 30
0010
0100
0010
0001
0010
0001
1000
0010
1000
0010
0100
0001
1000
0010
0100
0001
,  // measure 31
0100
0010
0100
0001
0100
0010
0100
0001
1000
0100
1000
0001
1000
0010
1000
0001
,  // measure 32
0010
0100
1000
0001
0040
0000
0000
0000
0000
0000
0000
0000
0130
1000
0100
1000
,  // measure 33
0001
0010
0001
1000
0100
0010
0001
1000
0100
0010
0100
1000
0001
0010
0100
1000
,  // measure 34
0001
0010
0001
1000
0010
0100
0001
1000
0010
0100
0001
1000
0001
0100
0001
1000
,  // measure 35
0001
0100
0010
0100
0001
0100
0010
1000
0010
0100
0001
1000
0010
0100
0001
1000
,  // measure 36
0001
0010
0001
1000
0010
1000
0001
0010
0001
1000
0100
0010
0001
1000
0100
0010
,  // measure 37
0001
0010
0100
1000
0001
0100
0001
1000
0100
1000
0001
0010
0100
1000
0001
1000
,  // measure 38
0010
0100
0001
1000
0010
0100
0001
0100
0010
1000
0100
0010
0100
1000
0001
0010
,  // measure 39
0100
0000
0000
1000
0000
0000
0001
0000
0000
0010
0000
0000
0200
0000
0000
0000
0000
0000
0000
0000
0000
0000
0000
0000
1300
0000
0010
0000
1000
0000
0010
0000
0000
1000
0000
0000
0010
0000
0000
0100
0000
0000
0001
0000
0000
1000
0000
0000
,  // measure 40
0010
0100
0001
0100
0001
1000
0010
0100
0010
1000
0010
0100
0002
0000
0M00
0000
,  // measure 41
00M0
M000
0M00
00M0
0M00
M000
00M0
0M00
,  // measure 42
M000
0M00
M0M0
0MM0
MM00
M0M0
0MM0
00M0
,  // measure 43
M000
MM00
M0M0
0M00
MM00
0MM0
M0M0
0M00
,  // measure 44
MMM0
0000
0000
0000
1003
0100
1000
0001
0100
0001
0010
0100
1000
0001
0010
0100
,  // measure 45
1000
0100
1000
0001
0010
0100
0010
0001
1000
0010
1000
0010
0100
0001
1000
0010
,  // measure 46
0100
0001
0010
0100
1000
0001
0010
0100
1000
0001
0010
0001
1000
0010
1000
0001
,  // measure 47
1000
0010
0100
0001
1000
0010
0100
0001
1000
0001
0100
0001
0010
0100
1000
0001
,  // measure 48
0010
0100
1000
0100
0010
0100
1000
0001
1000
0100
1000
0001
1000
0100
1000
0100
,  // measure 49
0010
0001
1000
0100
1000
0001
0010
0100
1000
0001
0100
0001
0100
0010
1000
0001
,  // measure 50
0100
0010
1000
0010
1000
0001
0100
0010
1000
0010
0100
0001
0100
0001
1000
0010
,  // measure 51
0100
0001
0010
0100
1000
0001
0010
0100
1000
0010
0100
0010
0100
0001
1000
0100
,  // measure 52
0010
0001
0010
0100
4000
0000
0000
0000
30M4
0000
0M00
0000
M000
0000
0M00
0000
,  // measure 53
00M0
M000
0M00
00M0
0M00
M000
00M0
0M00
,  // measure 54
M000
0000
M000
MM00
MMM0
0M00
MMM0
MM00
,  // measure 55
M000
0000
0203
0000
M000
0000
00M0
0000
000M
0000
M000
0000
031M
1000
0001
0100
,  // measure 56
0010
1000
0001
0100
0001
0100
0010
1000
0100
1000
0100
0010
0001
1000
0100
0010
,  // measure 57
0001
1000
0001
0100
0010
1000
0100
0010
0001
1000
0100
0010
0001
0010
0001
1000
,  // measure 58
0100
0010
0100
1000
0001
0010
0100
1000
0100
0010
0001
0010
0100
0010
0001
0010
,  // measure 59
0100
1000
0001
1000
0100
1000
0001
0100
0001
1000
0001
0100
0010
1000
0010
1000
,  // measure 60
0001
0000
0000
0100
0000
0000
0010
0000
0000
1000
0000
0000
0002
0000
0000
0000
0000
0000
0000
0000
0000
0000
0000
0000
1003
0000
0001
0000
1000
0000
0001
0000
0000
1000
0000
0000
0010
0000
0000
0100
0000
0000
0001
0000
0000
1000
0000
0000
,  // measure 61
0100
0010
0001
1000
0100
0010
0001
0010
0100
1000
0100
1000
0001
0010
0100
1000
,  // measure 62
0100
1000
0001
1000
0100
1000
0010
0100
0001
1000
0010
0100
0001
1000
0001
0100
,  // measure 63
0010
1000
0010
0100
0001
1000
0100
0010
0001
1000
0100
0010
0001
1000
0010
0100
,  // measure 64
0001
0100
0001
1000
0100
0010
0100
1000
0001
0010
0100
1000
0001
0010
0001
1000
,  // measure 65
0001
0010
0001
1000
0100
0010
0001
1000
0100
1000
0100
0010
0001
0010
0100
0010
,  // measure 66
0001
0010
0001
1000
0100
0010
0001
1000
0100
0010
0100
1000
0100
0010
0001
0010
,  // measure 67
0100
0010
0001
0010
0400
0000
0000
0000
0000
0000
0000
0000
1300
0001
0010
0100
,  // measure 68
1000
0010
0100
0001
1000
0010
0100
0001
0100
0001
1000
0010
0100
0010
1000
0001
,  // measure 69
0100
0010
1000
0100
0010
0001
1000
0100
0010
0001
0010
0001
1000
0010
1000
0010
,  // measure 70
0100
0001
0100
0010
1000
0010
0100
0010
1000
0010
0100
0001
0100
0010
0100
0001
,  // measure 71
0100
0001
1000
0100
0010
0001
1000
0100
0010
0001
1000
0100
1000
0100
0010
0001
,  // measure 72
1000
0000
0000
0001
0000
0000
0100
0000
0000
0001
0000
0000
0020
0000
0000
0000
0000
0000
0000
0000
0000
0000
0000
0000
0130
0000
1000
0000
0100
0000
1000
0000
0000
0100
0000
0000
0010
0000
0000
0001
0000
0000
1000
0000
0000
0100
0000
0000
,  // measure 73
0010
0001
1000
0001
0100
0001
1000
0001
0010
0100
1000
0001
1000
0000
0000
0000
,  // measure 74
1000
1001
0101
0010
,  // measure 75
0010
0110
0110
1000
,  // measure 76
1010
0100
1010
1010
,  // measure 77
0001
0000
0100
0000
0010
1000
0010
0000
,  // measure 78
0110
0000
0000
0001
0000
0000
0101
0000
0000
0001
0010
0100
,  // measure 79
1000
0001
0010
0004
0000
0000
0003
0000
0000
0101
0000
0000
,  // measure 80
0100
1010
1001
0001
,  // measure 81
0010
0100
1000
1010
,  // measure 82
0110
0000
0000
0000
0101
0000
0000
0000
0000
0000
0000
0000
1000
0100
0010
0001
,  // measure 83
1000
0100
0010
0001
0400
0000
0000
0000
0000
0000
0000
0000
0310
0100
1000
0001
,  // measure 84
0010
0100
1000
0001
0010
0001
0010
0100
1000
0100
0010
0001
1000
0100
0010
0100
,  // measure 85
1000
0001
0010
0100
1000
0001
0010
0001
0010
0100
1000
0100
1000
0001
0100
0001
,  // measure 86
0100
0010
1000
0010
1000
0001
0100
0010
1000
0100
0010
0001
1000
0100
0010
0001
,  // measure 87
0100
0000
0000
0010
0000
0000
1000
0000
0000
0001
0000
0000
2000
0000
0000
0000
0000
0000
0000
0000
0000
0000
0000
0000
0000
0000
0000
0000
0000
0000
0000
0000
0001
0000
3000
0000
1000
0000
0000
0000
0001
0000
0000
0000
0100
0000
0000
0000
,  // measure 88
0010
1000
0100
0010
0001
0100
0010
1000
0001
0100
0001
1000
,  // measure 89
0001
0010
0100
1000
0010
0100
0001
1000
0100
0010
0001
0100
,  // measure 90
0010
2000
0000
0000
0000
0000
0000
0000
3002
0000
0000
0000
,  // measure 91
0000
0000
0203
0000
0000
0000
0000
0000
0320
0000
0000
0000
,  // measure 92
0000
0000
2030
0000
0000
0000
0000
0000
3200
0000
0000
0000
,  // measure 93
0000
0000
0320
0000
0000
0000
0000
0000
0032
0000
0000
0000
,  // measure 94
0000
0000
0203
0000
0000
0000
0000
0000
0020
0000
0000
0000
,  // measure 95
0000
0000
1330
0000
0000
0000
0000
0000
0000
0000
0000
0000
;

//---------------dance-single - Raymond Tracer----------------
#NOTES:
     dance-single:
     :
     Hard:
     11:
     0.877,0.886,0.208,0.263,0.225,517.000,19.000,24.000,2.000,0.000,1.000,0.877,0.886,0.208,0.263,0.225,517.000,19.000,24.000,2.000,0.000,1.000: // measure 0
0000
1000
0000
0001
,  // measure 1
0000
0100
0000
0010
,  // measure 2
0000
1000
0100
0000
0000
0000
0010
0000
,  // measure 3
0000
0001
0000
0100
,  // measure 4
0000
0010
1000
0000
0000
0000
0100
0000
,  // measure 5
0000
0010
0000
0001
,  // measure 6
0000
0100
0010
0000
0000
0000
1000
0000
,  // measure 7
0000
0100
0000
0010
,  // measure 8
0000
0001
0100
0000
0000
0000
0010
0000
,  // measure 9
0000
1000
0000
0100
,  // measure 10
0000
0010
0001
0000
0000
0000
0100
0000
,  // measure 11
0000
0010
0000
1000
,  // measure 12
0000
0100
0010
0000
0000
0000
0001
0000
,  // measure 13
0000
0100
0000
0010
,  // measure 14
1000
0100
1000
0000
0000
0000
0010
0000
,  // measure 15
0000
0100
0000
0001
,  // measure 16
1000
0001
1000
0000
0000
0000
0000
0000
0000
0000
0000
0000
0001
0100
0001
0000
,  // measure 17
0100
0001
0000
0100
0010
0000
1000
0000
,  // measure 18
0100
0000
1000
0100
1000
0000
0000
0000
0000
0000
0001
1000
0001
1000
0001
1000
,  // measure 19
0001
1000
0000
0100
0000
0010
0001
0000
,  // measure 20
0001
0010
0001
0000
0000
0000
0000
0000
0000
0000
0000
0000
1000
0000
0000
0000
,  // measure 21
0010
0100
0000
0000
,  // measure 22
0000
0001
0000
0000
,  // measure 23
0000
1000
0000
2002
,  // measure 24
0000
0000
3003
0000
0000
0000
1000
0100
,  // measure 25
0010
0001
1000
0010
0100
0001
0010
0001
,  // measure 26
1000
0010
1000
0100
0010
0100
1000
0001
,  // measure 27
0010
0000
0100
0000
2000
0000
0000
0000
3001
0010
0001
0000
1000
0000
0100
0000
,  // measure 28
0010
0001
1000
0010
0100
0001
1000
0010
,  // measure 29
0100
0001
0010
0100
1000
0001
0010
0100
,  // measure 30
1000
0010
0100
0001
1000
0100
1000
0001
,  // measure 31
0100
0001
0010
0100
0010
0001
1000
0100
,  // measure 32
0010
0001
0200
0000
0000
0000
0301
0100
,  // measure 33
0001
1000
0100
0010
0001
0010
0100
1000
,  // measure 34
0010
0100
0001
1000
0100
0010
0100
1000
,  // measure 35
0001
0010
0100
1000
0001
0010
0100
1000
,  // measure 36
0010
0100
0001
1000
0100
0010
0001
0100
,  // measure 37
0010
1000
0001
0100
0010
1000
0100
1000
,  // measure 38
0100
0010
0001
1000
0100
0010
0100
1000
,  // measure 39
0001
0000
0100
0000
0020
0000
0000
0000
1030
0001
1000
0000
0001
0000
0100
0000
,  // measure 40
0010
1000
0100
0010
0001
1000
0002
0000
,  // measure 41
0000
0000
0000
0100
0000
0000
0000
0000
0000
0000
0000
0100
0000
0000
0000
0000
,  // measure 42
0000
0000
0000
0100
0000
0000
0000
0000
0000
0000
0000
0100
0000
0000
0000
0000
,  // measure 43
0000
0000
0000
0100
0000
0000
0000
0000
0000
0000
0000
0100
0000
0000
0000
0000
,  // measure 44
0000
0000
0000
M0M0
0103
0000
0010
0000
1000
0000
0100
0000
0010
0000
0001
0000
,  // measure 45
0010
0001
1000
0100
1000
0100
0010
0001
,  // measure 46
0100
0001
1000
0010
0100
0001
0010
0100
,  // measure 47
1000
0100
0010
0001
1000
0010
0100
0001
,  // measure 48
1000
0001
0010
0001
1000
0001
0100
0010
,  // measure 49
1000
0001
1000
0100
1000
0001
0010
0100
,  // measure 50
1000
0001
0010
0001
1000
0100
1000
0001
,  // measure 51
0100
0001
1000
0010
1000
0100
0010
0100
,  // measure 52
1000
0010
0200
0000
0002
0000
0000
0000
,  // measure 53
0000
0000
0000
0000
,  // measure 54
0000
0000
0000
0000
,  // measure 55
0003
0020
0000
0000
0000
0300
1030
0010
,  // measure 56
1000
0001
0010
0100
1000
0001
0100
0010
,  // measure 57
0100
0001
1000
0001
0010
0100
1000
0010
,  // measure 58
0100
0001
1000
0010
0100
0001
1000
0100
,  // measure 59
0010
0100
1000
0001
0010
0100
1000
0001
,  // measure 60
0100
0000
0010
0000
2000
0000
0000
0000
3100
0010
0100
0000
0010
0000
0001
0000
,  // measure 61
1000
0100
0010
0001
0100
0001
0100
0010
,  // measure 62
1000
0010
0100
0010
1000
0010
0100
0001
,  // measure 63
0100
0010
0100
0001
1000
0001
0100
0001
,  // measure 64
1000
0001
0010
0100
0010
0001
0010
0100
,  // measure 65
1000
0100
0010
0001
0100
0010
1000
0100
,  // measure 66
1000
0010
0100
0001
0010
0001
0100
0010
,  // measure 67
1000
0100
0020
0000
0000
0000
0031
1000
,  // measure 68
0010
1000
0001
0010
0001
1000
0100
1000
,  // measure 69
0001
0100
0001
0010
0001
1000
0010
1000
,  // measure 70
0100
1000
0010
0100
0001
0010
0100
0010
,  // measure 71
0001
1000
0010
0100
0001
1000
0100
0010
,  // measure 72
0001
0000
0100
0000
0020
0000
0000
0000
1030
0001
1000
0000
0100
0000
0010
0000
,  // measure 73
0100
1000
0001
0010
0100
1000
0001
0000
,  // measure 74
1000
1010
0110
0101
,  // measure 75
0001
0011
0110
1100
,  // measure 76
0100
0010
0011
0001
,  // measure 77
1000
0000
1010
0000
0010
0100
0001
0000
,  // measure 78
0101
0000
0011
0000
1100
0000
1000
0010
,  // measure 79
1000
0010
4000
0000
3001
0000
1001
0000
,  // measure 80
0001
0010
0100
1100
,  // measure 81
1001
0101
0100
0110
,  // measure 82
1010
0000
1001
0000
0000
0000
0001
0100
,  // measure 83
0010
1000
0200
0000
0000
0000
0310
0001
,  // measure 84
1000
0100
0010
0001
0100
0010
1000
0010
,  // measure 85
0100
0001
1000
0100
0010
0001
1000
0100
,  // measure 86
0010
0100
1000
0001
0100
0010
0100
0001
,  // measure 87
1000
0000
0000
0000
0000
0000
0001
0000
0000
0000
0000
0000
2000
0000
0000
0000
0000
0000
0000
0000
0000
0000
0000
0000
0000
0000
0000
0000
0000
0000
0000
0000
0001
3000
0000
0000
0010
0000
0000
0000
0001
0000
0000
0000
0000
0000
0000
0000
,  // measure 88
0000
0000
1000
0100
1000
0000
0000
0000
0010
1000
0010
1000
,  // measure 89
0010
0000
0100
0001
0100
0000
0001
0100
0001
0000
1000
0001
,  // measure 90
2000
0000
0000
0000
0000
0000
0000
0000
3020
0000
0000
0000
,  // measure 91
0000
0000
0230
0000
0000
0000
0000
0000
0302
0000
0000
0000
,  // measure 92
0000
0000
2003
0000
0000
0000
0000
0000
3200
0000
0000
0000
,  // measure 93
0000
0000
0320
0000
0000
0000
0000
0000
0032
0000
0000
0000
,  // measure 94
0000
0000
0203
0000
0000
0000
0000
0000
0320
0000
0000
0000
,  // measure 95
0000
0000
1030
0000
0000
0000
0000
0000
0000
0000
0000
0000
;

//---------------dance-single - Raymond Tracer----------------
#NOTES:
     dance-single:
     :
     Medium:
     9:
     0.529,0.521,0.153,0.307,0.088,296.000,14.000,28.000,0.000,0.000,0.000,0.529,0.521,0.153,0.307,0.088,296.000,14.000,28.000,0.000,0.000,0.000: // measure 0
0000
1000
0000
0100
,  // measure 1
0000
0010
0000
0001
,  // measure 2
0000
1000
0001
0000
0000
0000
0010
0000
,  // measure 3
0000
0100
0000
1000
,  // measure 4
0000
0001
1000
0000
0000
0000
0100
0000
,  // measure 5
0000
0010
0000
0001
,  // measure 6
0000
1000
0001
0000
0000
0000
0010
0000
,  // measure 7
0000
0100
0000
1000
,  // measure 8
0000
0001
1000
0000
0000
0000
0100
0000
,  // measure 9
0000
0010
0000
0001
,  // measure 10
0000
1000
0001
0000
0000
0000
0010
0000
,  // measure 11
0000
0100
0000
1000
,  // measure 12
0000
0001
1000
0000
0000
0000
0100
0000
,  // measure 13
0000
0010
0000
0001
,  // measure 14
1000
0001
1000
0000
0000
0000
0100
0000
,  // measure 15
0000
0010
0000
0001
,  // measure 16
2000
3000
0000
0000
0000
0000
0002
0103
,  // measure 17
0001
0100
0000
0000
0110
0000
0010
0000
,  // measure 18
2000
0000
3000
0000
0000
1000
0001
1000
,  // measure 19
0001
1000
0000
0100
0000
0010
0001
0000
,  // measure 20
0010
0001
0010
0000
0000
0000
0100
0000
,  // measure 21
1000
0001
0000
0000
,  // measure 22
0000
1000
0000
0000
,  // measure 23
0000
0001
0000
2002
,  // measure 24
0000
3003
0000
1000
,  // measure 25
0100
0010
0001
0100
,  // measure 26
0010
1000
0001
0100
,  // measure 27
0010
0000
1000
0000
0001
0100
0001
0000
,  // measure 28
1000
0100
0010
0001
,  // measure 29
0100
0010
1000
0001
,  // measure 30
0100
0010
1000
0001
,  // measure 31
0010
0100
1000
0001
,  // measure 32
0100
0002
0000
1003
,  // measure 33
0100
1000
0001
0100
,  // measure 34
0001
0010
0100
1000
,  // measure 35
0001
0010
0001
1000
,  // measure 36
0100
0010
0001
1000
,  // measure 37
0010
0100
0001
1000
,  // measure 38
0100
0010
0100
1000
,  // measure 39
0001
0000
0100
0000
0010
1000
0010
0000
,  // measure 40
1000
0010
0100
0002
,  // measure 41
0000
0000
0000
0000
,  // measure 42
0000
0000
0000
0000
,  // measure 43
0000
0000
0000
0000
,  // measure 44
0000
1003
0010
0100
,  // measure 45
0001
0010
0100
1000
,  // measure 46
0001
0100
0010
1000
,  // measure 47
0100
0010
0001
0100
,  // measure 48
0001
1000
0100
0010
,  // measure 49
0001
0100
0010
1000
,  // measure 50
0100
1000
0010
0100
,  // measure 51
0001
0010
0100
1000
,  // measure 52
0001
2000
0000
0000
,  // measure 53
0000
0000
0000
0000
,  // measure 54
0000
0000
0000
0000
,  // measure 55
0000
0002
0000
0000
3003
0000
1000
0000
,  // measure 56
0010
0100
0001
1000
,  // measure 57
0100
0010
0001
0100
,  // measure 58
0010
1000
0001
0100
,  // measure 59
0001
1000
0001
0010
,  // measure 60
0100
0000
1000
0000
0100
1000
0100
0000
,  // measure 61
0010
0001
1000
0010
,  // measure 62
0100
0001
1000
0100
,  // measure 63
0010
0001
1000
0010
,  // measure 64
1000
0100
1000
0001
,  // measure 65
0100
0001
0010
0100
,  // measure 66
1000
0001
0010
0100
,  // measure 67
1000
0002
0000
0103
,  // measure 68
0010
1000
0001
0100
,  // measure 69
0010
1000
0100
0010
,  // measure 70
0001
1000
0100
1000
,  // measure 71
0100
0010
0001
0010
,  // measure 72
0100
0000
1000
0000
0001
0100
0001
0000
,  // measure 73
0100
0010
0100
0110
,  // measure 74
0000
1010
0000
1100
,  // measure 75
0000
0110
0000
1001
,  // measure 76
0000
0101
0000
0110
,  // measure 77
0000
1010
0000
1001
,  // measure 78
0000
0000
1100
0000
0000
0000
0010
0001
,  // measure 79
0010
0001
0020
0000
0030
0000
0011
0000
,  // measure 80
0000
1001
0000
0001
,  // measure 81
0100
0010
0000
1000
,  // measure 82
0100
0010
0001
0100
,  // measure 83
0010
2000
0000
3001
,  // measure 84
0010
0100
1000
0010
,  // measure 85
0100
0001
1000
0010
,  // measure 86
0100
0001
1000
0100
,  // measure 87
0010
0000
0000
0002
0000
0000
0000
0000
2003
0000
0000
0000
,  // measure 88
0000
0000
3200
0000
0000
0000
0000
0000
0320
0000
0000
0000
,  // measure 89
0000
0000
0032
0000
0000
0000
0000
0000
0203
0000
0000
0000
,  // measure 90
0000
0000
0320
0000
0000
0000
0000
0000
2030
0000
0000
0000
,  // measure 91
0000
0000
3200
0000
0000
0000
0000
0000
0320
0000
0000
0000
,  // measure 92
0000
0000
0032
0000
0000
0000
0000
0000
0203
0000
0000
0000
,  // measure 93
0000
0000
0320
0000
0000
0000
0000
0000
2030
0000
0000
0000
,  // measure 94
0000
0000
3200
0000
0000
0000
0000
0000
0320
0000
0000
0000
,  // measure 95
0000
0000
0031
0000
0000
0000
0000
0000
0000
0000
0000
0000
;
