#TITLE:BarneyCore;
#SUBTITLE:(Version 1);
#ARTIST:RawrBag;
#TITLETRANSLIT:;
#SUBTITLETRANSLIT:;
#ARTISTTRANSLIT:;
#GENRE:;
#CREDIT:;
#BANNER:;
#BACKGROUND:;
#LYRICSPATH:;
#CDTITLE:;
#MUSIC:BareyCore-Rawrbag.mp3;
#OFFSET:0.000;
#SAMPLESTART:39.000;
#SAMPLELENGTH:12.000;
#SELECTABLE:YES;
#DISPLAYBPM:250.000;
#BPMS:0.000=250.000
,220.000=62.500
,220.250=93.750
,220.375=140.625
,220.500=210.937
,220.625=316.406
,221.000=250.000
;
#STOPS:260.500=1.020,
311.500=0.060
;
#BGCHANGES:;
#KEYSOUNDS:;
#ATTACKS:;

//---------------dance-single - Raymond Tracer----------------
#NOTES:
     dance-single:
     :
     Challenge:
     16:
     1.000,1.000,0.376,0.188,1.000,720.000,34.000,17.000,138.000,0.000,1.000,1.000,1.000,0.376,0.188,1.000,720.000,34.000,17.000,138.000,0.000,1.000: // measure 0
1000
0000
0001
0000
,  // measure 1
1000
0000
0000
0000
0100
0000
0000
0010
,  // measure 2
0001
0000
0100
0000
,  // measure 3
0010
0000
0000
0000
1000
0000
0000
0100
,  // measure 4
1000
0000
0001
0000
,  // measure 5
0100
0000
0000
0000
0010
0000
0000
1000
,  // measure 6
0010
0000
0100
0000
,  // measure 7
0010
0000
0000
0000
1000
0000
0000
0100
,  // measure 8
0010
0000
0001
0000
,  // measure 9
1000
0000
0000
0000
0001
0000
0000
0001
,  // measure 10
0100
0000
0010
0000
,  // measure 11
1000
0000
0000
0000
0100
0000
0000
1000
,  // measure 12
0010
0000
0100
0000
,  // measure 13
0001
0000
0000
0000
1000
0000
0100
0010
,  // measure 14
0001
0000
0100
0000
,  // measure 15
0010
0000
0000
0000
0000
0000
0000
0000
1000
0000
0000
0000
0100
1000
0100
1000
,  // measure 16
0100
0000
0000
0000
0000
0000
0000
0000
0100
0010
0001
0010
0100
0000
1000
0000
,  // measure 17
0000
0000
0010
0000
0100
0000
0000
0000
0001
0000
0000
0000
0100
0010
1000
0000
,  // measure 18
0010
0000
0000
0000
0000
0000
0000
0000
0100
0001
1000
0010
0100
0001
1000
0010
,  // measure 19
0100
0000
0000
0000
0000
0000
0001
0000
0000
0000
0000
0000
1000
0000
0000
0100
0000
0000
1000
0000
0000
0000
0000
0000
0001
0000
0000
0000
0000
0000
1000
0000
0000
0100
0000
0000
1000
0000
0010
0000
1000
0000
0010
0000
0000
0000
0000
0000
,  // measure 20
0000
0000
0100
0002
,  // measure 21
2000
0000
0000
0000
,  // measure 22
0000
0000
0000
0000
0000
0000
0000
0000
0000
0000
0000
0000
0000
0000
0000
3003
,  // measure 23
1001
0000
2002
0000
,  // measure 24
0000
0000
0000
0000
3003
0000
0000
0000
0100
0010
1000
0010
0100
0001
1000
0001
,  // measure 25
1000
0100
0010
0100
1000
0100
0010
0001
1000
0100
0010
0001
0010
0001
1000
0100
,  // measure 26
0010
0100
1000
0001
0100
0001
1000
0010
0100
0001
1000
0010
0100
0010
1000
0100
,  // measure 27
0020
0000
0000
0000
0000
0000
0000
0000
0000
0000
0000
0000
0031
0000
0100
0000
0001
0000
0100
0000
0000
0001
0000
0000
0100
0000
0000
0010
0000
0000
1000
0000
0000
0001
0000
0000
0100
0000
0000
0010
0000
0000
1000
0000
0000
0100
0000
0000
,  // measure 28
0010
0001
1000
0100
0010
0001
1000
0100
1000
0001
0010
0100
0010
0001
0010
0100
,  // measure 29
0010
0001
1000
0001
0100
0001
1000
0100
0010
0100
1000
0100
0010
0100
1000
0010
,  // measure 30
1000
0001
0010
0001
0010
0100
0010
0001
1000
0100
0010
0001
1000
0100
1000
0001
,  // measure 31
0100
0001
0010
0100
1000
0100
0010
0001
1000
0010
0100
0001
1000
0010
0100
0001
,  // measure 32
0020
0000
0M00
0000
0000
0000
M000
0000
0030
0100
000M
0000
0000
0100
00M0
0000
,  // measure 33
M000
0110
0000
0000
000M
0110
0000
0000
M000
0101
0000
0000
00M0
0101
0000
0000
,  // measure 34
0M00
1001
0000
0000
0000
1100
00MM
0000
0000
0110
M000
0000
000M
0110
0000
0000
,  // measure 35
M000
0011
0M00
0000
0000
0011
M000
0000
0000
0101
00M0
0000
0000
0101
M000
0000
,  // measure 36
0000
0110
000M
0000
0000
0010
0M00
0000
0000
1000
0000
000M
0000
1000
00M0
0000
,  // measure 37
0000
0100
0000
0000
M000
0010
0000
0000
0M00
0001
0000
0000
0000
0100
M000
0000
,  // measure 38
0000
0001
00M0
0000
0000
1000
0000
0000
0M00
0010
0000
0000
MM0M
0010
0000
0000
,  // measure 39
0000
0001
M000
0000
0000
0100
00M0
0000
0000
0001
0M00
0000
0000
0010
0000
0000
,  // measure 40
000M
0100
0000
0000
00M0
1000
0000
0000
0M02
0000
0000
0000
2000
0000
0000
0000
,  // measure 41
0MM0
0000
0MM0
0000
,  // measure 42
0MM0
0000
0MM0
0000
,  // measure 43
0MM0
0000
0MM3
0000
,  // measure 44
3010
0100
0001
1000
0010
0100
0001
1000
0100
0010
0001
0010
0100
1000
0001
0100
,  // measure 45
0001
1000
0010
1000
0100
0010
0001
0010
0001
1000
0100
0010
0001
1000
0001
0100
,  // measure 46
0010
1000
0001
0100
0010
1000
0100
0010
0100
1000
0100
0010
0100
1000
0001
1000
,  // measure 47
0001
0100
0010
1000
0100
0010
0001
1000
0100
0010
0001
0100
0001
0010
0001
0100
,  // measure 48
0010
1000
0010
1000
0001
0010
0001
0010
0100
1000
0001
0010
0100
1000
0001
0100
,  // measure 49
0001
0100
0010
0100
0001
0100
0010
0100
0001
1000
0001
0100
0001
1000
0001
0100
,  // measure 50
0010
1000
0010
0100
0010
1000
0010
0100
0001
1000
0010
0100
0001
1000
0100
0010
,  // measure 51
0001
1000
0100
0010
0001
1000
0010
0100
0001
0100
0010
1000
0001
0100
0001
0010
,  // measure 52
0200
00M0
200M
00M0
000M
00M0
000M
00M0
,  // measure 53
000M
00M0
000M
00M0
000M
00M0
000M
00M0
,  // measure 54
000M
00M0
000M
00M0
030M
00M0
0M00
00M0
,  // measure 55
3M02
0000
0000
0000
0013
0100
1000
0010
0100
0001
1000
0010
0100
0001
1000
0001
,  // measure 56
0010
0001
1000
0001
0100
0010
1000
0001
0100
0010
1000
0001
1000
0100
0010
0001
,  // measure 57
0100
0001
0010
0100
1000
0001
0100
0001
0100
0010
1000
0001
0100
0010
1000
0010
,  // measure 58
1000
0001
0100
0010
1000
0100
1000
0100
0001
0010
0100
1000
0001
0010
0100
0010
,  // measure 59
0001
0000
0000
1000
0000
0000
0100
0000
0000
0010
0000
0000
0001
0000
0000
1000
0000
0000
0100
0000
0000
0010
0000
0000
0100
0000
0000
1000
0000
0000
0001
0000
0000
0200
0000
0000
0000
0000
0000
0000
0000
0000
0000
0000
0000
0310
0000
0100
,  // measure 60
0000
0010
0000
0100
0000
0000
0010
0000
0000
1000
0000
0000
0010
0000
0000
0100
0000
0000
0010
0000
0000
1000
0000
0000
0100
0000
0000
0010
0000
0000
0100
0000
0000
1000
0000
0000
0100
0000
0000
0010
0000
0000
0001
0000
0000
0100
0000
0000
,  // measure 61
0010
0100
0001
0100
0010
1000
0010
0100
0001
1000
0100
0010
0001
0010
0100
1000
,  // measure 62
0001
0010
0001
1000
0100
0010
0001
1000
0010
0100
0001
0100
0001
1000
0010
0100
,  // measure 63
0001
1000
0010
1000
0010
0100
0001
1000
0100
0010
0100
1000
0001
0010
0100
1000
,  // measure 64
0001
0010
0100
1000
0001
0010
0001
0010
0100
1000
0001
0010
0001
1000
0010
1000
,  // measure 65
0100
0010
0100
1000
0001
0010
0100
1000
0001
0010
0100
1000
0010
0100
0001
1000
,  // measure 66
0010
0100
0001
0100
0001
1000
0010
0100
0001
0100
0010
1000
0010
0100
0010
1000
,  // measure 67
0010
0100
0001
0100
0010
0100
0001
1000
0001
0100
0001
1000
0001
0100
0010
1000
,  // measure 68
0100
0010
0001
0010
0001
1000
0100
0010
0100
1000
0100
0010
0001
0010
0100
0010
,  // measure 69
0001
0000
0000
1000
0000
0000
0100
0000
0000
0010
0000
0000
0001
0000
0000
0010
0000
0000
0001
0000
0000
1000
0000
0000
0010
0000
0000
0100
0000
0000
0001
0000
0000
0020
0000
0000
0000
0000
0000
0000
0000
0000
0000
0000
0000
0130
0000
1000
,  // measure 70
0000
0100
0000
1000
0000
0000
0100
0000
0000
0010
0000
0000
0001
0000
0000
1000
0000
0000
0100
0000
0000
0010
0000
0000
0001
0000
0000
1000
0000
0000
0010
0000
0000
0100
0000
0000
0001
0000
0000
1000
0000
0000
0010
0000
0000
0100
0000
0000
,  // measure 71
M001
0101
M000
01M0
000M
M110
000M
0110
,  // measure 72
M000
0010
0M00
1010
000M
M100
0000
101M
,  // measure 73
0000
M10M
0000
M1M1
0000
M001
0M00
MM11
,  // measure 74
0000
M010
0000
M11M
0000
M11M
0000
M10M
,  // measure 75
0000
1M10
0000
010M
0000
01M1
M000
0M01
,  // measure 76
0000
0011
MM00
0011
0000
0100
00M0
0101
,  // measure 77
0000
0000
0000
0000
0000
0000
0000
0000
01M0
0000
0000
0000
0000
0000
0000
0000
0000
0000
0000
0000
0000
0000
0000
0000
M010
0000
0000
0000
0000
0000
0000
0000
0000
0000
0000
0000
0000
0000
0000
0000
1M1M
0000
0000
0000
0000
0000
0000
0000
0000
0000
0000
0000
0000
0000
0000
0000
2020
3M3M
0000
0000
0000
0000
0000
0000
,  // measure 78
0000
1000
0100
0010
,  // measure 79
0001
0101
0110
1M1M
,  // measure 80
0000
0000
0001
0010
0100
1000
0001
0010
0100
1000
0004
0000
0000
0000
0000
0000
,  // measure 81
0103
0010
1000
0001
0100
0010
1000
0010
1000
0001
1000
0010
0100
0001
1000
0100
,  // measure 82
1000
0100
0010
0001
1000
0100
0010
0001
1000
0100
1000
0001
0100
0001
0100
0010
,  // measure 83
1000
0001
0100
0010
1000
0010
1000
0001
0010
0001
1000
0100
0010
0100
1000
0100
,  // measure 84
0010
0001
1000
0100
0010
0001
1000
0010
0100
0001
2000
0000
0000
0000
0000
0000
,  // measure 85
0000
0MM2
0000
0000
0000
0MM0
0000
0000
,  // measure 86
0000
0MM0
0000
0000
0000
0MM0
0000
0000
,  // measure 87
0000
0MM0
0000
0000
0000
0MM0
0000
0000
,  // measure 88
0000
0MM0
0000
0000
0000
0MM0
0000
0000
,  // measure 89
0000
0MM0
0000
0000
0000
0MM0
0000
3003
,  // measure 90
0000
MMMM
0000
0000
0000
0000
0000
0000
;
