#TITLE:Angry Birds Theme;
#SUBTITLE:;
#ARTIST:Ari Pulkkinen;
#TITLETRANSLIT:;
#SUBTITLETRANSLIT:;
#ARTISTTRANSLIT:;
#GENRE:;
#CREDIT:;
#BANNER:;
#BACKGROUND:;
#LYRICSPATH:;
#CDTITLE:;
#MUSIC:Angry Birds Theme.mp3;
#OFFSET:0.500;
#SAMPLESTART:49.500;
#SAMPLELENGTH:12.000;
#SELECTABLE:YES;
#BPMS:0.000=120.000
;
#STOPS:;
#BGCHANGES:;
#KEYSOUNDS:;
#ATTACKS:;

//---------------dance-single - Blank----------------
#NOTES:
     dance-single:
     Blank:
     Challenge:
     10:
     0.726,0.652,0.527,0.044,0.542,308.000,36.000,3.000,0.000,0.000,0.000,0.726,0.652,0.527,0.044,0.542,308.000,36.000,3.000,0.000,0.000,0.000: // measure 0
0000
0000
0000
0000
1000
0001
0100
0000
0010
0000
1010
0000
1000
0100
0010
0000
,  // measure 1
0001
0000
1001
0000
0000
0000
1000
0100
0010
0100
1000
0000
0001
0100
0010
0000
,  // measure 2
0000
0000
0000
0000
0100
0001
0010
0000
0100
0000
1000
0000
0001
0100
0010
0000
,  // measure 3
1000
0000
0000
0000
0001
0100
1000
0100
1000
0100
0001
0100
0010
1000
0001
0000
,  // measure 4
0100
0000
0110
0000
1000
0100
0010
0000
0100
0000
0000
0000
1000
0100
0001
0000
,  // measure 5
0100
0000
0000
0000
1000
0010
0100
0001
0100
0010
1000
0001
0010
0100
1000
0000
,  // measure 6
0001
0000
0101
0000
1000
0001
0010
0000
0100
0000
0100
0000
1000
0000
1000
0001
,  // measure 7
0100
0001
1000
0000
0000
0000
0010
0000
0010
0000
0001
0000
0001
1000
0100
0000
,  // measure 8
1000
0000
1000
0000
0001
1000
0001
0000
0010
0000
0100
0000
1000
0000
0001
0100
,  // measure 9
0010
0100
0001
0000
1000
0100
0001
0000
0100
0000
1000
0000
0010
0100
0001
0000
,  // measure 10
1000
0000
1100
0000
0000
0000
0001
0000
0000
0100
0010
0000
1000
0000
0100
0000
,  // measure 11
0000
0000
0000
0000
0010
0000
0000
0000
0001
0000
0000
0000
0000
0000
0000
0000
0100
0000
0000
0000
0000
0000
0000
0000
0100
0010
0000
0000
0000
0000
0000
0000
0100
0010
0000
0000
0000
0000
0000
0000
0100
0010
0000
0000
0000
0000
0000
0000
0000
0000
0000
0000
0000
0000
0000
0000
1000
0001
0000
0000
0000
0000
0000
0000
,  // measure 12
1000
0001
0000
0000
0000
0000
0000
0000
1000
0001
0000
0000
0000
0000
0000
0000
0000
0000
0000
0000
0000
0000
0000
0000
0010
0000
0000
0000
0000
0000
0000
0000
0000
0000
0000
0000
1000
0000
0000
0000
0100
0000
0000
0000
0000
0000
0000
0000
0001
0000
0000
0000
0000
0000
0000
0000
0100
0000
0000
0000
0000
0000
0000
0000
,  // measure 13
0000
1000
0010
0000
0001
0000
0010
0000
0010
0000
0010
0000
0000
0000
1010
0000
,  // measure 14
1010
0000
1010
0000
0000
0000
1000
0000
0000
0001
1000
0000
0010
0000
0220
0000
,  // measure 15
0000
0330
0100
0001
1000
0100
0000
1000
,  // measure 16
0010
0000
1000
0000
0000
0000
0001
0000
0000
0100
0010
0000
1000
0000
0200
0000
,  // measure 17
0000
0000
0000
0000
1300
0000
0101
0000
0101
0000
0101
0000
0000
0010
1000
0000
,  // measure 18
0001
0100
0000
0101
1000
0110
0010
0101
,  // measure 19
1000
0010
0100
0000
0001
0010
0100
0000
1000
0000
1010
0000
0010
0000
0101
0000
,  // measure 20
0001
1000
0001
0000
1000
0100
0010
0000
0011
0000
0000
0000
0000
0000
1100
0000
,  // measure 21
0100
0010
0100
0000
0000
0100
1000
0000
0001
0000
0101
0000
1000
0000
1010
0000
,  // measure 22
0001
0100
0010
0000
1000
0001
0100
0000
0010
0000
1010
0000
1001
0000
0100
0001
,  // measure 23
0100
0010
0100
0000
0010
1000
0100
0000
0010
0000
0100
0000
1000
0100
0001
0000
,  // measure 24
0100
0000
1100
0000
0001
0010
0100
0000
1000
0000
1001
0000
0101
0000
0100
0010
,  // measure 25
1000
0010
0100
0000
0001
0010
0100
0000
0010
0000
1000
0000
0010
0001
0100
0000
,  // measure 26
1000
0000
1100
0000
0100
0001
0010
0000
0100
0000
1100
0000
1001
0000
0001
0100
,  // measure 27
0010
0100
0001
0000
1000
0100
0010
0000
0110
0000
0010
0001
0100
0001
0010
0000
,  // measure 28
0000
0000
0000
0000
0100
1000
0001
0000
0100
0000
1000
0000
0100
0000
0001
0000
,  // measure 29
0010
0000
1000
0000
0010
0001
1000
0000
0010
0100
0001
0000
0010
0000
1100
0000
,  // measure 30
0000
0000
0000
0100
0110
1000
0101
0100
,  // measure 31
1000
0000
0000
0000
0001
0100
0001
0010
0100
0010
0001
0000
0100
0000
0110
0000
,  // measure 32
0000
0000
0000
0000
1000
0100
0010
0000
0100
0000
1000
0000
0010
0000
0100
0000
,  // measure 33
0010
1000
0000
0000
0000
0000
0010
0001
0010
0001
0010
0000
0100
0000
0110
0000
,  // measure 34
0001
1001
0010
0000
0000
0000
0000
0000
;
