#VERSION:0.83;
#TITLE:Tell It To My Heart;
#SUBTITLE:;
#ARTIST:Taylor Dayne;
#TITLETRANSLIT:;
#SUBTITLETRANSLIT:;
#ARTISTTRANSLIT:;
#GENRE:;
#CREDIT:;
#MUSIC:Tell It To My Heart.ogg;
#BANNER:Tell it To My Heart.png;
#BACKGROUND:Tell it To My Heart-bg.png;#PREVIEWVID:;# JACKET:Tell it To My Heart-jacket.png;#CDTITLE:;
#SAMPLESTART:97.648;
#SAMPLELENGTH:10.000;
#SELECTABLE:YES;
#OFFSET:0.088;
#BPMS:0.000=118.104;
#STOPS:;
#BGCHANGES:;
#FGCHANGES:;

//--------------- dance-single - ----------------
#NOTEDATA:;
#STEPSTYPE:dance-single;
#DESCRIPTION:;
#DIFFICULTY:Beginner;
#METER:3;
#RADARVALUES:0.097967,0.147441,0.144774,0.060957,0,90,71,19,8,0,0,0.097967,0.147441,0.144774,0.060957,0,90,71,19,8,0,0;
#NOTES:
0000
0000
0000
0000
,
0000
0000
0000
0000
,
0000
0000
0000
0000
,
0000
0000
0000
0000
,
0000
0000
0000
1001
,
0000
0000
0000
0110
,
0000
0000
0000
1001
,
0000
0000
0000
0110
,
0000
0000
0000
1001
,
0000
0000
0000
1000
,
1000
1000
0000
0000
,
0000
0001
0001
0001
,
0000
0000
0000
0000
,
1000
0000
0000
0001
,
0000
0000
0000
0000
,
0000
1000
0000
0000
,
0000
0010
0000
1000
,
0000
0000
0000
1001
,
0000
0000
0000
0110
,
0000
0000
0000
0001
,
0000
0100
0000
0010
,
0000
0000
1000
0000
,
0000
0001
0000
2000
,
0000
0000
0000
0000
,
3000
0000
0000
1001
,
0000
0000
0000
0010
,
0010
0000
0000
1000
,
0000
0000
0000
0001
,
0000
0000
0000
1001
,
0000
0000
0000
0100
,
0100
0000
0000
1001
,
0000
0000
0000
0000
0000
0110
0000
0000
,
0000
0000
0000
0001
,
0000
0000
0000
1000
,
0000
0000
0000
0000
,
0001
0000
0000
1001
,
0000
0000
0000
0001
,
0000
0000
0000
1000
,
0000
0000
0000
0001
,
0000
0000
0000
1000
,
0000
0010
0010
0000
,
0000
1001
0000
0000
,
0000
0000
0000
0010
,
0000
0000
1000
0000
,
0001
0000
0000
0000
,
0100
0000
0000
0001
,
0000
0000
2000
0000
,
0000
0000
0000
0000
,
3000
0000
0000
1001
,
0000
0000
0000
0010
,
0010
0000
0000
0100
,
0100
0000
0010
0010
,
0000
0000
0000
1001
,
0000
0000
0000
0010
,
0010
0000
0000
1001
,
0000
0000
0000
0000
0000
0110
0000
0000
,
0000
0000
0000
1000
,
0000
0000
0000
0001
,
0000
0000
0000
0100
,
0000
0000
0000
0010
,
0000
0000
0000
0100
,
0000
0000
0000
0001
,
0000
0000
0000
0100
,
0000
0000
0000
0010
,
0000
0000
1001
0000
;

//--------------- dance-single - ----------------
#NOTEDATA:;
#STEPSTYPE:dance-single;
#DESCRIPTION:;
#DIFFICULTY:Easy;
#METER:5;
#RADARVALUES:0.210086,0.294882,0.144774,0.015239,0,193,174,19,2,0,0,0.210086,0.294882,0.144774,0.015239,0,193,174,19,2,0,0;
#NOTES:
0000
0000
0000
0000
,
0000
0000
0000
0000
,
0000
0000
0000
0000
,
0000
0000
0000
0000
,
0000
0000
0000
1001
,
0000
0000
0000
1000
,
1000
0000
0001
1000
,
0001
0010
0100
0000
,
0000
1000
0001
1000
,
0000
0000
0000
1001
,
0010
0010
0000
0000
,
1000
0001
1000
1000
,
0000
0000
0000
1001
,
0000
0010
1000
0001
,
0100
0001
1000
0000
,
0001
1000
0001
1000
,
0001
0010
0100
0010
,
0001
1000
0000
1000
,
0010
0100
0000
0000
,
0001
1000
0001
1000
,
0001
0000
0000
0000
,
1000
0001
1000
0010
,
0000
0000
0000
0001
,
0000
0000
0000
0000
,
0000
0000
0000
1001
,
0000
1000
1001
1000
,
1000
0000
0001
1000
,
0010
0100
0001
1000
,
1001
0000
0000
1000
,
0000
0100
0001
0100
,
0001
0000
0000
1001
,
0110
0000
1001
0000
,
0000
1000
0001
1000
,
0010
0100
0010
0100
,
0010
0001
0010
1000
,
0010
0000
1000
0000
0001
0100
0001
0000
,
1000
0001
1000
0010
,
0000
0100
0000
0001
,
1000
0001
1000
0000
,
0001
0010
0100
1000
,
0001
0000
0000
0001
,
0010
0001
1000
0100
,
1000
0100
0000
0000
,
1000
0001
1000
0001
,
2000
0000
0000
3000
,
1000
0010
1000
0001
,
0100
0001
0200
0000
,
0000
0000
0000
0000
,
0300
0000
0000
1001
,
0100
0100
0010
0010
,
0010
0001
1000
0010
,
1000
0010
1000
0000
,
0000
1000
0100
1000
,
0000
0000
0001
0001
,
1000
0000
0000
0001
,
1000
0001
0100
0001
,
1000
0010
1000
0000
,
1001
0010
0010
1001
,
0100
0100
0100
0110
,
0001
0001
0001
0110
,
1000
1000
1000
1001
,
0010
0010
0010
1001
,
0100
0100
0100
1001
,
0010
0010
0010
1001
,
0100
0100
0110
0000
;

//--------------- dance-single - ----------------
#NOTEDATA:;
#STEPSTYPE:dance-single;
#DESCRIPTION:;
#DIFFICULTY:Medium;
#METER:8;
#RADARVALUES:0.320027,0.368602,0.068577,0.068577,0,294,285,9,9,0,0,0.320027,0.368602,0.068577,0.068577,0,294,285,9,9,0,0;
#NOTES:
0000
0000
0000
0000
,
0000
0000
0000
0000
,
0000
0000
0000
0000
,
0000
0000
0000
0000
,
0000
0000
0000
1001
,
0000
0000
0000
0000
0000
0000
1000
0100
,
0010
0000
0001
0100
0010
1000
0001
0000
,
1001
1000
1001
0001
,
0100
0000
0010
1000
0100
1000
0100
0000
,
1000
1001
0100
0101
,
1000
0010
1010
0000
,
1000
0000
0001
0000
0100
0001
1000
0010
,
1000
0000
0000
0010
0000
1000
0000
0001
0000
1000
0000
0000
1001
0000
0000
0000
,
0001
0010
0100
1000
,
0001
0001
1000
0000
,
1000
0002
0000
0000
0013
0001
0000
1001
,
0000
0000
0000
0000
0100
0000
0000
0000
0010
0000
0000
0000
0001
0000
0000
1000
,
0000
0001
2000
0000
3100
0000
1000
0000
,
1001
0001
1001
1000
,
0001
0000
0000
0000
0100
0000
0000
0000
0010
0000
0000
0000
0200
0000
0000
1000
,
0300
0000
0000
0000
0020
0000
0000
0130
0000
0000
0000
0000
1001
0000
0000
0000
,
0001
1000
0001
0000
0100
0010
0100
0000
,
1000
0100
1000
0000
0100
0000
0220
0000
,
0000
0000
0000
0000
,
0330
0000
1000
0001
1000
0001
0100
0000
,
0000
0000
0010
1000
0010
1000
0010
0100
,
0001
0000
0100
0001
0100
0000
0002
0000
,
2003
3020
0130
0010
,
0100
0000
0001
1000
0100
1000
0100
0000
,
0000
0000
1000
0001
0010
0001
0010
0000
,
0001
0000
0000
2000
,
3200
2300
3002
0013
,
0000
0000
1000
0001
1000
0001
1000
0000
,
0010
0110
0100
0110
,
0010
1000
1001
0000
,
0001
0100
0010
1000
,
0001
0000
0000
0100
0000
0010
0000
1000
0000
0001
0000
0000
1000
0000
0000
0000
,
0010
1000
0001
0100
,
0010
1000
0001
0000
,
1000
0100
2000
0000
0100
0000
0100
0000
,
3100
0001
1000
0002
,
0103
0000
0000
0000
0020
0000
0000
0000
1030
0000
0000
0000
0200
0000
0000
1000
,
0000
1300
0000
0000
1001
0000
0001
0000
,
0100
0000
0000
0000
0010
0000
0000
0000
1000
0000
0000
0000
0002
0000
0000
0100
,
0003
0000
0000
0000
2000
0000
0000
3100
0000
0000
0000
0000
0110
0000
0000
0000
,
1000
0010
1000
0000
0001
0010
0001
0000
,
1000
0001
1000
0000
0010
0100
0020
0000
,
0000
0000
0000
0030
,
0000
0000
0100
0010
0100
0000
0110
0000
,
0000
0000
0010
1000
0010
0000
1000
0000
,
0001
0000
0100
0001
0100
0000
0002
0000
,
2003
3020
0130
0010
,
0100
0000
0001
1000
0100
0000
1100
0000
,
0000
0000
1000
0001
0010
0000
0001
0000
,
1000
0000
0000
2000
,
3200
2300
3002
0013
,
0000
0000
1000
0000
0001
0000
1000
0100
,
0010
0001
1000
0000
1001
0000
0010
0100
,
0010
0100
0010
0000
0110
0000
1000
0001
,
1000
0001
1000
0000
1001
0000
0100
0010
,
0001
0010
0100
0000
0101
0000
0010
0100
,
1000
0100
0010
0000
1010
0000
1000
0100
,
0010
0100
1000
0000
1010
0000
0001
0010
,
0100
0010
0001
0000
0101
0000
1000
0000
,
0001
1000
1001
0000
;

//--------------- dance-single - ----------------
#NOTEDATA:;
#STEPSTYPE:dance-single;
#DESCRIPTION:;
#DIFFICULTY:Hard;
#METER:11;
#RADARVALUES:0.410375,0.56519,0.060957,0.121915,0.182872,377,369,8,16,0,0,0.410375,0.56519,0.060957,0.121915,0.182872,377,369,8,16,0,0;
#NOTES:
0000
0000
0000
0000
,
0000
0000
0000
0000
,
0000
0000
0000
0000
,
0000
0000
0000
0000
,
0000
0000
1000
0100
1000
0010
2002
0000
,
3003
0000
1000
0010
0100
1000
0100
0001
,
1000
0000
0001
0010
0001
0100
0020
0000
,
0230
0000
0320
0000
1030
1100
0000
0010
,
0110
0000
1000
0010
0001
0010
1000
0000
,
1010
0000
0100
0000
1000
1100
0000
1001
,
0000
0011
0000
0110
0100
0000
1000
0000
,
0010
0000
0100
0000
0001
0010
0001
1000
,
0002
0010
0000
0010
0000
0010
0000
0013
0000
0001
1000
0000
1010
0000
0000
0000
,
1000
0000
1100
0000
1000
0011
0000
0001
,
1000
1010
0000
0100
1100
0000
0001
1000
,
0001
0020
0000
0000
0031
0200
0000
0020
,
0000
0000
0330
0000
1000
0100
0000
0100
0001
0000
0010
0000
0002
0000
0000
0100
,
0000
0000
0103
0000
0010
0000
0000
0000
0011
0000
0000
0000
0100
0000
0000
0001
,
0000
0100
0000
0001
0000
0000
0000
0000
0010
0000
0000
0000
0001
0000
0100
0000
,
1000
0100
0001
0000
0100
1010
1000
0200
,
0000
0310
0000
0000
0002
0000
0000
0010
0000
0000
0103
0000
0110
0000
0000
0000
,
0010
0100
1000
0000
0001
0100
0010
0000
,
1000
0001
0100
0000
0001
1000
0002
0000
,
1000
0000
1000
0000
1000
2000
0000
0000
,
3003
0000
0100
0001
0100
1000
1001
0000
,
0010
0000
1000
0010
0100
1000
0100
0001
,
0001
0000
0100
0010
0100
0010
0200
0000
,
0302
0000
2003
0000
3100
1000
0001
1000
,
1100
0000
0010
0001
0010
1000
1001
0000
,
0001
0200
0000
0301
0100
0010
0001
0010
,
2000
0000
3001
0010
0001
0100
0020
0000
,
1030
0200
0000
1300
0010
2000
0000
0000
,
0000
0000
3100
0010
0001
1000
1001
0000
,
0010
0000
1000
0000
0100
2200
0000
3300
,
0001
0202
0000
0303
0001
0000
1000
0000
,
0010
0000
1000
0100
0001
0100
1000
0010
,
2000
0100
0000
0100
0000
0100
0000
0100
0000
3100
0010
0000
0001
0000
0000
0000
,
1000
0000
0010
0000
1000
1100
0000
0001
,
0100
0110
0000
1000
0011
0000
0010
0001
,
0100
0020
0000
0130
0010
1000
0100
1000
,
0002
0000
0000
0000
1003
0010
0000
0010
0001
0000
0100
0000
0010
0000
0000
1000
,
0000
0000
0020
0000
0100
0000
0000
0000
0130
0000
0000
0000
1000
0000
0000
0001
,
0000
0100
0000
0001
0010
0000
0001
0100
,
1000
0100
0001
0000
0010
0021
0000
0032
,
0000
0100
0000
0000
0203
0000
0000
0010
0000
0000
0310
0000
0000
0000
0000
0000
,
2000
0000
3200
0000
1300
0001
1000
0000
,
0010
0100
0010
0000
1000
0000
2001
0000
,
0001
0000
0001
0000
0001
0002
0000
0000
,
3003
0000
0100
1000
0100
0001
1001
0000
,
0010
0000
0001
0100
0010
0001
0010
1000
,
1000
0000
0010
0100
1000
0100
0002
0000
,
2003
0000
3100
0000
0010
0001
0010
0001
,
0100
0000
0001
0010
1000
0010
0110
0000
,
0100
0020
0000
1030
0100
0010
0100
1000
,
2000
0000
0000
0000
3100
0010
0002
0000
,
0103
0010
0000
0000
0100
0220
0000
0000
,
0330
0000
0000
0000
1000
0100
0000
0100
0001
0000
1000
0000
0100
0000
0001
0000
,
0010
0000
1000
0010
0000
0010
0001
0000
1000
0000
0001
0000
0100
0000
1000
0000
,
0100
0000
0001
0010
0000
0010
1000
0000
0100
0000
0010
0000
0100
0000
1000
0000
,
0001
0000
1000
0100
0000
0100
0001
0000
1000
0000
0001
0000
0100
0000
1000
0000
,
0010
0000
0001
0100
0000
0100
1000
0000
0100
0000
1000
0000
0100
0000
0001
0000
,
0010
0000
1000
0010
0000
0010
0001
0000
1000
0000
0010
0000
0001
0000
0100
0000
,
1000
0000
0001
0100
0000
0100
1000
0000
0010
0000
0100
0000
1000
0000
0100
0000
,
0001
0000
1000
0100
0000
0100
0001
0000
1000
0000
0100
0000
0001
0000
0100
0000
,
1000
0000
0001
0010
0000
0010
1000
0000
2002
0000
0000
0000
0000
0000
0000
0000
,
3003
0000
0000
0000
;
