#VERSION:0.83;
#TITLE:Love Is In Danger;
#SUBTITLE:;
#ARTIST:Priscilla;
#TITLETRANSLIT:;
#SUBTITLETRANSLIT:;
#ARTISTTRANSLIT:;
#GENRE:;
#ORIGIN:;
#CREDIT:;
#BANNER:Love_banner.png;
#BACKGROUND:Love_background.jpg;
#PREVIEWVID:;
#JACKET:Love_jacket.jpg;
#CDIMAGE:;
#DISCIMAGE:;
#LYRICSPATH:;
#CDTITLE:;
#MUSIC:Love is in danger.ogg;
#OFFSET:-0.008000;
#SAMPLESTART:49.599998;
#SAMPLELENGTH:12.000000;
#SELECTABLE:YES;
#BPMS:0.000=154.424;
#STOPS:;
#DELAYS:;
#WARPS:;
#TIMESIGNATURES:0.000=4=4;
#TICKCOUNTS:0.000=4;
#COMBOS:0.000=1;
#SPEEDS:0.000=1.000=0.000=0;
#SCROLLS:0.000=1.000;
#FAKES:;
#LABELS:0.000=Song Start;
#BGCHANGES:;
#KEYSOUNDS:;
#ATTACKS:
;

//---------------dance-single - ----------------
#NOTEDATA:;
#CHARTNAME:;
#STEPSTYPE:dance-single;
#DESCRIPTION:;
#CHARTSTYLE:;
#DIFFICULTY:Hard;
#METER:7;
#RADARVALUES:0.446515,0.516593,0.057882,0.212232,0.000000,324.000000,318.000000,6.000000,22.000000,0.000000,0.000000,0.000000,0.000000,0.000000,0.446515,0.516593,0.057882,0.212232,0.000000,324.000000,318.000000,6.000000,22.000000,0.000000,0.000000,0.000000,0.000000,0.000000;
#CREDIT:;
#NOTES:
0000
0000
0000
0000
,
0000
0000
0000
0000
,
0000
0000
0000
0000
,
0000
0000
0000
0000
,
0100
1000
0001
0000
1000
0000
0100
0000
,
1000
0001
0100
0000
0001
0000
0010
0000
,
0001
0100
0001
0000
1000
0000
0010
0000
,
2000
0000
0000
3000
,
0001
1000
0010
0000
0100
0001
0100
0000
,
0001
0010
0001
0000
1000
0100
1000
0000
,
0001
1000
0010
0000
0100
0010
0100
0000
,
0001
1000
0100
0000
1000
0001
0010
0001
,
1000
0001
1000
0000
0001
0010
0100
0000
,
1000
0100
0010
0000
0001
1000
0100
0000
,
0010
0001
0010
0000
0001
1000
0001
2000
,
0000
0000
0000
3000
,
0000
0010
1000
0001
1000
0001
0000
0100
,
0001
1000
0010
0100
0010
1000
0000
0010
,
0100
0000
0001
0100
0000
0010
0100
0010
,
0100
0010
0000
0101
0000
1100
0000
1001
,
0000
0000
1000
0100
0010
0001
0000
1000
,
0000
0001
0100
1000
0100
0001
0000
1000
,
0000
0010
0100
0010
0000
1000
0001
0010
,
0000
0001
0100
0010
1000
0001
1000
0001
,
0020
0001
0100
0031
,
0200
0001
1000
0301
,
2000
0001
0010
3001
,
1000
0002
0200
0303
,
0010
1000
0010
0100
0001
0100
0001
0000
,
0010
0001
0100
0001
1000
0100
0010
0000
,
0001
1000
0100
1000
0001
1000
0000
0002
,
0000
0000
1000
1003
,
0010
0000
1000
0002
0000
0100
0000
1000
,
0000
0103
0000
1001
0000
0000
0000
0000
,
1000
0000
0001
0200
0000
0001
0000
0010
,
0000
0301
0000
0110
0000
0000
0000
1000
,
0010
0100
0010
1000
0001
0010
0001
0010
,
0001
1000
0010
1000
0100
1000
0001
0100
,
0001
0000
1000
0010
0000
0100
0001
0000
,
2000
3002
2003
3010
,
0100
0001
0100
0010
1000
0010
0100
0001
,
1000
0001
1000
0200
0000
0000
0300
0000
,
1000
0010
1000
0001
0100
0001
1000
0100
,
1000
0001
0010
0002
0000
0000
0003
0000
,
1000
0010
1000
0100
1000
0001
1000
0010
,
0100
0000
0001
0000
1000
0100
1000
0001
,
0010
0001
0000
0000
0000
0000
2000
0000
,
3020
0230
0302
1003
,
0001
0100
0001
0000
0100
0100
0001
0000
,
1000
0010
0100
0000
0001
0001
1000
0000
,
0100
1000
0100
0000
1000
1000
0010
0000
,
0100
0001
0100
0001
1000
0010
1000
0100
,
1000
0001
1000
0000
0001
0010
0100
0000
,
1000
0001
0100
0000
0001
0100
0010
0000
,
1000
0100
1000
0000
0001
0010
0001
1000
,
0002
0000
0000
0003
,
1000
0100
1000
0000
0100
0000
1000
0000
,
0100
1000
0100
0000
0010
0000
0001
0000
,
0020
1030
0200
1300
,
0001
0100
0001
1000
0100
1000
0001
1000
,
0001
0100
0001
0000
1000
0100
0010
0000
,
0001
0010
0100
0000
1000
0001
1000
0000
,
0010
0100
0010
0000
0001
1000
0001
0000
,
1001
0000
0000
0000
;

//---------------dance-single - ----------------
#NOTEDATA:;
#CHARTNAME:;
#STEPSTYPE:dance-single;
#DESCRIPTION:;
#CHARTSTYLE:;
#DIFFICULTY:Challenge;
#METER:9;
#RADARVALUES:0.606378,0.647007,0.019294,0.231526,0.327995,440.000000,438.000000,2.000000,24.000000,0.000000,0.000000,0.000000,0.000000,0.000000,0.606378,0.647007,0.019294,0.231526,0.327995,440.000000,438.000000,2.000000,24.000000,0.000000,0.000000,0.000000,0.000000,0.000000;
#CREDIT:;
#NOTES:
// measure 0
0000
0000
0000
0000
,  // measure 1
0000
0000
0000
0000
,  // measure 2
0000
0000
0000
0000
,  // measure 3
2002
0000
0000
3003
,  // measure 4
0001
0000
1000
0000
0001
0000
1000
0001
0000
0000
1000
0000
0100
0000
1000
0000
,  // measure 5
0001
0000
0010
0000
0001
0000
0010
0001
0000
0000
1000
0000
0010
0000
1000
0000
,  // measure 6
0100
0000
1000
0000
0001
0000
0100
0001
0000
0000
1000
0000
0001
0000
2000
0000
,  // measure 7
0000
0000
0000
3000
,  // measure 8
0001
0000
0010
0000
0001
0000
0010
0001
0000
0001
0010
0000
0001
0000
1000
0000
,  // measure 9
0001
0000
1000
0000
0100
0000
1000
0100
0000
0100
1000
0000
0001
0000
1000
0000
,  // measure 10
0001
0000
0100
0000
0010
0000
0100
0010
0000
0010
0100
0000
0001
0000
0100
0000
,  // measure 11
0010
0000
1000
0000
0001
0000
1000
0000
0001
1000
0001
0000
0100
0010
0100
0000
,  // measure 12
0001
0000
1000
0000
0010
0000
0100
0001
0000
0001
0100
0000
0001
0000
1000
0000
,  // measure 13
0001
0000
0100
0000
0001
0000
1000
0010
0000
0010
1000
0000
0100
0000
1000
0000
,  // measure 14
0010
0000
0100
0000
0001
0000
0010
0100
0000
0100
0010
0000
0001
0000
2000
0000
,  // measure 15
0000
0000
0000
3000
,  // measure 16
0000
0000
1000
0001
1000
0100
1000
0010
,  // measure 17
1000
0001
0100
0001
0010
0001
1000
0001
,  // measure 18
0100
0010
1000
0001
0100
0001
1000
0010
,  // measure 19
1000
0001
0010
0100
0010
0001
1000
0001
,  // measure 20
1000
0000
0000
0000
0010
0100
0010
0000
0001
0000
1000
0000
0000
0000
0001
0000
,  // measure 21
0100
1000
0100
0001
1000
0010
0001
0010
,  // measure 22
1000
0000
0010
0000
0001
0000
0000
0000
0000
0000
1000
0001
1000
0000
0010
0000
,  // measure 23
0100
0000
0010
0100
0010
0000
1000
0000
0001
0000
1000
0000
0100
0000
1000
0000
,  // measure 24
0200
1300
0020
0130
,  // measure 25
0002
0103
0002
1003
,  // measure 26
0020
1030
0200
1300
,  // measure 27
0002
0103
0020
0130
,  // measure 28
0001
0000
1000
0000
0100
0000
1000
0000
0001
0010
0001
0000
1000
0001
1000
0000
,  // measure 29
0001
0000
0100
0000
0010
0000
1000
0000
0010
1000
0010
0000
0100
0001
0100
0000
,  // measure 30
0001
1000
0010
0100
0001
1000
0001
1000
,  // measure 31
0001
0000
0000
1000
0000
0000
0010
0100
0020
0000
0000
0000
0030
0000
0000
0000
,  // measure 32
0001
0000
0010
0001
0010
0000
0001
0000
0100
0000
1000
0000
0100
0000
0001
0000
,  // measure 33
0100
1000
0100
0002
0000
0000
0000
0003
,  // measure 34
1000
0000
0010
0100
0010
0000
1000
0000
0100
0000
0001
0000
0100
0000
1000
0000
,  // measure 35
0100
0001
0100
2000
0000
3000
0000
0001
,  // measure 36
0010
0001
0010
0000
0001
0000
1000
0100
1000
0000
0001
0000
0100
0001
0100
0000
,  // measure 37
0001
0000
1000
0001
1000
0000
0010
0000
0100
0000
0001
0000
1000
0000
0001
0000
,  // measure 38
2000
0000
0000
0000
0000
0000
0000
0000
3000
0000
0000
0000
0001
0010
0000
0000
,  // measure 39
0100
1000
0000
0000
0001
1000
0000
0000
0100
0020
0000
0000
0030
0000
0000
0000
,  // measure 40
1000
0000
0001
0100
0001
0000
1000
0000
0100
0000
0001
0000
1000
0000
0010
0000
,  // measure 41
0001
1000
0100
0002
0000
0000
0103
0000
,  // measure 42
1000
0000
0001
0010
0001
0000
1000
0000
0100
0000
0001
0000
1000
0000
0010
0000
,  // measure 43
0001
1000
0100
0002
0000
0000
0103
0000
,  // measure 44
1000
0000
0001
1000
0001
0000
1000
0000
0100
1000
0100
0000
1000
0000
0001
0010
,  // measure 45
0001
0000
0100
0000
0010
0100
0010
0000
1000
0000
0001
0000
1000
0000
0001
0000
,  // measure 46
2000
0000
0000
0000
0000
0000
0000
0000
3000
0000
0000
0000
0001
0010
0000
0000
,  // measure 47
0100
1000
0000
0000
1000
0100
0000
0000
1000
0002
0000
0000
0003
0000
0000
0000
,  // measure 48
1000
0000
0001
0000
1000
0000
0100
1000
0000
1000
0100
0000
1000
0000
0100
0000
,  // measure 49
1000
0000
0001
0000
0010
0000
0001
0010
0000
0010
0001
0000
0010
0000
0001
0000
,  // measure 50
1000
0000
0001
0000
1000
0000
0001
1000
0000
1000
0001
0000
1000
0000
0001
0000
,  // measure 51
0010
0000
0001
0000
0100
0000
0001
0000
1000
0001
1000
0000
0010
0100
0010
0000
,  // measure 52
1000
0000
0010
0000
1000
0000
0010
1000
0000
1000
0010
0000
1000
0000
0001
0000
,  // measure 53
0100
0000
0001
0000
0100
0000
0001
0100
0000
0100
0001
0000
1000
0000
0001
0000
,  // measure 54
0100
0000
0010
0000
0100
0000
0010
0100
0000
0100
0010
0000
1000
0000
0002
0000
,  // measure 55
0000
0000
0000
0003
1000
0100
1000
0001
,  // measure 56
1000
0000
0001
0000
0100
0000
0001
0000
0100
0001
0000
0000
0100
0000
0001
0000
,  // measure 57
1000
0000
0010
0000
1000
0000
0010
0000
1000
0010
0000
0000
1000
0000
0001
0000
,  // measure 58
0100
0000
0010
0000
0100
0000
0010
0000
0100
0010
0000
0000
0100
0000
0001
0000
,  // measure 59
1000
0000
0001
0000
1000
0000
0001
0000
0000
0000
1000
0001
1000
0000
0100
0010
,  // measure 60
0100
0000
1000
0000
0010
0000
1000
0000
0001
1000
0000
0000
0100
0000
1000
0000
,  // measure 61
0001
0000
0100
0000
0001
0000
1000
0000
0100
1000
0000
0000
0100
0000
1000
0000
,  // measure 62
0001
0000
0100
0000
0010
0000
1000
0000
0001
0100
0000
0000
0001
0000
1000
0000
,  // measure 63
0000
2002
0000
0000
0000
0000
0000
3003
;

//---------------dance-single - ----------------
#NOTEDATA:;
#CHARTNAME:;
#STEPSTYPE:dance-single;
#DESCRIPTION:;
#CHARTSTYLE:;
#DIFFICULTY:Medium;
#METER:5;
#RADARVALUES:0.345911,0.425429,0.096469,0.270114,0.000000,251.000000,241.000000,10.000000,28.000000,0.000000,0.000000,0.000000,0.000000,0.000000,0.345911,0.425429,0.096469,0.270114,0.000000,251.000000,241.000000,10.000000,28.000000,0.000000,0.000000,0.000000,0.000000,0.000000;
#CREDIT:;
#NOTES:
0000
0000
0000
0000
,
0000
0000
0000
0000
,
0000
0000
0000
0000
,
0000
0000
0000
0000
,
1000
1001
0001
1001
,
0010
0110
0100
0110
,
0001
0101
1000
1001
,
0000
0000
0000
0000
,
1000
0001
1000
0000
,
0010
0100
0010
0000
,
0001
0100
0001
0000
,
1000
0000
0010
0000
1000
0001
0100
0001
,
1000
0001
1000
0000
0001
0000
1000
0000
,
0001
0100
0001
1000
,
0010
0100
1000
0001
,
2002
0000
3003
0000
,
0001
0100
1000
0000
0010
0000
0010
0000
,
1000
0100
0001
0000
0100
0000
0100
0000
,
0001
0100
0001
0100
,
0010
0010
1000
0100
,
0010
0000
0001
0010
0100
0000
1000
0000
,
1000
0001
0001
1001
,
0000
0000
1000
0000
0000
0100
0010
0100
,
0000
0010
0100
0010
1000
0001
0010
0100
,
1000
0001
1000
0100
,
1000
0010
1000
0001
,
0100
0001
1000
0010
,
0100
0001
0100
0010
,
2000
0100
0001
3100
,
0020
0001
0100
0031
,
1000
0001
1000
0001
1000
0010
0000
0100
,
0010
0000
0000
0000
,
2000
3020
0230
0302
,
2003
3020
0000
0030
,
0200
0302
2003
3020
,
0230
0302
0003
0000
,
1000
0001
1000
0000
0010
0001
0010
0000
,
0100
1000
0100
0000
1000
0000
0010
0000
,
0010
1000
0100
0010
,
0001
0100
0010
1000
,
0200
0320
0032
2003
,
3002
0203
0300
0000
,
0002
0023
0032
2003
,
3002
0000
2003
0000
3001
0000
0000
0010
,
0100
1000
0001
0010
0100
0000
1000
0001
,
1000
0100
0010
0001
,
0010
0001
1000
0100
,
0010
0100
1000
0001
,
0010
0001
0100
0010
,
1000
0001
0100
0001
,
0100
0010
1000
0001
,
0100
0001
1000
0100
,
1000
0100
0010
0001
,
1000
0010
0100
0001
,
1000
0001
1000
1001
,
1001
0000
0000
0000
,
0100
0001
1000
0010
,
1000
0010
1000
0001
,
0100
0001
1000
0001
,
1000
0000
0100
0000
1000
0000
0001
0100
,
0000
0001
0010
0001
0000
1000
0100
1000
,
0000
0010
0100
0010
0000
0001
0010
0001
,
0000
1000
0001
1000
0001
1000
0010
0100
,
0010
0000
0000
0000
;

//---------------dance-single - ----------------
#NOTEDATA:;
#CHARTNAME:;
#STEPSTYPE:dance-single;
#DESCRIPTION:;
#CHARTSTYLE:;
#DIFFICULTY:Beginner;
#METER:1;
#RADARVALUES:0.092335,0.151939,0.000000,0.000000,0.000000,67.000000,67.000000,0.000000,0.000000,0.000000,0.000000,0.000000,0.000000,0.000000,0.092335,0.151939,0.000000,0.000000,0.000000,67.000000,67.000000,0.000000,0.000000,0.000000,0.000000,0.000000,0.000000,0.000000;
#CREDIT:;
#NOTES:
0000
0000
0000
0000
,
0000
0000
0000
0000
,
0000
0000
0000
0000
,
0000
0000
0000
0000
,
1000
0000
0000
0000
,
0001
0000
0000
0000
,
0100
0000
0000
0000
,
0010
0000
0000
0000
,
1000
0000
0000
0000
,
0001
0000
0000
0000
,
1000
0000
0000
0000
,
0001
0000
0000
0000
,
0010
0000
0000
0000
,
1000
0000
0000
0000
,
0010
0000
0000
0000
,
1000
0000
0000
0000
,
0001
0000
0000
0000
,
0000
0000
0000
0000
0000
0000
0000
0100
,
0000
0000
0000
1000
,
0000
0000
0000
0000
0000
0000
0000
0100
,
0000
0000
0000
0000
0000
0000
0000
0001
,
0000
0000
0000
0000
0000
0000
0000
1000
,
0000
0000
0000
0001
,
0000
1000
0000
0001
,
0000
1000
0000
0010
,
0000
0100
0000
0001
,
0000
1000
0000
0001
,
0000
0100
0000
0010
,
0000
1000
0000
0000
,
0001
0000
0000
0000
,
1000
0000
0000
0000
,
0010
0000
0000
0000
,
0100
0000
0000
0000
,
0100
0000
0000
0000
,
0010
0000
0000
0000
,
0010
0000
0000
0000
,
1000
0000
0000
0000
,
0001
0000
0000
0000
,
0100
0000
0000
0000
,
0010
0000
1000
0000
,
0001
0000
0000
0000
,
0000
0000
0000
0000
,
1000
0000
0000
0000
,
0000
0000
0000
0000
,
0001
0000
0000
0000
,
0100
0000
1000
0000
,
0001
0000
0100
0000
,
1000
0000
0001
0000
,
1000
0000
0000
0000
,
0010
0000
0000
0000
,
0100
0000
0000
0000
,
0001
0000
0000
0000
,
0100
0000
0000
0000
,
0001
0000
0000
0000
,
0010
0000
0000
0000
,
0001
0000
0000
0000
,
1000
0000
0000
0000
,
0100
0000
0000
0000
,
1000
0000
0000
0000
,
0001
0000
0000
0000
,
1000
0000
0000
0000
,
1000
0000
0000
0000
,
0001
0000
0000
0000
,
1000
0000
0000
0000
;

//---------------dance-single - ----------------
#NOTEDATA:;
#CHARTNAME:;
#STEPSTYPE:dance-single;
#DESCRIPTION:;
#CHARTSTYLE:;
#DIFFICULTY:Easy;
#METER:3;
#RADARVALUES:0.186048,0.243102,0.019294,0.057882,0.000000,135.000000,133.000000,2.000000,6.000000,0.000000,0.000000,0.000000,0.000000,0.000000,0.186048,0.243102,0.019294,0.057882,0.000000,135.000000,133.000000,2.000000,6.000000,0.000000,0.000000,0.000000,0.000000,0.000000;
#CREDIT:;
#NOTES:
0000
0000
0000
0000
,
0000
0000
0000
0000
,
0000
0000
0000
0000
,
0000
0000
0000
0000
,
1000
0000
0000
0000
,
0001
0000
0000
0000
,
0100
0000
0000
0000
,
0001
0000
0000
0000
,
1000
0000
0001
0000
,
1000
0000
0100
0000
,
1000
0000
0010
0000
,
0100
0000
0001
0000
,
0010
0000
0100
0000
,
1000
0000
0010
0000
,
0100
0000
0010
0000
,
0100
0000
0000
0000
,
0010
1000
0100
0000
,
0001
0000
0100
0000
,
1000
0001
0010
0000
,
1000
0000
0001
0000
,
0010
1000
0100
0000
,
0001
0000
1000
0000
,
0001
0000
0010
0100
,
0010
0000
0100
0010
,
0100
0000
1000
0000
,
0001
0000
0100
0001
,
0010
0000
1000
0000
,
0001
1000
0100
0000
,
0020
0000
0030
0000
,
0002
0000
0003
0000
,
2000
0000
3001
0000
,
2002
0000
3003
0000
,
0100
0000
1000
0000
,
0001
1000
0100
0000
,
0001
0000
1000
0000
,
0001
1000
0100
0000
,
0001
0000
1000
0000
,
0100
0001
1000
0000
,
0020
0000
0130
0000
,
0001
0010
0100
1000
,
0000
0000
0001
0000
,
1000
0000
0010
0000
,
0100
0001
0010
0000
,
0001
1000
0100
0000
,
0001
0100
1000
0000
,
0100
0001
1000
0000
,
1001
0000
0000
0001
,
0010
0100
1000
0000
,
0001
0000
1000
0000
,
0100
0001
1000
0000
,
0001
1000
0100
0000
,
0010
1000
0001
0000
,
1000
0001
0100
0000
,
0010
0001
1000
0000
,
0001
1000
0010
0000
,
0100
0000
0010
0000
,
1000
0000
0001
0000
,
0100
0000
1000
0000
,
0010
0000
0100
0000
,
0001
0000
0100
0000
,
1000
0000
0100
0000
,
1000
0000
0010
0000
,
0001
0000
0100
0000
,
0010
0000
0000
0000
;
