#VERSION:0.83;
#TITLE:ALL MY HEART -この恋に、わたしの全てを賭ける- ;
#SUBTITLE:;
#ARTIST:SUPER HEROINE 彩香 -AYAKA- ;
#TITLETRANSLIT:ALL MY HEART -kono koi ni, watashi no subete wo kakeru-;
#SUBTITLETRANSLIT:;
#ARTISTTRANSLIT:;
#GENRE:;
#CREDIT:KONAMI ;
#MUSIC:ALL MY HEART -kono koi ni, watashi no subete wo kakeru-.ogg;
#BANNER:ALL MY HEART -kono koi ni, watashi no subete wo kakeru-.png;
#BACKGROUND:ALL MY HEART -kono koi ni, watashi no subete wo kakeru--bg.png;
#CDTITLE:;
#SAMPLESTART:61.507;
#SAMPLELENGTH:15.002;
#SELECTABLE:YES;
#OFFSET:-0.375;
#BPMS:0.000=159.982;
#STOPS:;
#BGCHANGES:;
#FGCHANGES:;

//--------------- dance-single - ----------------
#NOTEDATA:;
#STEPSTYPE:dance-single;
#DESCRIPTION:;
#DIFFICULTY:Beginner;
#METER:3;
#RADARVALUES:0,0,0,0,0;
#NOTES:
0000
0000
0000
0000
,
0000
0000
0000
0000
,
0000
0000
0000
0000
,
0000
0000
0000
0000
,
0000
0000
0000
0000
,
0000
0000
0000
0000
,
1000
0000
0000
0000
,
0010
0000
0000
0000
,
0100
0000
0000
0000
,
0001
0000
0000
0000
,
0001
0000
0001
0000
,
1000
0000
0000
0000
,
1000
0000
1000
0000
,
0001
0000
0000
0000
,
0010
0000
0001
0000
,
1000
0000
0000
0000
,
0010
0000
1000
0000
,
0001
0000
1000
0000
,
0010
0000
0100
0000
,
0001
0000
1000
0000
,
0010
0000
0100
0000
,
0001
0000
0010
0000
,
0100
0000
1000
0000
,
0001
0000
0100
0000
,
0010
0000
1000
0000
,
0001
0000
1000
0000
,
0010
0000
0100
0000
,
0001
0000
1000
0000
,
0010
0000
0100
0000
,
0001
0000
0010
0000
,
0100
0000
1000
0000
,
0001
0000
0100
0000
,
0010
0000
1000
0000
,
0001
0000
1000
0000
,
0010
0010
0000
0000
,
1000
0000
0001
0000
,
0100
0100
0000
0000
,
0001
0000
1000
0000
,
0010
0000
0100
0000
,
0020
0000
0000
0000
,
0030
0000
0000
0000
,
0001
0000
1000
0000
,
0001
1000
0001
0000
,
1000
0000
0001
0000
,
1000
0001
1000
0000
,
0010
0000
0100
0000
,
0010
0100
0010
0000
,
0100
0000
0010
0000
,
0100
0010
0100
0000
,
0001
0000
1000
0000
,
0001
1000
0001
0000
,
1000
0000
0001
0000
,
1000
0001
1000
0000
,
0010
0000
0100
0000
,
0010
0100
0010
0000
,
0100
0000
0010
0000
,
0100
0010
0100
0000
,
0001
0000
0000
0000
,
0001
0000
0001
0000
,
1000
0000
0000
0000
,
1000
0000
1000
0000
,
0001
0000
0000
0000
,
0010
0000
0001
0000
,
1000
0000
0000
0000
,
0010
0000
1000
0000
,
0010
0000
0000
0000
;

//--------------- dance-single - ----------------
#NOTEDATA:;
#STEPSTYPE:dance-single;
#DESCRIPTION:;
#DIFFICULTY:Easy;
#METER:5;
#RADARVALUES:0,0,0,0,0;
#NOTES:
0000
0000
0000
0000
,
0000
0000
0000
0000
,
0000
0000
0000
0000
,
0000
0000
0000
0000
,
0000
0000
0000
0000
,
0000
0000
0000
0000
,
0001
0100
0001
0000
,
1000
0000
0010
0000
,
1000
0100
1000
0000
,
0001
0000
1000
0000
,
0100
1000
0010
0000
,
1000
0000
0010
0000
,
0100
0001
0010
0000
,
1000
0000
0001
0000
,
0100
0001
0010
0000
,
0001
0100
1000
0100
,
0001
0100
1000
0000
,
0001
0100
0010
0000
,
1000
0100
0010
0000
,
0001
0010
0100
0000
,
1000
0010
0100
0100
,
0010
0000
0010
0000
,
0010
1000
0010
0000
,
0010
1000
0100
0000
,
0010
0001
0100
0000
,
1000
0100
0010
0000
,
0001
0100
0010
0000
,
1000
0010
0100
0000
,
0001
0010
0100
0100
,
0010
0000
0010
0000
,
0010
0001
0010
0000
,
0001
0001
1000
1000
,
1000
0001
0100
0000
,
0001
0000
0100
0000
,
0001
1000
0100
0000
,
1000
0000
0100
0000
,
0010
0001
1000
0001
,
1000
0001
0100
0000
,
0010
1000
0001
1000
,
1000
0000
0100
0000
,
0010
0001
1000
0000
,
0001
1001
0100
0000
,
1000
0010
0100
0001
,
0001
1000
0100
0000
,
1000
0010
0100
0001
,
1000
0000
0100
0000
,
1000
0010
0100
0001
,
1000
0000
0100
0000
,
0001
0000
0100
0000
,
1000
1001
0100
0000
,
0001
0010
0100
1000
,
1000
0001
0100
0000
,
0100
0010
0100
0010
,
1000
0000
0100
0000
,
0001
0100
1000
0100
,
0001
0000
0100
0000
,
1000
0000
0100
0000
,
0001
0000
0010
0000
,
0001
1000
0100
0000
,
1000
0000
0010
0000
,
1000
0100
1000
0000
,
0010
0000
0010
0000
,
0010
1000
0100
1000
,
1000
1000
0010
0010
,
0100
0001
0020
0000
,
0000
0000
0000
0000
,
0030
0000
0000
0000
;

//--------------- dance-single - ----------------
#NOTEDATA:;
#STEPSTYPE:dance-single;
#DESCRIPTION:;
#DIFFICULTY:Medium;
#METER:9;
#RADARVALUES:0,0,0,0,0;
#NOTES:
0000
0000
0000
0000
,
0000
0000
0000
0000
,
0000
0000
0000
0000
,
0000
0000
0000
0000
,
0000
0000
0000
0000
,
0000
0000
0000
0000
,
0010
0000
0100
0000
0001
1000
0100
0000
,
1000
0100
1000
0000
0001
0010
0001
0000
,
0010
0000
0100
0000
1000
0001
0100
0000
,
0001
0000
1100
0000
0010
0000
0001
0100
,
0010
0000
1000
0000
0001
0100
0001
0000
,
1000
0000
0100
0000
0010
0001
0010
0000
,
0010
0000
0001
0000
1000
0100
0010
0000
,
0001
0000
1100
0000
0100
1000
0001
0000
,
0010
0000
0001
0000
1000
0100
0010
0000
,
0010
0000
0100
0000
0010
0001
1000
0100
,
0010
0000
0001
0000
1000
0100
1000
0000
,
0001
0000
0000
1000
0100
0000
0000
0010
,
0001
0000
0000
0100
0010
1000
0100
0000
,
1000
0000
0000
0100
0010
0000
0000
0100
,
1000
0000
0000
0100
0010
0001
0100
0000
,
0011
1100
0010
0001
,
0010
0000
1000
0000
0001
0100
0010
0000
,
1000
0000
0100
0000
0010
0001
1000
0100
,
0010
0000
0001
0000
1000
0001
1000
0001
,
1000
0000
0000
0001
0100
0000
0000
0010
,
1000
0000
0000
0100
0010
0001
0100
0000
,
0001
0000
0000
0100
0010
0000
0000
0100
,
0001
0000
0000
0100
0010
1000
0100
0000
,
1010
0101
0010
1000
,
0010
0000
0001
0000
1000
0100
0010
0000
,
0001
1000
0001
0000
0001
1000
0001
0000
,
0010
1000
1100
0101
,
0001
1000
0010
0100
0001
0000
0000
1000
,
0001
0010
0100
1000
0000
0000
0000
1000
,
0001
1000
0010
0100
0001
0000
0001
0000
,
0011
0000
0000
0000
1100
0000
0001
0100
,
0001
0000
0100
0000
0010
0000
0100
0001
,
0000
1000
0000
0001
1000
0000
0001
0000
,
0010
0000
0100
0000
0010
0100
0010
0200
,
0000
0000
0000
1300
,
1000
0000
0101
0000
0000
0010
1000
0100
,
0000
0010
0000
0001
0000
0100
0010
1000
,
0001
0010
0100
1000
,
0010
0001
0100
1000
,
0010
0000
1000
0001
0000
0100
0000
0010
,
0100
0001
1000
0010
,
1000
0001
0100
0010
,
0100
0000
0000
0001
0000
1000
0010
0100
,
0001
0000
1100
0000
0000
0010
0001
0100
,
0000
0010
0000
1000
0000
0100
0010
0001
,
1000
0010
0100
0001
,
0010
1000
0100
0001
,
0010
0000
0000
0001
0000
0100
0000
0010
,
0100
0001
0001
0010
,
0001
1000
0100
0010
,
0220
0000
0000
0000
0330
0000
0010
0100
,
0001
0000
1000
0000
0010
0100
0001
0000
,
0011
0100
1000
0100
,
1000
0000
0001
0000
0010
0100
1000
0001
,
0010
0100
1000
0101
,
0001
0000
0001
0000
1000
0100
1000
0100
,
0010
0000
0100
0000
0010
0001
0100
0000
,
1100
0011
0010
1001
,
0110
1100
0011
0100
,
0020
0000
0000
0000
0000
0030
0000
0000
;

//--------------- dance-single - ----------------
#NOTEDATA:;
#STEPSTYPE:dance-single;
#DESCRIPTION:;
#DIFFICULTY:Hard;
#METER:13;
#RADARVALUES:0,0,0,0,0;
#NOTES:
0000
0000
0000
0000
,
0000
0000
0000
0000
,
0000
0000
0000
0000
,
0000
0000
0000
0000
,
0000
0000
0000
0000
0000
0000
0000
0000
0000
0000
0000
0000
1000
0100
0000
0010
,
0001
0000
0100
0010
0000
1000
0010
0000
1000
0000
0100
0000
0010
0000
0000
0010
,
0000
0000
0010
0000
0100
0000
0000
0100
0000
0000
0100
0000
1000
0010
0000
0100
,
0010
0000
0100
0010
0000
1000
0001
0000
1000
0000
0001
0000
1002
0000
0000
0000
,
0000
0000
1003
0000
0010
0000
1000
0000
0100
0010
0000
0000
0001
0100
0010
0000
,
1000
0000
0010
0000
1000
0000
0000
0010
0000
0000
0100
0000
0001
0010
0100
0000
,
1000
0000
0001
0000
0010
0000
0001
0100
0000
0010
1000
0000
0100
1000
0100
0000
,
1000
0000
0001
0000
0100
0000
0000
0010
0000
0000
0100
0000
0001
1000
0100
0000
,
1000
0000
0010
0000
1000
0000
0001
0010
0000
0010
0001
0000
0100
0010
0100
0000
,
0001
0000
1000
0000
0100
0000
0000
1000
0000
0000
0001
0000
0010
0100
1000
0000
,
0100
0000
1000
0000
0001
0000
1000
0100
0000
0100
0010
0000
0001
0100
0001
0000
,
1000
0000
0001
0000
1000
0000
0001
0000
1000
0000
0010
0000
0100
0001
0000
0010
,
0000
0010
0000
1000
0000
0001
0000
0100
0010
0000
1000
0000
0200
0000
0000
0000
,
0000
0310
0002
0000
0000
0103
0020
0000
,
0000
1030
0100
0001
0010
1000
0002
0000
,
0000
0103
0020
0000
0000
1030
0002
0000
,
0000
0000
0103
0000
1000
0000
0010
0000
0001
0000
1000
0000
0010
0000
0000
0001
,
0000
0000
0010
0000
1000
0000
0100
0000
0010
0100
0000
0200
0000
0000
0000
0000
,
0000
0000
0310
0001
0100
0010
2000
0000
,
0000
3001
0200
0000
0000
0301
0020
0000
,
0000
0000
0000
0032
,
0000
1003
0020
0000
0000
1030
0200
0000
,
0000
1300
0100
0001
0100
1000
0002
0000
,
0000
1003
0002
0000
0000
0103
0020
0000
,
0000
0000
0130
0000
0010
0000
0100
0000
0001
0000
1000
0000
0100
0000
0000
0001
,
0000
0000
0100
0000
1000
0000
0010
0000
0100
0010
0000
0020
0000
0000
0000
0000
,
0000
0000
0000
0000
1030
0000
0000
0001
0000
0000
1000
0000
0010
0000
0000
0000
,
0100
0010
0000
0010
0100
0002
0000
0000
,
0000
0000
0000
0000
0003
0010
0100
1000
,
0100
0000
1000
0000
0001
0100
0000
0100
0000
0000
1000
0000
0001
0000
0000
1000
,
0000
0000
2020
0000
0000
0000
3030
0000
0010
1000
0010
0000
1000
0000
0001
0000
,
0010
0000
0001
0000
1000
0100
0000
0010
0001
0000
0100
0000
0001
0000
0000
1000
,
0000
0100
0000
1000
0010
1000
0010
0000
,
1000
0000
0001
0100
1000
0200
0000
0301
,
0010
0001
0100
0000
0010
0000
1000
0001
,
0010
1000
0010
0001
1000
0001
0100
0100
,
0010
0000
0010
0000
1000
0001
1000
0001
0100
0010
0100
0010
0100
0000
0001
0000
,
0010
0000
0100
1000
0000
0001
0100
0000
0010
0000
2000
0000
0000
0000
3001
0000
,
0100
0000
0001
0010
0000
0001
0100
0000
0001
0000
1000
0000
0010
0000
0000
1000
,
0000
2200
0000
3300
0100
1000
0002
0000
,
0023
2030
3200
0302
,
0013
0210
0000
0000
0310
0001
0200
0000
,
2300
0000
0000
0000
3020
0000
0000
0000
0032
0000
0000
0000
1003
0000
0000
0010
,
0000
0200
0000
0000
0000
0000
0000
0000
,
0300
0000
0000
0000
0010
0000
0100
0000
0100
0010
0000
0000
0000
0000
0010
0000
,
1000
0000
0001
1000
0000
0100
1000
0000
0010
0000
0200
0000
0000
0000
0301
0000
,
0010
0000
0001
0100
0000
0010
1000
0000
0100
0000
1000
0000
0010
0000
0000
0100
,
0000
0002
0000
0000
1003
0100
0010
0000
,
0011
0000
1000
0010
0100
0000
0020
0000
,
0000
0000
0130
0000
0010
0000
1000
0001
0000
1000
0001
0000
0020
0000
0000
0000
,
0130
0000
1000
0000
0001
0000
0100
0010
0000
0100
0010
0000
2000
0000
0000
0000
,
3200
0302
0023
2030
,
0000
0000
0000
0000
0000
0000
0000
0000
3000
0000
0000
0000
0001
0100
0000
0001
,
1000
0000
0010
1000
0000
0001
0100
0000
0001
0000
0010
0000
0100
0000
0000
0100
,
0000
0000
0100
0000
0010
0000
0000
0010
0000
0000
0010
0000
0001
1000
0000
0010
,
1000
0000
0010
0100
0000
0010
1000
0000
0001
0000
0100
0000
0001
0000
0000
0001
,
0000
0000
0001
0000
1000
0000
0000
1000
0000
0000
1000
0000
0100
0010
0000
0010
,
0100
0000
1000
0001
0000
0001
0100
0000
0010
0000
0100
0000
0010
0000
0000
0010
,
0000
0000
0010
0000
0100
0000
0000
0100
0000
0000
0100
0000
0001
0010
0001
0000
,
0010
0000
0100
0000
0010
0000
0100
0000
0010
0000
1000
0000
0001
1000
0000
0100
,
0000
0100
0000
0001
0000
1000
0000
0100
0010
0000
0001
0000
0220
0000
0000
0000
,
0000
0330
0000
0000
;

//--------------- dance-double - ----------------
#NOTEDATA:;
#STEPSTYPE:dance-double;
#DESCRIPTION:;
#DIFFICULTY:Easy;
#METER:5;
#RADARVALUES:0,0,0,0,0;
#NOTES:
00000000
00000000
00000000
00000000
,
00000000
00000000
00000000
00000000
,
00000000
00000000
00000000
00000000
,
00000000
00000000
00000000
00000000
,
00000000
00000000
00000000
00000000
,
00000000
00000000
00000000
00000000
,
00000001
00000100
00001000
00000000
,
00010000
00000000
00100000
00000000
,
10000000
01000000
00010000
00000000
,
00001000
00000000
00000100
00000000
,
00000001
00000010
00001000
00000010
,
00000001
00000000
00000100
00000000
,
00001000
00010000
00001000
00010000
,
00001000
00010000
00100000
10000000
,
00100000
00010000
00100000
10000000
,
10000000
01000000
00100000
00001000
,
00010000
00001000
00010000
00000000
,
00001000
00000010
00000001
00000000
,
00000001
00000100
00001000
00001000
,
00010000
00100000
10000000
00000000
,
10000000
01000000
00010000
00000000
,
00001000
00000000
00000100
00000000
,
00000001
00000010
00001000
00000000
,
00010000
01000000
10000000
00000000
,
10000000
01000000
00010000
00000000
,
00001000
00000010
00000001
00000000
,
00000100
00001000
00010000
00001000
,
00010000
00100000
10000000
00000000
,
01000000
00010000
00001000
00010000
,
00001000
00000010
00000001
00000000
,
00000100
00001000
00010000
00001000
,
00010000
00000000
00001000
00000000
,
00001000
00010000
00001000
00000000
,
00001000
00000000
00000100
00000000
,
00000010
00000100
00001000
00000000
,
00010000
00000000
01000000
00000000
,
00100000
01000000
00010000
00000000
,
00001000
00001000
00000100
00000100
,
00000010
00000100
00001000
00000000
,
00010000
00000000
01000000
00000000
,
00100000
01000000
00100000
00000000
,
00001000
00010000
00001000
00010000
,
00000100
00000100
00001000
00000000
,
00010000
00100000
00010000
00010000
,
10000000
01000000
00010000
00000000
,
00001000
00000100
00000001
00000000
,
00001000
00000000
00000010
00000000
,
00000100
00000100
00001000
00001000
,
00010000
00010000
00010000
00000000
,
00001000
00000010
00000001
00001000
,
00000001
00000100
00001000
00000000
,
00010000
00100000
10000000
00010000
,
10000000
00000000
01000000
00000000
,
00010000
00001000
00000100
00000000
,
00000001
00000001
00000010
00001000
,
00010000
01000000
10000000
00010000
,
10000000
00100000
00010000
00000000
,
00001000
00010000
00001000
00010000
,
00001000
00010000
00001000
00000000
,
00010000
00010000
01000000
01000000
,
10000000
01000000
00010000
00000000
,
00001000
00000000
00000100
00000000
,
00000001
00000001
00000010
00000010
,
00001000
00001000
00010000
00010000
,
00100000
01000000
00001000
00010000
,
00002000
00000000
00000000
00000000
,
00003000
00000000
00000000
00000000
;

//--------------- dance-double - ----------------
#NOTEDATA:;
#STEPSTYPE:dance-double;
#DESCRIPTION:;
#DIFFICULTY:Medium;
#METER:9;
#RADARVALUES:0,0,0,0,0;
#NOTES:
00000000
00000000
00000000
00000000
,
00000000
00000000
00000000
00000000
,
00000000
00000000
00000000
00000000
,
00000000
00000000
00000000
00000000
,
00000000
00000000
00000000
00000000
,
00000000
00000000
00000000
00000000
,
00000010
00000000
00000100
00000001
00000100
00000000
00001000
00000000
,
00010000
00100000
10000000
00010000
,
00100000
00000000
01000000
10000000
01000000
00000000
00010000
00000000
,
00001000
00000000
00000110
00000000
00000001
00000100
00000001
00000000
,
00000010
00000001
00000100
00001000
,
00010000
00000000
01100000
00000000
10000000
01000000
10000000
00000000
,
00100000
10000000
01000000
00010000
,
00001000
00000000
00001100
00000000
00000001
00000100
00000001
00000000
,
00000010
00000001
00000100
00001000
,
00010000
00001000
00010000
00000000
00100000
01000000
00100000
00000000
,
01100000
11000000
01100000
00110000
,
00001000
00000000
00000000
00000010
00000001
00000000
00000000
00001000
,
00000100
00000000
00000000
00001000
00000001
00000100
00001000
00000000
,
00010000
00000000
00000000
00100000
10000000
00000000
00000000
00010000
,
01000000
00000000
00000000
00010000
10000000
01000000
00010000
00000000
,
00001000
00000000
00000010
00000000
00000001
00001000
00000010
00000100
,
00000001
00000000
00000100
00000000
00000010
00000100
00001000
00000000
,
00010000
00000000
00001000
00000000
00100000
00010000
00100000
00010000
,
00100000
00000000
00001000
00000000
00010000
00000100
00010000
00000000
,
00010000
00000000
00000000
00100000
10000000
00000000
00000000
00010000
,
01000000
00000000
00000000
00010000
10000000
01000000
00010000
00000000
,
00001000
00000000
00000000
00000010
00000001
00000000
00000000
00001000
,
00000100
00000000
00000000
00001000
00000001
00000100
00001000
00000000
,
00010000
00000000
00100000
00000000
10000000
00010000
00100000
01000000
,
10000000
00000000
01000000
00000000
00100000
01000000
00010000
00000000
,
00001000
00000000
00000000
00001000
00010000
00001000
00000010
00000100
,
00000001
00000000
00000000
00000000
,
00001000
00010000
00001000
00000100
00000001
00000000
00000000
00000001
,
00000010
00000001
00000100
00001000
00000000
00000000
00000000
00000000
,
00010000
00001000
00010000
01000000
10000000
00000000
00000000
10000000
,
00100000
10000000
01000000
00010000
00000000
00000000
00010000
00010000
,
00001000
00000000
00000010
00000000
00000001
00000100
00001000
00000000
,
00010000
00000000
00100000
00000000
10000000
01000000
00010000
00000000
,
00002000
00000000
00000000
00000000
00000000
00000000
00000000
00023000
,
00000000
00000000
00000000
00030000
,
00010000
00001000
00000000
00000100
00000000
00000001
00000000
00000010
,
00000000
00000100
00000000
00001000
00000000
00000001
00000100
00001000
,
00000000
00010000
00000000
01000000
00000000
10000000
00000000
00100000
,
01100000
00000000
00110000
00000000
00011000
00000000
00001000
00010000
,
00001000
00000000
00000010
00000001
00000000
00001000
00000000
00000100
,
00000010
00000001
00000100
00001000
,
00010000
00100000
10000000
00010000
,
01000000
00000000
00000000
00100000
00000000
10000000
01000000
00010000
,
00010000
00001000
00000000
00000100
00000000
00000001
00000000
00000010
,
00000000
00000100
00000000
00001000
00000000
00000001
00000100
00001000
,
00000000
00010000
00000000
01000000
00000000
10000000
00000000
00100000
,
01000000
00000000
00110000
00000000
11000000
10000000
01000000
00010000
,
00001000
00000000
00000000
00000000
00000000
00000000
00010000
00000000
00001000
00000000
00000000
00010000
00000000
00000000
00000100
00000000
,
00000010
00000000
00000000
00000001
00000100
00000000
00001000
00000000
,
00010000
00001000
00100000
00001000
,
00020000
00000000
00000000
00000000
,
00031000
00000000
00000010
00000000
00000001
00001000
00000100
00000000
,
00000010
00000001
00000100
00001000
,
00010000
00000000
00100000
00000000
10000000
00010000
01000000
00000000
,
00100000
10000000
01000000
00010000
,
00001100
00001100
00000110
00000110
,
00000010
00000001
00000100
00001000
,
00010000
00000000
00100000
00000000
10000000
01000000
10000000
00000000
,
00100000
00010000
00100000
00010000
00100000
00001000
00010000
00001000
,
00020000
00000000
00000000
00000000
,
00030000
00000000
00000000
00000000
;

//--------------- dance-double - ----------------
#NOTEDATA:;
#STEPSTYPE:dance-double;
#DESCRIPTION:;
#DIFFICULTY:Hard;
#METER:13;
#RADARVALUES:0,0,0,0,0;
#NOTES:
00000000
00000000
00000000
00000000
,
00000000
00000000
00000000
00000000
,
00000000
00000000
00000000
00000000
,
00000000
00000000
00000000
00000000
,
00000000
00000000
00000000
00000000
,
00000000
00000000
00000000
00000000
,
00000001
00000010
00000001
00001000
00000001
00000100
00001000
00000000
,
00010000
00100000
10000000
00010000
01000000
00010000
00100000
01000000
,
10000000
00100000
10000000
00000000
00110000
00000000
00011000
00000000
,
00000000
00001000
00000000
00000000
00000010
00000000
00000001
00000000
00001000
00000000
00000100
00001000
00000000
00000000
00000001
00000000
,
00001000
00000001
00000000
00000000
00000010
00000000
00000100
00000000
00000010
00000000
00000001
00000000
00000100
00001000
00000000
00000000
,
00000000
00010000
00000000
00000000
00100000
00000000
10000000
00000000
00010000
00000000
01000000
00010000
00000000
00000000
10000000
00000000
,
00010000
10000000
00000000
00000000
00100000
00000000
01000000
00000000
00100000
00000000
10000000
00000000
01000000
00010000
00000000
00000000
,
00000000
00001000
00000000
00000000
00000010
00000000
00000100
00000000
00010000
00000000
00000100
00001000
00000000
00000000
00000100
00000000
,
00001000
00000010
00000000
00000000
00000010
00000000
00000100
00000000
00000010
00000000
00000001
00000000
00000100
00001000
00000000
00000000
,
00000001
00000010
00000100
00001000
00010000
00100000
01000000
10000000
,
00010000
10000000
00000000
00100000
00000000
01000000
00000000
00100000
00000000
10000000
00000000
01000000
00000000
00010000
00000000
00000000
,
00001000
00000000
00000110
00000100
00000001
00000000
00001000
00000010
,
00000100
00000001
00001000
00000010
00000100
00000001
00000100
00001000
,
00010000
00000000
01100000
01000000
10000000
00000000
00010000
00100000
,
01000000
10000000
00010000
00100000
01000000
10000000
01000000
00010000
,
00001000
00000000
00000000
00000000
00000010
00000000
00000100
00000000
00000000
00000000
00001000
00000000
00000100
00000000
00000010
00000001
,
00000000
00000000
00001000
00000000
00000000
00000010
00000100
00001000
,
00010000
00000000
00000000
00001000
00010000
00000000
00000000
00100000
,
10000000
00010000
10000000
00000000
01100000
00000000
00011000
00000000
,
00001000
00000010
00000001
00000100
00000001
00000000
00001000
00000010
,
00000100
00000001
00001000
00000010
00000100
00000001
00000100
00001000
,
00010000
00100000
10000000
01000000
10000000
00000000
00010000
00100000
,
01000000
10000000
01000000
00100000
01000000
10000000
01000000
00010000
,
00001000
00000000
00000000
00000000
00000010
00000000
00000100
00000000
00000000
00000000
00001000
00000000
00000100
00000000
00000010
00000001
,
00000000
00000000
00000000
00000000
00001000
00000000
00000000
00000000
00000001
00000000
00000000
00000100
00000000
00000000
00001000
00000000
,
00010000
00000000
00000000
00100000
00000000
10000000
01000000
20000000
,
00000000
00000000
31000000
00010000
,
00001000
00000000
00000100
00000000
00000010
00000000
00001000
00000000
00000001
00000100
00000000
00000010
00000000
00000000
00001000
00000000
,
00000001
00000000
00000000
00000011
00000000
00000000
00001100
00000000
00000000
00000000
00000001
00000000
00000100
00000000
00001000
00000000
,
00010000
00000000
01000000
00000000
00100000
00000000
00010000
00000000
10000000
01000000
00000000
00100000
00000000
00000000
00010000
00000000
,
10000000
00000000
00000000
00100000
00000000
00000000
00010000
00000000
00000000
00000000
00000000
00000000
00001000
00000000
00010000
00000000
,
00002000
00000000
00000000
00003010
00000001
00001000
00000100
00002000
,
00000000
00003002
00000000
00000000
00000103
00000000
00001000
00000000
,
00020000
00000000
00000000
00000000
00000000
00130000
00010000
00001000
,
00000000
00000000
00000000
00000000
,
00000000
00000000
00000010
00000000
00000001
00000000
00001000
00000001
00000000
00000000
00000010
00000000
00000001
00000000
00001000
00000000
,
00000000
00000000
00000100
00000000
00001000
00000000
00000001
00001000
00000000
00000000
00000010
00000000
00000100
00000000
00001000
00000000
,
00010000
00000000
00000000
00100000
00000000
00000000
10000000
00000000
01000000
00000000
00100000
00000000
00001000
00000000
00000000
00000000
,
00110000
00000000
01100000
00000000
00100000
01000000
00010000
00001000
,
00000010
00000001
00001000
00000100
00000000
00001000
00000010
00000100
,
00000001
00000010
00000001
00001000
00000001
00000100
00001000
00010000
,
00001000
00000000
00000000
00010000
00000000
00000000
00001000
00000000
00010000
00000000
00000100
00000000
00001000
00000000
00000100
00000000
,
00010000
00001000
00010000
01000000
10000000
01000000
10000000
00000000
,
00000000
00000000
00100000
00000000
10000000
00000000
00010000
10000000
00000000
00000000
00100000
00000000
10000000
00000000
00100000
00000000
,
00000000
00000000
01000000
00000000
00010000
00000000
10000000
00010000
00000000
00000000
00100000
00000000
01000000
00000000
00010000
00000000
,
00001000
00000000
00000000
00000010
00000000
00000000
00000001
00000000
00000100
00000000
00000010
00000000
00010000
00000000
00000000
00000000
,
00001010
00000000
00000110
00000000
00000010
00000100
00001000
00010000
,
01100000
00000000
00000000
00000000
00000000
00000000
01000000
00000000
00100000
00000000
00000000
10000000
00000000
00000000
01000000
00000000
,
10000000
00100000
10000000
00010000
10000000
01000000
00010000
00001000
,
00000010
00000000
00000000
00000001
00000000
00000000
00001000
00000000
00000100
00000000
00001000
00000000
00000010
00000000
00000100
00000000
,
00000001
00000000
00000010
00000000
00000001
00000000
00001000
00000000
00000001
00000000
00000100
00000000
00001000
00010000
00000000
00000000
,
00010000
00001000
00000000
00000000
00000010
00000000
00000001
00000000
00001000
00000000
00000100
00001000
00000000
00000000
00000001
00000000
,
00001000
00000001
00000000
00000000
00000010
00000000
00000001
00000000
00000011
00000000
00000000
00000000
00001100
00000000
00000000
00000000
,
00001000
00010000
00000000
00000000
00100000
00000000
10000000
00000000
00010000
00000000
01000000
00000000
00010000
00000000
10000000
00000000
,
00010000
10000000
00000000
00000000
00100000
00000000
01000000
00000000
00001000
00000000
00010000
00000000
00001000
00000000
00010000
00000000
,
00010000
00001000
00000000
00000000
00000010
00000000
00000001
00000000
00001000
00000000
00000100
00000000
00001000
00000000
00000001
00000000
,
00001000
00000001
00000000
00000000
00000010
00000000
00000100
00000000
00000010
00000000
00000001
00000000
00000100
00000001
00000000
00000000
,
00000001
00000010
00000100
00001000
00010000
00100000
01000000
10000000
,
00010000
01000000
00010000
01000000
00000000
01000000
00000000
00010000
00000000
10000000
00000000
01000000
00010000
00000000
00001000
00000000
,
00020000
00000000
00000000
00030000
;
