#VERSION:0.83;
#TITLE:Buffalo Stance;
#SUBTITLE:;
#ARTIST:Neneh Cherry;
#TITLETRANSLIT:;
#SUBTITLETRANSLIT:;
#ARTISTTRANSLIT:;
#GENRE:;
#ORIGIN:;
#CREDIT:;
#BANNER:Buffalo Stance banner.png;
#BACKGROUND:Buffalo Stance Background.png;
#PREVIEWVID:;
#JACKET:Buffalo Stance Jacket.png;
#CDIMAGE:;
#DISCIMAGE:;
#LYRICSPATH:;
#CDTITLE:;
#MUSIC:Buffalo_Stance_Cut.ogg;
#OFFSET:-0.374000;
#SAMPLESTART:55.998001;
#SAMPLELENGTH:12.000000;
#SELECTABLE:YES;
#BPMS:0.000=107.165;
#STOPS:;
#DELAYS:;
#WARPS:;
#TIMESIGNATURES:0.000=4=4;
#TICKCOUNTS:0.000=4;
#COMBOS:0.000=1;
#SPEEDS:0.000=1.000=0.000=0;
#SCROLLS:0.000=1.000;
#FAKES:;
#LABELS:0.000=Song Start;
#BGCHANGES:;
#KEYSOUNDS:;
#ATTACKS:
;

//---------------dance-single - ----------------
#NOTEDATA:;
#CHARTNAME:;
#STEPSTYPE:dance-single;
#DESCRIPTION:;
#CHARTSTYLE:;
#DIFFICULTY:Hard;
#METER:9;
#RADARVALUES:0.565169,0.656961,0.079833,0.133055,0.687453,446.000000,437.000000,9.000000,15.000000,0.000000,0.000000,0.000000,0.000000,0.000000,0.565169,0.656961,0.079833,0.133055,0.687453,446.000000,437.000000,9.000000,15.000000,0.000000,0.000000,0.000000,0.000000,0.000000;
#CREDIT:;
#NOTES:
// measure 0
0000
0000
0000
0000
,  // measure 1
0000
0000
0000
0000
,  // measure 2
0000
0000
0000
0000
,  // measure 3
0000
0000
0000
0000
0000
0000
0000
0000
0000
0000
0000
0000
0000
1000
0001
0010
,  // measure 4
0001
1000
0001
1000
0100
1000
0001
0100
0001
1000
0000
0001
0010
0100
1000
0001
,  // measure 5
1000
0001
1000
0001
1000
0000
0110
0000
1000
0000
1001
0000
0001
0100
0001
0000
,  // measure 6
1000
0010
0000
0000
1000
0000
0001
0000
1000
0001
0000
0000
1000
0100
0010
0000
,  // measure 7
0001
0000
0110
0000
1000
0000
0001
0000
0100
0000
0010
0000
0100
0000
0001
1000
,  // measure 8
0000
1000
0001
0000
1000
0000
0010
0100
0000
0100
0010
0000
1000
0000
0100
0000
,  // measure 9
0001
0000
0100
0000
1000
0000
0001
0000
0100
0000
0010
0000
1000
0000
0001
1000
,  // measure 10
0000
1000
0001
0000
1000
0000
0100
1000
0000
0001
1000
0000
0010
0000
1000
0000
,  // measure 11
0001
0000
0010
0000
0100
0000
1000
0100
0010
0001
1000
0001
1000
0000
0001
0000
,  // measure 12
0100
0100
1000
0001
1000
0001
0010
0010
,  // measure 13
1000
0001
1000
0001
1000
0100
0100
0001
,  // measure 14
1000
0001
1000
0010
0010
0001
1000
0100
,  // measure 15
0010
0000
0001
0000
1000
0000
1000
0000
0001
0000
1000
0000
0001
0000
1000
0100
,  // measure 16
0001
1000
0010
0001
1000
0002
0000
0000
0000
0000
0003
0000
0000
0000
1000
0100
,  // measure 17
0001
1000
0010
0001
1000
0100
0001
1000
0010
0002
0000
0000
0003
0000
1000
0100
,  // measure 18
0010
0001
1000
0001
1000
0002
0000
0000
0000
0000
0000
0003
0000
0000
1000
0001
,  // measure 19
1000
0001
0100
0001
1000
0100
0010
0001
1000
0001
0000
0000
1000
0000
0001
1000
,  // measure 20
0001
1000
0000
0001
0010
0001
0000
1000
0010
1000
0000
0001
1000
0000
0001
0100
,  // measure 21
0000
0010
1000
0000
0100
0000
1000
0000
0001
1000
0000
0001
0000
0000
2000
0000
,  // measure 22
0000
0002
0000
3003
0000
1000
0000
0001
,  // measure 23
0000
0100
0000
1000
0000
0100
0000
0001
,  // measure 24
1000
0002
0000
0000
0000
0000
0000
0000
0003
0000
1001
0000
0000
0000
0001
1000
,  // measure 25
0010
0001
1000
0100
0001
1000
0010
0001
1000
0100
0001
0000
0000
0000
0001
1000
,  // measure 26
0100
0001
1000
0010
0001
1000
0100
0001
1000
0010
0001
0000
0000
0000
0001
1000
,  // measure 27
0100
0001
0100
1000
0100
0001
0100
1000
0001
1000
0001
0000
0000
0000
1000
0100
,  // measure 28
1000
0100
1000
0100
0010
0001
0010
0100
1000
0001
1000
0001
0000
0000
0100
0000
,  // measure 29
1001
0000
0000
0000
0001
1000
0001
0100
0010
0100
1001
0000
0000
0000
1000
0000
,  // measure 30
0100
0100
0001
0010
0010
1000
0100
0100
,  // measure 31
0001
0000
1000
0000
0000
0000
0001
0010
0100
0000
1001
0000
1001
0000
1000
0000
,  // measure 32
0100
0001
0010
1000
0100
1000
0010
1000
,  // measure 33
0100
0000
0001
0000
0010
0000
2000
0000
0000
0000
0002
0000
3003
0000
1000
0001
,  // measure 34
0100
0001
1000
0010
1000
0001
0100
0000
1000
0000
0001
0000
0100
0010
0100
0010
,  // measure 35
0100
0001
1000
0001
0010
0100
1000
0001
0001
0001
0001
0000
1000
0000
0100
0000
,  // measure 36
1000
0000
0001
0000
0100
0001
1000
0100
0001
0100
1000
0100
0001
0000
1000
0000
,  // measure 37
0001
0100
0010
0000
1000
0001
0000
0100
0010
0010
0010
0000
0000
0100
0010
0100
,  // measure 38
0001
0100
0000
0000
0010
0100
1000
0100
1000
0100
0000
0000
1000
0001
1000
0100
,  // measure 39
0010
0100
0001
0000
1000
0100
0010
0001
0100
0010
1000
0000
0001
1000
0001
0000
,  // measure 40
1000
0100
0000
0000
0001
0000
1000
0000
0001
1000
0000
0001
1000
0010
1000
0100
,  // measure 41
0010
0001
0100
0010
1000
0001
0100
0010
0100
0001
1000
0000
0000
0000
1000
0100
,  // measure 42
0001
1000
0010
0001
1000
0002
0000
0000
0000
0000
0003
0000
0000
0000
1000
0010
,  // measure 43
0001
0010
1000
0010
0001
0010
1000
0001
1000
0002
0000
0000
0003
0000
1000
0100
,  // measure 44
0001
1000
0001
0010
1000
0002
0000
0000
0003
0000
1000
0000
0000
0000
0001
1000
,  // measure 45
0001
1000
0100
1000
0000
0001
1000
0000
0001
2000
0000
0000
0000
3000
0000
0001
,  // measure 46
0010
0100
1000
0000
0100
0010
0001
0000
0010
0100
1000
0000
0001
0000
1000
0100
,  // measure 47
0000
0000
0001
0000
0000
0000
0000
0000
0000
1000
0001
0000
0000
0000
0200
0000
,  // measure 48
0000
0000
0300
0000
0000
0000
0000
2002
,  // measure 49
0000
0000
0000
3003
0000
0000
0000
0000
;
