#TITLE:7 Colors;
#SUBTITLE:;
#ARTIST:kors k ft. Sunao Yoshikawa;
#TITLETRANSLIT:;
#SUBTITLETRANSLIT:;
#ARTISTTRANSLIT:;
#GENRE:;
#CREDIT:;
#BANNER:7_Colors banner.png;
#BACKGROUND:7_Colors Background.PNG;
#LYRICSPATH:;
#CDTITLE:;
#MUSIC:7 Colors.ogg;
#OFFSET:-0.364000;
#SAMPLESTART:52.160000;
#SAMPLELENGTH:12.000000;
#SELECTABLE:YES;
#DISPLAYBPM:156.000000;
#BPMS:0.000000=156.000000
,132.000000=1.500000
,132.020828=156.000000
,202.000000=234.000000
,205.000000=468.000000
,208.000000=156.000000
;
#STOPS:
;
#BGCHANGES:;
#KEYSOUNDS:;
#ATTACKS:;

//---------------dance-single - ----------------
#NOTES:
     dance-single:
     :
     Hard:
     7:
     0.455733,0.502020,0.050002,0.110004,0.150006,319.000000,314.000000,5.000000,11.000000,0.000000,0.000000,0.455733,0.502020,0.050002,0.110004,0.150006,319.000000,314.000000,5.000000,11.000000,0.000000,0.000000:
// measure 0
0000
0000
0000
0000
,  // measure 1
0000
0000
0000
0000
,  // measure 2
0000
0000
0000
0000
,  // measure 3
0000
0000
0000
0000
,  // measure 4
0000
0000
0000
0000
,  // measure 5
1001
0001
0001
0001
,  // measure 6
0110
0000
0100
0000
0100
0000
0100
0001
,  // measure 7
1100
1000
0001
1000
,  // measure 8
0001
0000
0000
0100
0000
0000
0010
0000
0000
0000
0000
0000
1000
0000
0000
0000
,  // measure 9
0001
0000
0000
0010
0000
0000
0001
0000
0000
1000
0000
0000
0100
0000
1000
0000
,  // measure 10
0100
0000
1000
0000
0001
0000
0000
0000
0010
0000
0000
0001
0000
0000
1000
0000
,  // measure 11
0001
0000
0000
0100
0000
0000
0001
0000
0000
0100
0000
0000
0001
0000
1000
0000
,  // measure 12
0010
1000
0001
0100
0001
0000
1000
0000
,  // measure 13
0001
0000
0000
0100
0000
0000
1000
0000
0000
0100
0000
0000
0001
0000
1000
0000
,  // measure 14
0100
0000
1000
0000
0100
0000
0000
0000
0001
0000
0000
1000
0000
0000
0001
0000
,  // measure 15
0000
0010
0000
0000
0001
0000
0000
0100
0000
0000
0001
0000
1000
0000
0010
0000
,  // measure 16
1000
0001
0100
0001
1000
0100
1000
0000
,  // measure 17
0001
0000
1000
0000
0001
0000
1000
0002
0000
0000
0003
0000
0000
0000
0000
0000
,  // measure 18
1000
0000
0100
0000
1000
0000
0100
2000
0000
0000
3000
0000
0000
0000
0000
0000
,  // measure 19
0010
0100
0001
0100
0001
1000
0010
0100
,  // measure 20
0001
1000
0001
0000
0100
0000
0100
0000
,  // measure 21
1000
0000
0001
0000
1000
0000
0001
0200
0000
0000
0300
0000
0000
0000
0001
0000
,  // measure 22
1000
0000
0001
0000
0010
0000
0100
2000
0000
0000
3000
0000
0001
0000
0010
0000
,  // measure 23
0100
1000
0001
1000
0100
0010
0100
0000
,  // measure 24
1000
0001
0100
0010
,  // measure 25
1000
0100
0000
1000
0000
0001
0000
0100
,  // measure 26
0000
0001
0000
1000
0001
1000
0001
0000
,  // measure 27
0100
0000
0010
0001
0000
0100
0000
0001
,  // measure 28
0000
1000
0001
1000
0001
1000
0000
0000
,  // measure 29
1000
0001
0100
0010
1000
0000
0001
0100
,  // measure 30
0010
1000
0001
1000
0001
0000
1000
0100
,  // measure 31
0001
1000
0001
0001
,  // measure 32
0010
0001
0001
1000
,  // measure 33
0220
0000
0000
0000
0330
0000
0000
0000
1000
0000
0000
0000
0001
0000
1000
0001
,  // measure 34
0000
1000
0100
0010
0001
1000
0001
0000
,  // measure 35
1001
0000
1000
0001
1000
0000
0100
0010
,  // measure 36
0100
0000
0001
0010
0001
0000
1000
0010
,  // measure 37
1000
0000
0000
0000
0001
0000
1000
0000
0001
0000
0000
0000
0001
0000
1000
0100
,  // measure 38
0000
1000
0010
1000
0001
0100
0010
0100
,  // measure 39
0001
1000
0002
0000
,  // measure 40
0003
0000
0000
0000
1000
0000
0001
0000
1000
0000
0000
0001
0000
0000
0001
0000
,  // measure 41
0000
0000
0000
0000
1000
0000
0100
0000
0010
0000
0000
0000
0001
0000
1000
0010
,  // measure 42
0000
0000
1000
0000
0001
0000
1000
0000
0100
0000
1000
0000
0001
0000
0100
0001
,  // measure 43
0000
0000
1000
0010
0001
0000
0100
0001
,  // measure 44
0010
0000
1000
0001
0010
0000
0100
1000
,  // measure 45
0010
0000
0000
0000
1000
0000
0001
0000
1000
0000
0000
0000
0001
0000
0010
0001
,  // measure 46
0000
1000
0001
1000
0100
1000
0001
0010
,  // measure 47
0001
0010
0100
0000
2000
0000
0000
0000
,  // measure 48
3000
0000
0000
0000
0001
0000
0100
0000
0001
0000
0000
1000
0000
0000
1000
0000
,  // measure 49
0000
0000
0001
1000
,  // measure 50
0100
0001
0020
0000
,  // measure 51
0030
0002
0000
0003
,  // measure 52
1000
0000
0000
0000
0001
0000
0000
1000
0000
0000
0001
0000
0000
0000
0100
0000
,  // measure 53
0001
0000
0100
0000
0001
0000
0010
0000
0100
0000
0000
0000
1000
0000
0000
0001
,  // measure 54
0000
0000
0100
0000
0000
0010
0000
0000
1000
0000
0001
0000
1000
0000
0001
0000
,  // measure 55
0010
0100
1000
0100
0010
0001
1000
0000
,  // measure 56
0010
0000
0001
0000
1000
0000
0000
0001
0000
0000
0100
0000
0000
0001
0000
0000
,  // measure 57
1000
0000
0100
0000
1000
0000
0001
0000
0100
0000
0000
0000
1000
0000
0000
0010
,  // measure 58
0000
0000
1000
0000
0000
0001
0000
0000
0010
0000
0000
0001
0000
0000
1000
0000
,  // measure 59
0001
0010
0100
1000
0100
0010
0001
1000
,  // measure 60
0001
0100
0010
1000
,  // measure 61
0001
0100
1000
0001
,  // measure 62
0020
0000
0000
0030
;

//---------------dance-single - ----------------
#NOTES:
     dance-single:
     :
     Medium:
     5:
     0.374301,0.468769,0.150006,0.150006,0.005000,262.000000,247.000000,15.000000,15.000000,0.000000,0.000000,0.374301,0.468769,0.150006,0.150006,0.005000,262.000000,247.000000,15.000000,15.000000,0.000000,0.000000:
0000
0000
0000
0000
,
0000
0000
0000
0000
,
0000
0000
0000
0000
,
0000
0000
0000
0000
,
0000
0000
0000
0000
,
2002
0000
0000
3003
,
2200
0000
0000
0000
0000
3300
0000
0000
,
0202
0000
0000
0000
0000
0303
0000
0000
,
1000
0000
0000
0001
0000
0000
1000
0000
0000
0000
0000
0000
0000
0000
0000
0000
,
0001
1000
0010
0100
,
0001
0100
0010
1000
,
0001
0100
0001
0100
,
0001
1000
0010
1000
0001
0000
1000
0000
,
0001
0100
0001
1000
,
0001
0010
1000
0001
,
0100
0001
0010
0001
,
1000
0100
0000
0100
1000
0001
1000
0000
,
0001
0000
1000
0000
0001
0100
0001
0000
,
1000
0000
0100
0000
1000
0100
1000
0000
,
0001
1000
0010
0100
,
0001
1000
0100
1000
,
0001
0000
0100
0000
0001
0100
0001
0000
,
1000
0000
0010
0000
1000
0010
1000
0000
,
0001
1000
0100
0010
,
0001
0000
1000
0000
0001
1000
0001
0000
,
0100
0000
0001
0100
0000
1000
0000
2002
,
0000
0000
3003
0000
1000
0100
0010
0001
,
0100
0000
0001
1000
0000
0100
0001
0000
,
0010
0000
0001
0010
0100
0000
1000
0000
,
0001
1000
0100
0000
0002
0000
0003
0000
,
1000
0100
0001
0000
1000
0001
1000
0000
,
0010
0100
0000
0100
0001
0010
0001
0000
,
0100
0010
1000
0001
,
2002
3003
0001
1000
,
0001
0010
0100
1000
0100
0000
0010
0000
,
0100
0001
0011
0100
,
0110
1000
1100
0010
,
0110
0000
0001
0010
0100
0000
1000
0000
,
0010
0100
0001
1000
,
0001
0000
1000
0001
2000
0000
0000
0000
,
3000
0000
0001
0010
0100
1000
0001
0000
,
1000
0000
0000
0000
1000
0000
0001
0010
,
0001
1000
0100
1000
0100
0001
0100
0000
,
1000
0001
1100
1000
,
0011
0100
1001
0001
,
0110
0000
0001
1000
0010
0000
1000
0001
,
1000
0100
1000
0001
0010
0001
1000
0000
,
0001
0010
0002
0000
,
0003
0100
0100
0100
,
0000
0001
1000
0001
,
1000
0001
1000
0000
,
0000
0001
0000
0000
,
1001
0100
0001
1000
,
0001
0100
0010
1000
,
0001
0100
0010
1000
,
0001
0100
0001
0010
0001
1000
0001
0100
,
0010
1000
0001
1000
,
0010
1000
0001
1000
,
0100
1000
0001
0100
,
0001
1000
0010
0100
0001
0010
0001
1000
,
0001
1000
0001
0100
,
0010
1000
0001
0100
,
2002
0000
3003
0000
;

//---------------dance-single - ----------------
#NOTES:
     dance-single:
     :
     Beginner:
     2:
     0.114290,0.220509,0.050002,0.020001,0.000000,80.000000,75.000000,5.000000,2.000000,0.000000,0.000000,0.114290,0.220509,0.050002,0.020001,0.000000,80.000000,75.000000,5.000000,2.000000,0.000000,0.000000:
0000
0000
0000
0000
,
0000
0000
0000
0000
,
0000
0000
0000
0000
,
0000
0000
0000
0000
,
0000
0000
0000
0000
,
1000
0000
0000
0000
,
1000
0000
0000
0000
,
0001
0000
0000
0000
,
0001
0000
0000
0000
,
0100
0000
0000
0000
,
0010
0000
0000
0000
,
1000
0000
0000
0000
,
0001
0000
0100
0000
,
1000
0000
0000
0000
,
0001
0000
0000
0000
,
0010
0000
0000
0000
,
1001
0000
1000
0000
,
1001
0000
0001
0000
,
1000
0000
0000
0000
,
0001
0000
0010
0000
,
1000
0000
0100
0000
,
0001
0000
0000
0000
,
1000
0000
0000
0000
,
0001
0000
1000
0000
,
0100
0000
0001
0000
,
0010
0000
0000
0000
,
0001
0000
0000
0000
,
1000
0000
0000
0000
,
0010
0000
0000
0000
,
0100
0000
0100
0000
,
0100
0000
0100
0000
,
0010
0000
0010
0000
,
0010
0000
0000
0000
,
1001
0000
1000
0000
,
0000
0000
0001
0000
,
0000
0100
0000
0000
,
0001
0000
1000
0000
,
0001
0000
1000
0000
,
0000
0000
0010
0000
,
0000
0000
0001
0000
,
0000
0000
1000
0000
,
0001
0000
0100
0000
,
0000
0000
0100
0000
,
0000
0000
0010
0000
,
0000
0000
0010
0000
,
0100
0000
0001
0000
,
0000
0000
1000
0000
,
0000
0100
0000
0000
,
0000
0001
0000
0000
,
0000
0000
1000
0000
,
0001
0000
1000
0000
,
0000
0001
0000
0000
,
1001
0000
0000
0000
,
1000
0000
0000
0001
,
0000
1000
0000
0000
,
0000
1000
0000
0000
,
0000
0100
0000
0000
,
0000
0001
0000
0000
,
0000
0010
0000
0000
,
0000
0010
0000
0000
,
0000
0100
0000
0000
,
0000
0001
0000
0000
,
2002
0000
0000
0000
,
3003
0000
0000
0000
;

//---------------dance-single - ----------------
#NOTES:
     dance-single:
     :
     Easy:
     3:
     0.194293,0.251010,0.120005,0.040002,0.000000,136.000000,124.000000,12.000000,4.000000,0.000000,0.000000,0.194293,0.251010,0.120005,0.040002,0.000000,136.000000,124.000000,12.000000,4.000000,0.000000,0.000000:
0000
0000
0000
0000
,
0000
0000
0000
0000
,
0000
0000
0000
0000
,
0000
0000
0000
0000
,
0000
0000
0000
0000
,
1001
0000
0000
0000
,
1001
0000
0000
0000
,
1001
0000
0000
0000
,
0100
0100
0100
0000
,
1000
0000
0001
0000
,
0100
0000
0010
0000
,
1000
0000
0001
0000
,
0100
0001
0010
0100
,
1000
0000
0001
0000
,
1000
0000
0010
0000
,
0100
0000
0010
0000
,
1000
0001
1000
0001
,
1000
0000
1001
0000
,
0001
0000
1001
0000
,
1000
0000
0001
0000
,
1000
0000
0110
0000
,
0010
0000
0110
0000
,
0100
0000
0110
0000
,
0010
0000
1000
0001
,
0010
0000
1000
0000
,
0001
0000
1000
0000
,
0001
0000
0100
0000
,
0010
0000
0100
0000
,
1001
0000
0001
0000
,
1000
0001
0001
0000
,
1000
1000
0001
0000
,
1000
0000
0001
0000
,
2000
0000
0000
0000
0000
3000
0000
0000
,
1001
0000
0001
0000
,
1000
0000
0100
0000
,
1000
0001
0001
0000
,
0100
0000
1000
0000
,
0100
0000
0001
0000
,
0100
0000
0001
0000
,
0010
0000
0002
0000
,
0000
1003
1000
0001
,
0000
0000
1000
0000
,
0001
0000
1000
0000
,
0010
1000
0100
0000
,
0001
0000
0100
0000
,
0010
0000
0100
0000
,
0001
0000
1000
0000
,
0001
0000
0100
0000
,
0010
0000
1000
0001
,
0100
0000
1000
0000
,
0001
0000
1000
0000
,
0000
1000
0000
0000
,
1001
0000
0000
0001
,
0000
1000
0000
0001
,
0000
0100
0000
0010
,
0000
1000
0001
1000
,
0001
0100
0000
0010
,
0000
1000
0000
0001
,
0000
0100
0000
0001
,
0000
1000
0001
0010
,
0100
1000
0000
0001
,
0000
0100
0000
0000
,
2002
0000
0000
3003
;
