#VERSION:0.83;
#TITLE:BeRockU;
#SUBTITLE:(1998 burst style);
#ARTIST:NAOKI ft. DIGICCO;
#TITLETRANSLIT:;
#SUBTITLETRANSLIT:;
#ARTISTTRANSLIT:;
#GENRE:;
#CREDIT:;
#MUSIC:BeRockU (1998 Burst Style).ogg;
#BANNER:BeRockU banner.jpg;
#BACKGROUND:BeRockU back.jpg;
#CDTITLE:;
#SAMPLESTART:1.285;
#SAMPLELENGTH:12.000;
#SELECTABLE:YES;
#OFFSET:-0.115;
#BPMS:0.000=150.000;
#STOPS:;
#BGCHANGES:0.000=Be Rock U (1998 Burst Style) - NAOKI.mp4=1.000=0=0=0=StretchNoLoop====,
99999.000=-nosongbg-=1.000=0=0=0=StretchNoLoop====
;
#FGCHANGES:;

//--------------- dance-single - ----------------
#NOTEDATA:;
#STEPSTYPE:dance-single;
#DESCRIPTION:;
#DIFFICULTY:Hard;
#METER:8;
#RADARVALUES:0.547636,0.544806,0.478075,0.239037,0.159358,433,379,54,27,0,0,0.547636,0.544806,0.478075,0.239037,0.159358,433,379,54,27,0,0;
#NOTES:
0000
0000
0000
0000
,
0001
0000
0000
1000
0000
0000
0100
0000
1000
0000
0000
0000
0000
0000
0000
0000
,
0100
0000
0000
1000
0000
0000
0001
0000
0110
0000
0000
0000
0000
0000
1000
0000
,
0001
0000
0000
0100
0000
0000
0001
0000
1000
0000
0000
0001
0000
0000
0001
0000
,
1000
0000
0000
0100
0000
0000
1000
0000
1100
0000
0000
0000
1000
0000
0100
0000
,
0010
0000
0000
0001
0000
0000
0100
0000
0001
0000
0000
0000
1000
0000
0000
0000
,
0001
0000
0000
0010
0000
0000
0100
0000
1001
0000
0000
0000
0000
0000
0000
0000
,
1000
0100
1000
0100
1000
0001
1000
0001
,
0100
0001
1000
0001
0100
0001
1001
0000
,
0100
0010
0000
0010
0100
0000
0001
0000
0000
1000
0000
0000
0100
0000
1000
0000
,
0001
1000
0000
1000
0001
0000
0100
0000
0000
0010
0000
0000
1000
0000
0001
0000
,
1000
0001
0000
0001
1000
0000
0010
0000
0000
0100
0000
0000
0001
0000
1000
0000
,
0010
0100
0001
1000
0100
1000
0001
1000
,
0001
0100
0110
0000
0001
0100
1010
0000
,
1000
0010
0101
0000
0001
1000
0110
0000
,
0100
0001
1010
0000
1000
0010
1001
0000
,
1000
0001
1001
0000
0010
1000
0001
0000
,
0010
0000
0001
0010
0001
0010
0100
0000
,
0011
0000
1100
0000
1000
0010
0101
0000
,
1001
0000
0100
0001
1000
0001
0100
0000
,
0010
1000
0100
0010
0001
1000
1100
0000
,
0011
0000
0100
0000
1000
0010
0100
0000
,
0001
0010
0100
1000
0010
0100
0001
0100
,
0220
0000
0330
0000
0000
0000
0100
0000
0001
0000
0010
1000
0000
0000
0100
0000
,
1000
0001
0010
0100
1000
0100
0010
0001
,
2002
0000
0000
3003
,
0010
0000
0000
1000
0000
0000
0001
0000
0100
0000
0000
0000
0001
1000
0001
0000
,
0100
0000
0000
0001
0000
0000
0100
0000
0002
0000
0000
0000
0000
0003
0000
0000
,
1000
0000
0000
1000
0000
0000
1000
0000
0001
0000
0000
0001
0000
0000
0001
0000
,
1000
0010
0100
0010
0220
0330
0000
0000
,
0010
0000
0000
0001
0000
0000
0100
0000
0020
0000
0030
0000
0000
0000
1000
0001
,
1000
0000
0000
0100
0000
0000
0010
0000
2002
0000
0000
0000
3003
0000
0000
0000
,
0010
0001
0100
0010
0100
0001
1000
0000
,
1000
1001
0010
0110
,
1000
0001
0100
0000
1000
0001
0100
0000
,
0010
1000
0100
0000
0010
1000
0100
0000
,
0010
0100
1000
0001
0000
1001
0000
0110
,
0000
1100
0000
0101
0000
0110
0000
1001
,
0000
0000
0100
0000
0001
0000
1000
0000
0001
1000
0000
0000
0001
0000
0100
0000
,
0010
0000
1000
0000
0100
1000
0000
0000
0001
0000
1000
0000
0010
0000
0000
0000
,
2000
0000
3000
0002
0000
0203
0000
0002
,
0300
1003
1001
0110
,
1001
0000
0010
0000
0010
0100
0001
0000
,
0010
0100
0001
0010
0001
1000
0100
0000
,
1001
0000
0101
0000
0010
1000
0100
0000
,
0001
1000
0001
0000
0100
0010
0100
0000
,
0001
0010
0001
1000
0100
1000
0101
0000
,
0010
1000
0100
0010
0001
0100
0110
0000
,
0100
0010
1000
0100
0010
0001
0100
0010
,
1001
0000
0001
1000
1000
0001
0001
0000
,
1001
0001
0010
1000
,
0100
0000
0001
0000
1001
0000
1000
0001
,
0100
0010
2000
3000
,
0202
0000
0000
0303
2002
0000
3003
0000
,
0110
1001
1100
0110
,
1000
0000
0000
0001
0000
0000
1000
0000
0001
0000
0000
0000
1000
0000
0000
0000
,
0001
0000
0000
0010
0000
0000
0001
0000
0200
0000
0000
0000
0000
0000
0000
0000
,
0010
0010
0310
1000
,
0001
0000
0001
0000
1000
0100
0010
0001
,
0100
0000
0000
0001
0000
0000
1000
0000
2200
0000
0000
3300
0000
0000
0000
0000
,
0001
0000
0000
0100
0000
0000
0010
0000
0110
0000
0000
0000
0001
0000
0000
0000
,
1000
0000
0000
0001
0000
0000
1000
0000
0100
0000
0000
1000
0000
0000
0001
0000
,
0100
0010
0100
0001
2002
0000
3003
0000
,
0001
0000
0000
0010
0000
0000
0001
0000
0101
0000
0000
0000
0010
0000
0000
0000
,
1000
0000
0000
0001
0000
0000
0100
0000
0110
0000
0000
0000
1000
0000
0010
0000
,
1000
0010
0100
0001
0010
0001
1000
0010
,
0100
0010
0100
0001
1000
0100
0010
0001
,
2000
3000
2002
3003
,
0011
0000
0000
1001
0000
0000
1010
0000
0000
0000
0000
0000
0000
0000
0000
0000
;
