#VERSION:0.83;
#TITLE:Save Me;
#SUBTITLE:;
#ARTIST:LESLIE PARRISH;
#TITLETRANSLIT:;
#SUBTITLETRANSLIT:;
#ARTISTTRANSLIT:;
#GENRE:;
#CREDIT:;
#MUSIC:Save Me.mp3;
#BANNER:1489286246482-1-1.jpg;
#BACKGROUND:Savebg.png;
#CDTITLE:;
#SAMPLESTART:91.600;
#SAMPLELENGTH:10.000;
#SELECTABLE:YES;
#OFFSET:0.000;
#BPMS:0.000=155.771;
#STOPS:;
#BGCHANGES:;
#FGCHANGES:;

//--------------- dance-single - ----------------
#NOTEDATA:;
#STEPSTYPE:dance-single;
#DESCRIPTION:;
#DIFFICULTY:Beginner;
#METER:1;
#RADARVALUES:0.104278,0.185804,0.073732,0,0,99,89,10,0,0,0,0.104278,0.185804,0.073732,0,0,99,89,10,0,0,0;
#NOTES:
0000
0000
0000
0000
,
0000
0000
0000
0000
,
0000
0000
0000
0000
,
0000
0000
0000
0000
,
0000
0000
0000
0000
,
0000
0000
0000
0000
,
0000
0000
0000
0000
,
0000
0000
0000
0000
,
1000
0000
0000
0000
,
0001
0000
0000
0000
,
1000
0000
0000
0000
,
0001
0000
0000
0000
,
0100
0000
0000
0000
,
0010
0000
0000
0000
,
0100
0000
0000
0000
,
0010
0010
0010
0010
,
1000
0000
0000
0000
,
0001
0000
0000
0000
,
1000
0000
0000
0000
,
0001
0000
0000
0000
,
1000
0000
0000
0000
,
0000
0000
0010
0010
,
0010
0000
0000
1000
,
1000
0000
0001
0001
,
0001
0000
0000
1000
,
0000
0000
0000
0000
,
0001
0000
0000
0000
,
1000
0000
0000
0000
,
0010
0000
0000
0000
,
1000
0000
0000
0000
,
0100
0000
0000
0000
,
0010
0000
0000
0000
,
0001
0000
0100
0100
,
0000
0000
0000
0000
,
1001
0000
0000
0000
,
0010
0000
0000
0000
,
1001
0000
0100
0100
,
0000
0000
0000
0000
,
1000
0000
0000
0000
,
0001
0000
0000
0000
,
1000
0000
0000
0000
,
0001
0000
0000
0000
,
1001
0000
0000
0000
,
0010
0000
0000
0000
,
0010
0000
0000
0000
,
0010
0000
0000
0000
,
0100
0000
0000
0000
,
0100
0000
0000
0000
,
1000
0000
0000
0000
,
1001
0000
0010
0000
,
0010
0000
0000
0000
,
0100
0000
0000
0000
,
0100
0000
0000
0000
,
0010
0000
0000
0000
,
0110
0000
0000
0000
,
1000
0000
0000
0000
,
0001
0000
0000
0000
,
1000
0000
0000
0000
,
0001
0000
0000
0000
,
1001
0000
0000
0000
,
0110
0000
0000
0000
,
1000
0000
0000
0000
,
0001
0000
0000
0000
,
1000
0000
0000
0000
,
0100
0000
0000
0000
,
1000
0000
0000
0000
,
0010
0000
0000
0000
,
0100
0000
0000
0000
,
1001
0000
0000
0000
,
0100
0000
0000
0000
,
0001
0000
0000
0000
,
1000
0000
0000
0000
,
0100
0000
0000
0000
,
0100
0000
0000
0000
,
0010
0000
0000
0000
,
0010
0000
0100
0000
,
1001
0000
0100
0000
,
0000
0000
1000
0000
,
0000
0000
0001
0000
,
0000
0000
1000
0000
,
0100
0000
0000
0000
,
0001
0000
0000
0000
,
1000
0000
0000
0000
,
0001
0000
0000
0000
,
0110
0000
0000
0000
;

//--------------- dance-single - ----------------
#NOTEDATA:;
#STEPSTYPE:dance-single;
#DESCRIPTION:;
#DIFFICULTY:Easy;
#METER:3;
#RADARVALUES:0.253847,0.309673,0.125344,0.110597,0,241,224,17,15,0,0,0.253847,0.309673,0.125344,0.110597,0,241,224,17,15,0,0;
#NOTES:
0000
0000
0000
0000
,
0000
0000
0000
0000
,
0000
0000
0000
0000
,
0000
0000
0000
0000
,
0000
0000
0000
0000
,
1000
0000
0000
0000
,
0001
0000
0000
0000
,
1000
0000
0000
0000
,
1001
0000
0000
1000
0000
0000
0000
1000
,
0000
0000
0000
0010
0000
0000
0000
1000
,
0000
0000
0000
0001
0000
0000
0000
1000
,
0000
0100
0000
0001
0000
0100
0000
1000
,
0000
0001
1000
0000
,
0001
0000
1000
0000
,
0100
0000
1000
0000
,
0001
1000
0001
0100
,
0001
1000
0100
0000
,
1001
0000
0000
1000
,
1000
0001
0001
2002
,
0000
0000
0000
0000
0000
3003
0000
0000
,
0100
0100
0100
0010
,
0010
0000
1000
1000
,
1000
0000
0000
0001
,
1000
1000
0001
0100
,
0110
0000
1000
2000
,
3000
0000
0000
0000
,
0001
1000
0001
0100
,
0010
0000
0000
1000
,
1000
0100
0100
0010
,
0010
0000
0001
0001
,
1001
0000
0000
0100
,
1000
0010
0100
0100
,
0100
0000
0010
0110
,
0000
1000
1000
0001
,
0001
0000
0002
0000
0000
0000
0000
0003
,
0000
1000
0001
1000
,
0001
1000
0100
1000
,
0001
0100
0001
1000
,
1001
0000
0100
0000
,
0200
0300
0001
2000
,
3000
0001
0100
0000
,
2002
0000
3003
0000
2000
0000
0000
3000
,
0001
0001
0000
0000
,
0100
0100
0100
0010
,
0010
0010
0100
0000
,
1000
0000
0001
0000
,
1001
1001
1001
0000
,
0100
0000
0010
0000
,
0100
0000
0000
1000
,
0002
0000
0000
0003
,
1000
0000
0001
0000
,
1000
0000
0100
0000
,
1000
0000
0001
0000
,
0100
0000
0001
0001
,
1000
0000
0010
0100
,
1000
0000
0001
0000
,
0100
0000
1000
0001
,
1000
0100
0100
0100
,
1000
1000
1000
0001
,
2002
3003
2000
0000
,
3100
0100
0000
0000
,
0001
1000
0001
1000
,
0001
0001
0001
0000
,
1000
1000
1000
0100
,
0100
0100
1000
0000
,
0001
0100
0001
0100
,
0001
0000
0000
1100
,
1100
1100
0001
0001
,
0001
1000
0000
0000
,
0001
1000
0001
0100
,
0100
0100
0001
0000
,
1000
0001
1000
0001
,
1000
0100
0100
0000
,
0100
0001
0001
1000
,
0100
0000
0000
0001
,
2002
0000
0000
3003
,
1000
0001
1000
0001
,
1000
0100
0100
0100
,
0100
1000
0001
1000
,
0001
1000
0010
0010
,
0010
0010
0001
1000
,
0001
1000
0001
0100
,
0001
1000
0010
1000
,
0001
0001
0001
0001
,
0101
0000
0000
0000
;

//--------------- dance-single - ----------------
#NOTEDATA:;
#STEPSTYPE:dance-single;
#DESCRIPTION:;
#DIFFICULTY:Medium;
#METER:7;
#RADARVALUES:0.494002,0.560729,0.353912,0.14009,0,469,421,48,19,0,0,0.494002,0.560729,0.353912,0.14009,0,469,421,48,19,0,0;
#NOTES:
0000
0000
0000
0000
,
0000
0000
0000
0000
,
0000
0000
0000
0000
,
0000
0000
0000
0000
,
0100
0000
0100
0000
0100
0000
1000
0001
,
2000
0000
0000
0000
3000
0000
1000
0001
,
2000
0000
0000
0000
3000
0000
0001
1000
,
0002
0000
0000
0003
,
1000
0001
0000
0001
0000
0001
0000
1000
,
0000
1000
0000
1000
0000
0100
0000
0100
,
0000
0100
0000
0010
0000
0010
0000
0010
,
0000
0001
0000
0001
0000
0001
0000
1000
,
0010
1000
0000
0001
0100
0001
0000
0010
,
0100
0010
0000
1000
0001
1000
0000
0010
,
0100
0010
0000
1000
0001
1000
0000
0001
,
1000
0001
0010
0100
0010
0001
1000
0001
,
0100
0010
1000
0000
1000
0000
1000
0000
,
0001
0000
0001
0000
0001
0000
1000
0001
,
0100
0010
1000
0010
1000
0100
0000
0100
,
0000
1000
0000
1000
0000
1000
0001
1000
,
0001
0100
0001
0100
0010
1000
0001
1000
,
0000
0100
0000
0010
0000
0001
0100
0010
,
1000
1000
0010
0010
,
0100
0100
0001
0001
,
1000
0000
0001
0000
0100
0001
0100
0010
,
0000
1000
0000
0001
0000
0100
0001
1000
,
0100
0010
0001
0010
0100
1000
0100
0010
,
0000
0010
0000
0010
0000
0010
0001
0010
,
0100
1000
0001
1000
0001
0100
0010
0100
,
0000
0101
0000
1010
0000
0101
0000
1100
,
0000
1001
0000
1001
0000
1000
0001
1000
,
0001
1000
0010
0100
0001
1000
0100
1000
,
0001
1000
0010
1010
,
0001
0100
0001
1000
,
0100
0000
1000
0100
1000
0100
0010
0100
,
0010
0001
0010
0001
0100
0010
0100
0010
,
1000
0100
1100
1001
,
0000
0000
0001
1000
0000
1000
0001
0000
,
1001
0000
1000
0001
1000
0001
1000
0000
,
1000
0100
0010
0001
1000
0000
0001
0000
,
0001
0010
0100
1000
0100
0000
0100
0000
,
2002
0000
3003
0000
0200
0000
0000
0300
,
0001
2002
0000
3003
,
0001
1000
0001
1000
0001
0000
1000
0000
,
1001
0110
1001
0001
,
0010
0100
0010
0100
0010
0100
0010
0000
,
1001
0110
1001
1000
,
0001
0100
0001
0100
0001
0000
1000
0000
,
1000
0000
1000
0000
0001
0000
0001
1000
,
0001
0010
0100
0010
0200
0000
0000
0300
,
1000
1000
0001
0001
,
1001
0110
1001
0110
,
1000
0001
1000
0010
0100
0010
0100
0001
,
0010
0100
1000
0100
0010
0001
1000
0000
,
0002
0000
1000
0003
1001
0000
0010
0100
,
0010
0000
0010
0000
0100
0001
1000
0000
,
0010
0000
1000
0000
0001
1000
0010
0000
,
1000
0001
0100
0010
1000
0100
0010
0001
,
0010
0100
0010
0100
1000
0100
1000
0001
,
2000
0000
0000
3000
0002
0000
0000
0003
,
1001
0000
0220
0000
0000
0330
0000
1000
,
0001
1000
0010
0100
0010
1000
0001
0000
,
1001
1001
0110
1000
,
0001
1000
0001
0010
0001
0100
0001
0000
,
1010
0101
1100
0001
,
1000
0001
0100
0000
0010
0000
0010
0000
,
0010
0000
1000
0100
1000
0001
1000
0010
,
1000
0001
0100
0001
1000
0001
1000
0000
,
1001
0000
0220
0000
0000
0330
0000
0000
,
1000
0001
0010
0100
1000
0100
0010
0000
,
1001
0110
1001
0001
,
1000
0001
1000
0001
1000
0000
1001
0000
,
0110
1001
0110
1001
,
1100
1001
0101
1001
,
0200
0000
0000
0300
0001
1000
0001
1000
,
0002
0000
1003
0001
,
1000
0001
1000
0001
1000
0000
1000
0000
,
0001
0100
0001
0010
,
0100
0010
0100
0010
0100
0000
0001
0000
,
1000
0001
1000
0000
1000
0100
1001
0000
,
0010
0000
1100
0000
1000
0010
0100
0000
,
1000
0000
0011
0000
0010
0100
1000
0000
,
0001
0010
0100
1000
0001
1000
0001
1000
,
0100
0010
0100
1000
0001
1000
0001
0010
,
0200
0000
0300
0000
;

//--------------- dance-single - ----------------
#NOTEDATA:;
#STEPSTYPE:dance-single;
#DESCRIPTION:;
#DIFFICULTY:Hard;
#METER:9;
#RADARVALUES:0.611973,0.74598,0.117971,0.16221,0.191702,581,565,16,22,0,0,0.611973,0.74598,0.117971,0.16221,0.191702,581,565,16,22,0,0;
#NOTES:
0000
0000
0000
0000
,
0000
0000
0000
0000
,
0000
0000
0000
0000
,
0000
0000
0000
0000
,
2000
0000
0001
0000
3001
0000
0001
1000
,
0200
0000
0010
0000
0310
0000
0001
0001
,
0200
0000
0001
0000
0301
0000
0010
0100
,
2000
0001
0010
3001
,
0100
0001
0000
1000
0000
0001
0000
0001
,
0000
0100
0000
0100
0000
1000
0000
1000
,
0000
0010
0000
0010
0000
0001
0000
0001
,
0000
0100
0000
0100
0000
1000
0000
1000
,
0001
0000
1000
0000
0100
0010
0100
0000
1000
0000
0001
0000
0010
0100
0010
0000
,
0001
0000
1000
0000
0001
1000
0001
0000
0010
0000
0001
0000
1000
0100
1000
0000
,
0001
0000
0010
0000
0001
1000
0001
0000
1000
0000
0010
0000
0100
0001
0100
0000
,
0001
0000
1000
0000
0100
1000
0100
0000
1000
0000
0001
0000
1000
0001
1000
0001
,
1000
0100
0001
1000
0100
0010
0001
1000
,
0001
0000
0010
0000
0100
0000
1000
0000
0001
0000
0010
0000
0001
0000
1000
0100
,
0010
0001
1000
0010
1000
0100
1000
0001
,
0100
0000
0001
0000
1000
0000
0010
0000
1000
0000
0001
0000
0100
0000
0001
0010
,
0100
1000
0010
0100
0001
0100
0010
1000
,
0001
0000
1000
0000
0010
0000
0000
0000
0100
0001
0100
0000
1000
0000
0200
0000
,
0000
0300
1000
0000
0010
0000
0100
0000
0001
0000
0100
0000
0010
0000
1000
0000
,
0010
0100
0010
1000
0000
0001
0100
0010
,
1000
0000
0001
0000
0100
0000
0001
0000
1000
0000
0001
0010
0001
0000
1000
0000
,
0001
0010
0100
1000
0001
1000
0001
1000
,
0010
0100
1000
0001
0100
0010
1000
0001
,
0100
0000
0010
0000
1000
0000
0001
0000
1000
0000
0010
0000
0100
0000
0001
0100
,
0001
0010
0001
1000
0001
0100
1000
0100
,
0001
1000
0001
1000
0001
0100
1000
0100
,
0010
0001
1000
0010
0001
0010
1000
0100
,
0000
0000
0001
1000
0000
0110
0000
1001
,
0000
0000
0100
0000
0100
0000
0000
0000
1000
0000
0010
1000
0010
0000
0000
0000
,
0100
0001
1000
0100
0010
0001
1000
0001
,
0100
0001
1000
0100
1000
0001
1000
0010
,
0100
0001
0100
0010
1000
0001
0010
0100
,
0010
0001
1000
1100
,
0000
0000
0001
1000
0000
0110
0000
1001
,
0000
0000
0001
0000
1000
0000
1000
1000
,
0001
0001
0100
0100
0001
0010
0100
0010
,
0100
1000
0001
1000
0010
0100
0010
0100
,
2002
0000
0000
3003
0100
0001
1000
0001
,
1000
0000
0000
0000
2002
0000
0000
0000
0000
0000
0000
0000
0000
3003
0000
0000
,
0001
1000
0010
1000
0000
0100
1000
0001
,
1000
0100
0000
0000
0001
0100
0000
0000
1000
0001
0000
0000
0001
0000
1000
0000
,
0010
1000
0100
0010
0100
0010
0001
0000
,
0001
0010
0000
0000
0010
0001
0000
0000
0100
0001
0000
0000
0001
0000
1000
0000
,
0010
0100
0001
1000
0010
0100
0010
1000
,
0100
1000
0001
0010
0001
1000
0100
0001
,
2000
0000
0000
0000
0100
3000
0000
0000
0002
0000
0000
0000
0000
0003
0000
0000
,
0001
0100
1000
0100
1000
0001
0010
0001
,
1000
0001
0100
0001
1000
0010
0100
0001
,
1000
0010
0100
0001
0010
0100
1000
0001
,
0010
0001
0100
0001
0010
0001
1000
0010
,
1000
0001
0100
0001
1000
0010
0100
0001
,
1000
0100
1000
0100
0000
1001
0000
0110
,
0000
1001
0000
0000
0100
1000
0001
1000
,
0100
0010
0010
0001
0100
0100
0001
0010
,
0100
0100
1000
0001
0010
1000
0001
1000
,
2002
0000
0000
0000
0000
3003
0000
0000
0220
0000
0000
0000
0330
0000
0000
0000
,
2002
0000
0000
0000
0000
3003
0000
0010
,
0100
0001
1000
0010
0000
0010
1000
0100
,
1000
0001
0000
0000
0010
0100
0000
0000
0001
1000
0000
0000
1000
0000
0010
0000
,
0010
0100
0001
1000
0010
1000
0001
0000
,
1000
0010
0000
0000
1000
0100
0000
0000
0001
0100
0000
0000
0001
0000
0010
0000
,
0100
0010
0100
1000
0001
1000
0001
0100
,
0010
0000
0100
0000
0001
0000
1000
0001
,
0010
0100
0010
0001
0000
1000
0001
0100
,
0001
0000
1001
0000
0020
0000
0000
0030
,
0100
1000
0001
1000
0100
1000
0001
0100
,
0001
0100
0000
0000
1000
0001
0000
0000
1000
0001
0000
0000
0001
0000
1000
0000
,
0010
1000
0010
0100
0000
0001
1000
0001
,
1000
0100
0000
0000
0010
1000
0000
0000
0100
1000
0000
0000
0001
0000
0010
0000
,
0100
1000
0001
0100
0010
1000
0000
0010
,
0000
0100
0000
0010
0000
0001
1000
0001
,
1000
0000
0020
0000
0000
0030
0000
0000
2000
0000
0000
0000
0000
3000
0000
0000
,
0100
1000
0000
1000
0100
0000
0010
0000
0001
0000
1000
0000
0100
0000
1000
0000
,
0001
1000
0100
1000
0001
0010
0001
1000
,
0010
1000
0000
0001
0100
0000
0000
0000
0001
1000
0000
0000
0100
0000
1000
0000
,
0001
0010
0000
0100
1000
0000
0001
0000
1000
0001
1000
0000
0100
0000
0010
0000
,
0100
1000
0000
0000
0001
0000
0010
0000
1001
0000
0100
0000
1000
0000
0001
1000
,
0001
0000
1000
0100
1000
0000
0001
0010
0001
0000
0100
0010
0100
0000
0010
0100
,
0010
0000
1000
0001
1000
0000
0001
0000
1000
0000
0001
0000
1000
0000
0001
0000
,
0010
0100
0010
0000
1000
0000
0001
0000
1000
0001
1000
0001
1000
0001
1000
0000
,
2002
0000
0000
0000
0000
3003
0000
0000
0000
0000
0000
0000
0000
0000
0000
0000
;
