#TITLE:Without Knowing;
#SUBTITLE:;
#ARTIST:MIMI feat. Akara Kai;
#TITLETRANSLIT:;
#SUBTITLETRANSLIT:;
#ARTISTTRANSLIT:;
#GENRE:;
#CREDIT:;
#BANNER:bn.png;
#BACKGROUND:bg.png;
#LYRICSPATH:;
#CDTITLE:;
#MUSIC:audio.ogg;
#OFFSET:-0.084000;
#SAMPLESTART:56.014046;
#SAMPLELENGTH:14.999998;
#SELECTABLE:YES;
#BPMS:0.000000=192.000000
;
#STOPS:
;
#BGCHANGES:0.000=MV.avi=1.000=0=0=0=StretchNoLoop====,
99999=-nosongbg-=1.000=0=0=0 // don't automatically add -songbackground-
;
#KEYSOUNDS:;
#ATTACKS:;

//---------------dance-single - ----------------
#NOTES:
     dance-single:
     :
     Hard:
     13:
     0.681460,0.664063,0.202206,0.376838,0.036765,519.000000,497.000000,22.000000,41.000000,0.000000,0.000000,0.681460,0.664063,0.202206,0.376838,0.036765,519.000000,497.000000,22.000000,41.000000,0.000000,0.000000:
// measure 0
0000
0000
0002
0000
,  // measure 1
1003
0000
1000
0100
0010
0001
2000
0000
,  // measure 2
3001
1000
0010
0000
0100
0000
0001
1000
,  // measure 3
0100
1000
0001
0010
0000
0001
0100
0001
,  // measure 4
0000
1000
0100
0000
1000
0000
0002
0000
,  // measure 5
1003
0000
0010
0100
0001
0010
0200
0000
,  // measure 6
1300
0001
0010
0000
1000
0000
0001
1000
,  // measure 7
0001
0000
1000
0100
0001
0100
1000
0001
,  // measure 8
0000
0001
1000
0000
0100
0000
0100
0010
,  // measure 9
0001
0000
1000
0010
0100
0010
2000
0000
,  // measure 10
3001
0010
0100
0000
1000
0000
0001
0100
,  // measure 11
0001
1000
0100
1000
0000
0001
0100
0010
,  // measure 12
0000
0010
0100
0000
0001
0000
2000
0000
,  // measure 13
3100
0000
0001
1000
0010
1000
0020
0000
,  // measure 14
1030
0100
0010
0000
0001
0000
1000
0001
,  // measure 15
1000
0100
0001
0100
0000
0100
1000
0001
,  // measure 16
0000
0001
0010
0000
0001
1000
0001
0000
,  // measure 17
0010
0100
1000
0001
1000
0000
0011
0000
,  // measure 18
1000
0001
0100
0010
0100
1000
0100
0010
,  // measure 19
0001
0010
1000
0001
1000
0000
1010
0000
,  // measure 20
0001
0000
0000
0010
0000
0000
0100
0000
0000
0010
0000
0000
0001
0000
0000
0000
0000
0000
1000
0000
0100
0000
1000
0000
,  // measure 21
0100
1000
0100
0010
0001
0000
1001
0000
,  // measure 22
0001
1000
0010
0100
0010
0001
0010
0100
,  // measure 23
1000
0100
0001
1000
0001
0000
1001
0000
,  // measure 24
0100
0010
0100
0000
0001
1000
0001
1000
,  // measure 25
0100
1000
0001
0010
0100
0000
2000
0000
,  // measure 26
3001
0010
0001
1000
0010
0000
0000
0000
,  // measure 27
0002
0000
1003
0010
1000
0020
0000
2030
,  // measure 28
0000
0000
0000
3100
0000
0000
0001
0000
0000
0100
0000
0000
1000
0000
0000
0000
0000
0000
0001
0000
1000
0000
0001
0000
,  // measure 29
1000
0100
1000
0001
0010
0000
2000
0000
,  // measure 30
3001
0100
0001
1000
0100
0000
0000
0000
,  // measure 31
1000
0001
1000
0100
0010
0000
0100
0000
,  // measure 32
1000
0001
0010
0000
0001
1000
0100
0010
,  // measure 33
0002
0000
1003
0010
1000
0001
0010
0100
,  // measure 34
2000
0000
3001
0010
0001
0000
0000
0000
,  // measure 35
0010
0010
1000
0001
1000
0100
0010
0001
,  // measure 36
0100
0000
0000
0001
0000
0000
1000
0000
0000
0100
0000
0000
0010
0000
0000
0000
0000
0000
0001
0000
1000
0000
0001
0000
,  // measure 37
2000
0000
3010
0100
0001
0010
0100
1000
,  // measure 38
0002
0000
1003
0010
1000
0000
0000
0000
,  // measure 39
1000
0001
0010
0001
0100
0000
0001
0000
,  // measure 40
1000
0100
0010
0000
0010
0100
1000
0000
,  // measure 41
0002
0000
0003
0001
0000
0000
0000
0000
,  // measure 42
2000
0000
3000
1000
0000
0000
0000
0000
,  // measure 43
0020
0000
0030
0010
0000
0000
0000
0000
,  // measure 44
2000
0000
3002
0000
,  // measure 45
2003
0000
3100
0010
0001
0010
0200
0000
,  // measure 46
1300
0001
1000
0000
1001
0000
0002
0000
,  // measure 47
0103
0000
1000
0010
0000
1000
0001
0100
,  // measure 48
0000
0100
0010
0001
0010
0000
0200
0000
,  // measure 49
0301
0000
1000
0100
0010
0001
0020
0000
,  // measure 50
0031
1000
0001
0000
0110
0000
0010
1000
,  // measure 51
0001
1000
0000
0001
0000
0001
0100
0001
,  // measure 52
1000
0100
0010
0100
1000
0001
0100
0010
,  // measure 53
0002
0000
0013
0100
0010
0000
1000
0000
,  // measure 54
0001
0010
0100
0000
1100
0000
2000
0000
,  // measure 55
3001
0000
0001
0100
0000
0001
0010
0001
,  // measure 56
0000
1000
0010
1000
0001
0000
0100
0010
,  // measure 57
0100
0000
0001
0100
1000
0100
0002
0000
,  // measure 58
1003
0100
0010
0000
0110
0000
0001
1000
,  // measure 59
0001
0000
0010
0001
0000
1000
0010
1000
,  // measure 60
0100
0000
1100
0000
1000
0001
0010
0000
,  // measure 61
0201
0000
0301
1000
0001
1000
0020
0000
,  // measure 62
1030
0100
1000
0000
1010
0000
0010
1000
,  // measure 63
0002
0000
1003
0100
0010
0100
1000
0000
,  // measure 64
0001
0010
0001
0000
1001
0000
0020
0000
,  // measure 65
1030
0000
0001
0010
1000
0010
0002
0000
,  // measure 66
1003
0100
0010
0000
1100
0000
0100
0010
,  // measure 67
0002
0000
0103
0010
0100
0001
1000
0100
,  // measure 68
0010
0100
1000
0010
0100
0000
0110
0000
,  // measure 69
1001
0000
0001
0100
1000
0100
0002
0000
,  // measure 70
0103
0010
1000
0000
1010
0000
0001
1000
,  // measure 71
0200
0000
1300
0001
1000
0000
0010
0000
,  // measure 72
1000
0001
0100
0000
0011
0000
2000
0000
,  // measure 73
3001
0000
1000
0001
1000
0100
0020
0000
,  // measure 74
0031
0010
0100
0000
1001
0000
0001
0100
,  // measure 75
0002
0000
1003
0001
0010
0001
0100
0000
,  // measure 76
0001
0000
1000
0010
1000
0001
0100
0001
,  // measure 77
0010
0100
1000
0001
1000
0000
0011
0000
,  // measure 78
1000
0001
0100
0010
0100
1000
0100
0010
,  // measure 79
0001
0010
1000
0001
1000
0000
1010
0000
,  // measure 80
0001
0000
0000
0010
0000
0000
0100
0000
0000
0010
0000
0000
0001
0000
0000
0000
0000
0000
1000
0000
0100
0000
1000
0000
,  // measure 81
0100
1000
0100
0010
0001
0000
1001
0000
,  // measure 82
0001
1000
0010
0100
0010
0001
0010
0100
,  // measure 83
1000
0100
0001
1000
0001
0000
1001
0000
,  // measure 84
0100
0010
1000
0100
2000
0000
0000
0000
,  // measure 85
3000
0000
0000
0000
;

//---------------dance-single - ----------------
#NOTES:
     dance-single:
     :
     Medium:
     11:
     0.552784,0.585938,0.174632,0.284926,0.000000,421.000000,402.000000,19.000000,31.000000,0.000000,0.000000,0.552784,0.585938,0.174632,0.284926,0.000000,421.000000,402.000000,19.000000,31.000000,0.000000,0.000000:
// measure 0
0000
0000
0000
0000
,  // measure 1
0001
1000
0100
1000
,  // measure 2
0001
0010
0200
0000
1300
0000
0001
0000
,  // measure 3
0100
0000
0001
0010
0000
0010
0001
1000
,  // measure 4
0000
1000
0100
0000
0010
0000
0001
0000
,  // measure 5
1000
0010
0100
0001
,  // measure 6
1000
0001
0200
0000
0301
0000
0001
0000
,  // measure 7
1000
0000
0100
0010
0000
0010
0000
0001
,  // measure 8
0000
1000
0010
0100
0000
0001
0010
0100
,  // measure 9
1000
0010
0100
0001
,  // measure 10
0010
0100
2000
0000
3001
0000
0010
0100
,  // measure 11
0010
0000
1000
0100
0000
0100
1000
0001
,  // measure 12
0000
0001
1000
0000
0010
0000
0100
0000
,  // measure 13
1000
0000
0100
0000
0100
0001
2000
0000
,  // measure 14
3001
0010
0100
0000
1000
0000
1000
0100
,  // measure 15
0010
0000
0001
1000
0000
0010
0100
0001
,  // measure 16
0000
0001
1000
0000
0100
1000
0010
0000
,  // measure 17
0001
0000
0001
1000
0010
0000
0000
0000
,  // measure 18
0100
0000
0001
1000
0100
0000
0010
0000
,  // measure 19
0001
0000
0100
0001
0100
0000
0010
0000
,  // measure 20
1000
0100
0010
0001
1000
0000
0002
0000
,  // measure 21
0103
0000
0010
0100
0010
0000
0000
0000
,  // measure 22
1000
0000
0010
1000
0010
0000
0100
0000
,  // measure 23
0001
0000
0010
0001
0010
0000
0100
0000
,  // measure 24
1000
0100
0010
0000
0001
0000
0010
0100
,  // measure 25
1000
0010
0100
2000
,  // measure 26
3001
0010
0100
0000
,  // measure 27
2000
0000
3001
0100
0010
0000
1000
0000
,  // measure 28
0001
0000
0001
0010
0100
0000
1000
0000
,  // measure 29
0001
0001
0100
0002
,  // measure 30
0013
0001
1000
0000
,  // measure 31
0001
0010
0100
1000
,  // measure 32
0001
0100
0001
0000
1000
0010
1000
0100
,  // measure 33
0020
0000
0031
0000
1000
0000
0100
0010
,  // measure 34
0002
1003
0010
0000
,  // measure 35
1000
0010
0100
0001
1000
0000
0100
0000
,  // measure 36
1000
0001
0100
0001
,  // measure 37
2000
3100
0010
0001
,  // measure 38
2000
3010
0100
0000
,  // measure 39
0001
0000
1000
0000
0100
0000
0010
0001
,  // measure 40
1000
0000
0010
0000
0100
0010
0100
0000
,  // measure 41
0001
0000
0000
0001
0000
0000
0000
0000
,  // measure 42
1000
0000
0000
1000
0000
0000
0000
0000
,  // measure 43
0001
0000
0000
0001
0000
0000
0000
0000
,  // measure 44
1001
0000
0110
0000
,  // measure 45
1000
0001
0100
0010
,  // measure 46
1000
0100
0020
0000
0031
0000
1000
0000
,  // measure 47
0010
0000
0100
0001
0000
1000
0000
0100
,  // measure 48
0000
0010
0001
1000
0010
0000
0100
0000
,  // measure 49
0001
0000
1000
0100
0000
0010
0001
0000
,  // measure 50
1000
0010
0200
0000
0301
0000
1000
0100
,  // measure 51
0010
0100
0000
1000
0000
0010
0100
0001
,  // measure 52
1000
1000
0010
0100
,  // measure 53
1001
0010
0100
1000
,  // measure 54
0100
0010
0002
0000
0013
0000
0100
1000
,  // measure 55
0100
0000
0010
0001
0000
1000
0010
0100
,  // measure 56
0000
0010
1000
0000
0001
0000
0010
0100
,  // measure 57
1000
0001
1000
0100
,  // measure 58
1000
0100
0020
0000
0031
0000
0100
0010
,  // measure 59
1000
0000
0001
0100
0000
0001
1000
0001
,  // measure 60
0010
0010
0100
1000
,  // measure 61
1001
0000
0000
0000
0000
0000
0000
0000
0000
0000
0000
0000
0000
0000
0000
0000
0000
0000
0000
0000
0000
0000
0000
0000
0000
0000
0000
0000
0000
0000
0000
0000
0000
0000
0000
0000
0000
0000
0000
0000
0000
0000
0000
0000
0000
0000
0000
0000
0010
0000
0000
0000
0000
0000
0000
0000
0000
0000
0000
0000
0000
0000
0000
0000
0000
0000
0000
0000
0000
0000
0000
0000
0000
0000
0000
0000
0000
0000
0000
0000
0000
0000
0000
0000
0000
0000
0000
0000
0000
0000
0000
0000
0000
0000
0000
0000
0100
0000
0000
0000
0000
0000
0000
0000
0000
0000
0000
0000
0000
0000
0000
0000
0000
0000
0000
0000
0000
0000
0000
0000
0001
0000
0000
0000
0000
0000
0000
0000
0000
0000
0000
0000
0000
0000
0000
0000
0000
0000
0000
0000
0000
0000
0000
0000
2000
0000
0000
0000
0000
0000
0000
0000
0000
0000
0000
0000
0000
0000
0000
0000
0000
0000
0000
0000
0000
0000
0000
0000
0000
0000
0000
0000
0000
0000
0000
0000
0000
0000
0000
0000
0000
0000
0000
0000
0000
0000
0000
0000
0000
0000
0000
3000
,  // measure 62
1100
0000
0000
0000
0000
0000
0000
0000
0000
0000
0000
0000
0000
0000
0000
0000
0000
0000
0000
0000
0000
0000
0000
0000
0000
0000
0000
0000
0000
0000
0000
0000
0000
0000
0000
0000
0000
0000
0000
0000
0000
0000
0000
0000
0000
0000
0000
0000
0100
0000
0000
0000
0000
0000
0000
0000
0000
0000
0000
0000
0000
0000
0000
0000
0000
0000
0000
0000
0000
0000
0000
0000
0010
0000
0000
0000
0000
0000
0000
0000
0000
0000
0000
0000
0000
0000
0000
0000
0000
0000
0000
0000
0000
0000
0000
0000
0001
0000
0000
0000
0000
0000
0000
0000
0000
0000
0000
0000
0000
0000
0000
0000
0000
0000
0000
0000
0000
0000
0000
0000
0000
0000
0000
0000
0000
0000
0000
0000
0000
0000
0000
0000
0000
0000
0000
0000
0000
0000
0000
0000
0000
0000
0000
0000
0002
0000
0000
0000
0000
0000
0000
0000
0000
0000
0000
0000
0000
0000
0000
0000
0000
0000
0000
0000
0000
0000
0000
0000
0000
0000
0000
0000
0000
0000
0000
0000
0000
0000
0000
0000
0000
0000
0000
0000
0000
0000
0000
0000
0000
0000
0000
0003
,  // measure 63
0101
0000
0000
0000
0000
0000
0000
0000
0000
0000
0000
0000
0000
0000
0000
0000
0000
0000
0000
0000
0000
0000
0000
0000
0000
0000
0000
0000
0000
0000
0000
0000
0000
0000
0000
0000
0000
0000
0000
0000
0000
0000
0000
0000
0000
0000
0000
0000
1000
0000
0000
0000
0000
0000
0000
0000
0000
0000
0000
0000
0000
0000
0000
0000
0000
0000
0000
0000
0000
0000
0000
0000
0100
0000
0000
0000
0000
0000
0000
0000
0000
0000
0000
0000
0000
0000
0000
0000
0000
0000
0000
0000
0000
0000
0000
0000
0010
0000
0000
0000
0000
0000
0000
0000
0000
0000
0000
0000
0000
0000
0000
0000
0000
0000
0000
0000
0000
0000
0000
0000
0000
0000
0000
0000
0000
0000
0000
0000
0000
0000
0000
0000
0000
0000
0000
0000
0000
0000
0000
0000
0000
0000
0000
0000
0020
0000
0000
0000
0000
0000
0000
0000
0000
0000
0000
0000
0000
0000
0000
0000
0000
0000
0000
0000
0000
0000
0000
0000
0000
0000
0000
0000
0000
0000
0000
0000
0000
0000
0000
0000
0000
0000
0000
0000
0000
0000
0000
0000
0000
0000
0000
0030
,  // measure 64
0011
0000
0000
0000
0000
0000
0000
0000
0000
0000
0000
0000
0000
0000
0000
0000
0000
0000
0000
0000
0000
0000
0000
0000
0000
0000
0000
0000
0000
0000
0000
0000
0000
0000
0000
0000
0000
0000
0000
0000
0000
0000
0000
0000
0000
0000
0000
0000
0001
0000
0000
0000
0000
0000
0000
0000
0000
0000
0000
0000
0000
0000
0000
0000
0000
0000
0000
0000
0000
0000
0000
0000
1000
0000
0000
0000
0000
0000
0000
0000
0000
0000
0000
0000
0000
0000
0000
0000
0000
0000
0000
0000
0000
0000
0000
0000
0010
0000
0000
0000
0000
0000
0000
0000
0000
0000
0000
0000
0000
0000
0000
0000
0000
0000
0000
0000
0000
0000
0000
0000
0000
0000
0000
0000
0000
0000
0000
0000
0000
0000
0000
0000
0000
0000
0000
0000
0000
0000
0000
0000
0000
0000
0000
0000
0020
0000
0000
0000
0000
0000
0000
0000
0000
0000
0000
0000
0000
0000
0000
0000
0000
0000
0000
0000
0000
0000
0000
0000
0000
0000
0000
0000
0000
0000
0000
0000
0000
0000
0000
0000
0000
0000
0000
0000
0000
0000
0000
0000
0000
0000
0000
0030
,  // measure 65
1010
0000
0000
0000
0000
0000
0000
0000
0000
0000
0000
0000
0000
0000
0000
0000
0000
0000
0000
0000
0000
0000
0000
0000
0000
0000
0000
0000
0000
0000
0000
0000
0000
0000
0000
0000
0000
0000
0000
0000
0000
0000
0000
0000
0000
0000
0000
0000
1000
0000
0000
0000
0000
0000
0000
0000
0000
0000
0000
0000
0000
0000
0000
0000
0000
0000
0000
0000
0000
0000
0000
0000
0010
0000
0000
0000
0000
0000
0000
0000
0000
0000
0000
0000
0000
0000
0000
0000
0000
0000
0000
0000
0000
0000
0000
0000
0100
0000
0000
0000
0000
0000
0000
0000
0000
0000
0000
0000
0000
0000
0000
0000
0000
0000
0000
0000
0000
0000
0000
0000
0000
0000
0000
0000
0000
0000
0000
0000
0000
0000
0000
0000
0000
0000
0000
0000
0000
0000
0000
0000
0000
0000
0000
0000
0200
0000
0000
0000
0000
0000
0000
0000
0000
0000
0000
0000
0000
0000
0000
0000
0000
0000
0000
0000
0000
0000
0000
0000
0000
0000
0000
0000
0000
0000
0000
0000
0000
0000
0000
0000
0000
0000
0000
0000
0000
0000
0000
0000
0000
0000
0000
0300
,  // measure 66
0101
0000
0000
0000
0000
0000
0000
0000
0000
0000
0000
0000
0000
0000
0000
0000
0000
0000
0000
0000
0000
0000
0000
0000
0000
0000
0000
0000
0000
0000
0000
0000
0000
0000
0000
0000
0000
0000
0000
0000
0000
0000
0000
0000
0000
0000
0000
0000
0001
0000
0000
0000
0000
0000
0000
0000
0000
0000
0000
0000
0000
0000
0000
0000
0000
0000
0000
0000
0000
0000
0000
0000
0010
0000
0000
0000
0000
0000
0000
0000
0000
0000
0000
0000
0000
0000
0000
0000
0000
0000
0000
0000
0000
0000
0000
0000
1000
0000
0000
0000
0000
0000
0000
0000
0000
0000
0000
0000
0000
0000
0000
0000
0000
0000
0000
0000
0000
0000
0000
0000
0000
0000
0000
0000
0000
0000
0000
0000
0000
0000
0000
0000
0000
0000
0000
0000
0000
0000
0000
0000
0000
0000
0000
0000
2000
0000
0000
0000
0000
0000
0000
0000
0000
0000
0000
0000
0000
0000
0000
0000
0000
0000
0000
0000
0000
0000
0000
0000
0000
0000
0000
0000
0000
0000
0000
0000
0000
0000
0000
0000
0000
0000
0000
0000
0000
0000
0000
0000
0000
0000
0000
3000
,  // measure 67
1010
0000
0000
0000
0000
0000
0000
0000
0000
0000
0000
0000
0000
0000
0000
0000
0000
0000
0000
0000
0000
0000
0000
0000
0000
0000
0000
0000
0000
0000
0000
0000
0000
0000
0000
0000
0000
0000
0000
0000
0000
0000
0000
0000
0000
0000
0000
0000
0010
0000
0000
0000
0000
0000
0000
0000
0000
0000
0000
0000
0000
0000
0000
0000
0000
0000
0000
0000
0000
0000
0000
0000
0001
0000
0000
0000
0000
0000
0000
0000
0000
0000
0000
0000
0000
0000
0000
0000
0000
0000
0000
0000
0000
0000
0000
0000
1000
0000
0000
0000
0000
0000
0000
0000
0000
0000
0000
0000
0000
0000
0000
0000
0000
0000
0000
0000
0000
0000
0000
0000
0000
0000
0000
0000
0000
0000
0000
0000
0000
0000
0000
0000
0000
0000
0000
0000
0000
0000
0000
0000
0000
0000
0000
0000
2000
0000
0000
0000
0000
0000
0000
0000
0000
0000
0000
0000
0000
0000
0000
0000
0000
0000
0000
0000
0000
0000
0000
0000
0000
0000
0000
0000
0000
0000
0000
0000
0000
0000
0000
0000
0000
0000
0000
0000
0000
0000
0000
0000
0000
0000
0000
3000
,  // measure 68
1001
0000
0100
0010
1000
0100
0010
0000
,  // measure 69
1001
0000
0000
0000
0000
0000
0000
0000
0000
0000
0000
0000
0000
0000
0000
0000
0000
0000
0000
0000
0000
0000
0000
0000
0000
0000
0000
0000
0000
0000
0000
0000
0000
0000
0000
0000
0000
0000
0000
0000
0000
0000
0000
0000
0000
0000
0000
0000
1000
0000
0000
0000
0000
0000
0000
0000
0000
0000
0000
0000
0000
0000
0000
0000
0000
0000
0000
0000
0000
0000
0000
0000
0010
0000
0000
0000
0000
0000
0000
0000
0000
0000
0000
0000
0000
0000
0000
0000
0000
0000
0000
0000
0000
0000
0000
0000
0100
0000
0000
0000
0000
0000
0000
0000
0000
0000
0000
0000
0000
0000
0000
0000
0000
0000
0000
0000
0000
0000
0000
0000
0000
0000
0000
0000
0000
0000
0000
0000
0000
0000
0000
0000
0000
0000
0000
0000
0000
0000
0000
0000
0000
0000
0000
0000
0200
0000
0000
0000
0000
0000
0000
0000
0000
0000
0000
0000
0000
0000
0000
0000
0000
0000
0000
0000
0000
0000
0000
0000
0000
0000
0000
0000
0000
0000
0000
0000
0000
0000
0000
0000
0000
0000
0000
0000
0000
0000
0000
0000
0000
0000
0000
0300
,  // measure 70
0101
0000
0000
0000
0000
0000
0000
0000
0000
0000
0000
0000
0000
0000
0000
0000
0000
0000
0000
0000
0000
0000
0000
0000
0000
0000
0000
0000
0000
0000
0000
0000
0000
0000
0000
0000
0000
0000
0000
0000
0000
0000
0000
0000
0000
0000
0000
0000
0001
0000
0000
0000
0000
0000
0000
0000
0000
0000
0000
0000
0000
0000
0000
0000
0000
0000
0000
0000
0000
0000
0000
0000
0010
0000
0000
0000
0000
0000
0000
0000
0000
0000
0000
0000
0000
0000
0000
0000
0000
0000
0000
0000
0000
0000
0000
0000
0100
0000
0000
0000
0000
0000
0000
0000
0000
0000
0000
0000
0000
0000
0000
0000
0000
0000
0000
0000
0000
0000
0000
0000
0000
0000
0000
0000
0000
0000
0000
0000
0000
0000
0000
0000
0000
0000
0000
0000
0000
0000
0000
0000
0000
0000
0000
0000
0200
0000
0000
0000
0000
0000
0000
0000
0000
0000
0000
0000
0000
0000
0000
0000
0000
0000
0000
0000
0000
0000
0000
0000
0000
0000
0000
0000
0000
0000
0000
0000
0000
0000
0000
0000
0000
0000
0000
0000
0000
0000
0000
0000
0000
0000
0000
0300
,  // measure 71
1100
0000
0000
0000
0000
0000
0000
0000
0000
0000
0000
0000
0000
0000
0000
0000
0000
0000
0000
0000
0000
0000
0000
0000
0000
0000
0000
0000
0000
0000
0000
0000
0000
0000
0000
0000
0000
0000
0000
0000
0000
0000
0000
0000
0000
0000
0000
0000
1000
0000
0000
0000
0000
0000
0000
0000
0000
0000
0000
0000
0000
0000
0000
0000
0000
0000
0000
0000
0000
0000
0000
0000
0001
0000
0000
0000
0000
0000
0000
0000
0000
0000
0000
0000
0000
0000
0000
0000
0000
0000
0000
0000
0000
0000
0000
0000
0010
0000
0000
0000
0000
0000
0000
0000
0000
0000
0000
0000
0000
0000
0000
0000
0000
0000
0000
0000
0000
0000
0000
0000
0000
0000
0000
0000
0000
0000
0000
0000
0000
0000
0000
0000
0000
0000
0000
0000
0000
0000
0000
0000
0000
0000
0000
0000
0020
0000
0000
0000
0000
0000
0000
0000
0000
0000
0000
0000
0000
0000
0000
0000
0000
0000
0000
0000
0000
0000
0000
0000
0000
0000
0000
0000
0000
0000
0000
0000
0000
0000
0000
0000
0000
0000
0000
0000
0000
0000
0000
0000
0000
0000
0000
0030
,  // measure 72
0110
0000
0000
0000
0000
0000
0000
0000
0000
0000
0000
0000
0000
0000
0000
0000
0000
0000
0000
0000
0000
0000
0000
0000
0000
0000
0000
0000
0000
0000
0000
0000
0000
0000
0000
0000
0000
0000
0000
0000
0000
0000
0000
0000
0000
0000
0000
0000
0100
0000
0000
0000
0000
0000
0000
0000
0000
0000
0000
0000
0000
0000
0000
0000
0000
0000
0000
0000
0000
0000
0000
0000
1000
0000
0000
0000
0000
0000
0000
0000
0000
0000
0000
0000
0000
0000
0000
0000
0000
0000
0000
0000
0000
0000
0000
0000
0001
0000
0000
0000
0000
0000
0000
0000
0000
0000
0000
0000
0000
0000
0000
0000
0000
0000
0000
0000
0000
0000
0000
0000
0000
0000
0000
0000
0000
0000
0000
0000
0000
0000
0000
0000
0000
0000
0000
0000
0000
0000
0000
0000
0000
0000
0000
0000
0002
0000
0000
0000
0000
0000
0000
0000
0000
0000
0000
0000
0000
0000
0000
0000
0000
0000
0000
0000
0000
0000
0000
0000
0000
0000
0000
0000
0000
0000
0000
0000
0000
0000
0000
0000
0000
0000
0000
0000
0000
0000
0000
0000
0000
0000
0000
0003
,  // measure 73
1001
0000
0000
0000
0000
0000
0000
0000
0000
0000
0000
0000
0000
0000
0000
0000
0000
0000
0000
0000
0000
0000
0000
0000
0000
0000
0000
0000
0000
0000
0000
0000
0000
0000
0000
0000
0000
0000
0000
0000
0000
0000
0000
0000
0000
0000
0000
0000
1000
0000
0000
0000
0000
0000
0000
0000
0000
0000
0000
0000
0000
0000
0000
0000
0000
0000
0000
0000
0000
0000
0000
0000
0100
0000
0000
0000
0000
0000
0000
0000
0000
0000
0000
0000
0000
0000
0000
0000
0000
0000
0000
0000
0000
0000
0000
0000
0010
0000
0000
0000
0000
0000
0000
0000
0000
0000
0000
0000
0000
0000
0000
0000
0000
0000
0000
0000
0000
0000
0000
0000
0000
0000
0000
0000
0000
0000
0000
0000
0000
0000
0000
0000
0000
0000
0000
0000
0000
0000
0000
0000
0000
0000
0000
0000
0020
0000
0000
0000
0000
0000
0000
0000
0000
0000
0000
0000
0000
0000
0000
0000
0000
0000
0000
0000
0000
0000
0000
0000
0000
0000
0000
0000
0000
0000
0000
0000
0000
0000
0000
0000
0000
0000
0000
0000
0000
0000
0000
0000
0000
0000
0000
0030
,  // measure 74
0011
0000
0000
0000
0000
0000
0000
0000
0000
0000
0000
0000
0000
0000
0000
0000
0000
0000
0000
0000
0000
0000
0000
0000
0000
0000
0000
0000
0000
0000
0000
0000
0000
0000
0000
0000
0000
0000
0000
0000
0000
0000
0000
0000
0000
0000
0000
0000
0001
0000
0000
0000
0000
0000
0000
0000
0000
0000
0000
0000
0000
0000
0000
0000
0000
0000
0000
0000
0000
0000
0000
0000
1000
0000
0000
0000
0000
0000
0000
0000
0000
0000
0000
0000
0000
0000
0000
0000
0000
0000
0000
0000
0000
0000
0000
0000
0010
0000
0000
0000
0000
0000
0000
0000
0000
0000
0000
0000
0000
0000
0000
0000
0000
0000
0000
0000
0000
0000
0000
0000
0000
0000
0000
0000
0000
0000
0000
0000
0000
0000
0000
0000
0000
0000
0000
0000
0000
0000
0000
0000
0000
0000
0000
0000
0020
0000
0000
0000
0000
0000
0000
0000
0000
0000
0000
0000
0000
0000
0000
0000
0000
0000
0000
0000
0000
0000
0000
0000
0000
0000
0000
0000
0000
0000
0000
0000
0000
0000
0000
0000
0000
0000
0000
0000
0000
0000
0000
0000
0000
0000
0000
0030
,  // measure 75
1010
0000
0000
0000
0000
0000
0000
0000
0000
0000
0000
0000
0000
0000
0000
0000
0000
0000
0000
0000
0000
0000
0000
0000
0000
0000
0000
0000
0000
0000
0000
0000
0000
0000
0000
0000
0000
0000
0000
0000
0000
0000
0000
0000
0000
0000
0000
0000
1000
0000
0000
0000
0000
0000
0000
0000
0000
0000
0000
0000
0000
0000
0000
0000
0000
0000
0000
0000
0000
0000
0000
0000
0001
0000
0000
0000
0000
0000
0000
0000
0000
0000
0000
0000
0000
0000
0000
0000
0000
0000
0000
0000
0000
0000
0000
0000
0100
0000
0000
0000
0000
0000
0000
0000
0000
0000
0000
0000
0000
0000
0000
0000
0000
0000
0000
0000
0000
0000
0000
0000
0000
0000
0000
0000
0000
0000
0000
0000
0000
0000
0000
0000
0000
0000
0000
0000
0000
0000
0000
0000
0000
0000
0000
0000
0200
0000
0000
0000
0000
0000
0000
0000
0000
0000
0000
0000
0000
0000
0000
0000
0000
0000
0000
0000
0000
0000
0000
0000
0000
0000
0000
0000
0000
0000
0000
0000
0000
0000
0000
0000
0000
0000
0000
0000
0000
0000
0000
0000
0000
0000
0000
0300
,  // measure 76
0101
0000
0001
0100
0010
1000
0001
0010
,  // measure 77
0100
0000
1000
0001
0100
0000
0000
0000
,  // measure 78
0001
0000
1000
0100
0010
0000
0001
0000
,  // measure 79
0001
0000
1000
0010
0100
0000
0001
0000
,  // measure 80
1000
0100
0010
0100
1000
0000
0001
0000
,  // measure 81
0001
0000
0100
0010
1000
0000
0000
0000
,  // measure 82
0010
0000
1000
0001
1000
0000
0001
0000
,  // measure 83
0100
0000
0010
1000
0001
0000
0010
0000
,  // measure 84
0100
1000
0001
0010
0200
0000
0000
0000
,  // measure 85
0300
0000
0000
0000
;

//---------------dance-single - ----------------
#NOTES:
     dance-single:
     :
     Easy:
     4:
     0.358456,0.351563,0.055147,0.082721,0.000000,273.000000,267.000000,6.000000,9.000000,0.000000,0.000000,0.358456,0.351563,0.055147,0.082721,0.000000,273.000000,267.000000,6.000000,9.000000,0.000000,0.000000:
// measure 0
0000
0000
0000
0000
,  // measure 1
0002
0000
1003
0100
,  // measure 2
0010
0000
0001
0000
,  // measure 3
2000
0000
3001
0010
,  // measure 4
0100
0000
1000
0000
,  // measure 5
0002
0000
0013
0100
,  // measure 6
1000
0000
0001
0000
,  // measure 7
0200
0000
0310
1000
,  // measure 8
0100
0010
0001
0000
,  // measure 9
0200
0000
0310
1000
,  // measure 10
0001
0000
1000
0000
,  // measure 11
0200
0000
0310
0001
,  // measure 12
1000
0000
0001
0000
,  // measure 13
0200
0000
0310
1000
,  // measure 14
0100
0000
1000
0000
,  // measure 15
0002
0000
1003
0100
,  // measure 16
1000
0100
0010
0001
,  // measure 17
1000
0000
1010
0000
,  // measure 18
0010
0000
0110
0000
,  // measure 19
0100
0001
0010
0000
,  // measure 20
1000
0100
0010
0001
,  // measure 21
1000
0000
1001
0000
,  // measure 22
0001
0000
0101
0000
,  // measure 23
0010
0100
1000
0000
,  // measure 24
0100
0010
0001
1000
,  // measure 25
0010
1000
0001
0000
,  // measure 26
0001
0010
0100
0000
,  // measure 27
1000
0000
1000
0000
,  // measure 28
0001
0010
0100
1000
,  // measure 29
0100
0010
0001
0000
,  // measure 30
1000
0100
0010
0000
,  // measure 31
0001
0000
0001
0000
,  // measure 32
1000
0100
0010
0001
,  // measure 33
1000
0001
0100
0000
,  // measure 34
1000
0001
1000
0000
,  // measure 35
0001
0010
0100
1000
,  // measure 36
0100
0010
0001
1000
,  // measure 37
0100
1000
0010
0000
,  // measure 38
1000
0001
0100
0000
,  // measure 39
0001
1000
0100
0010
,  // measure 40
0001
1000
0010
0100
,  // measure 41
0001
0000
0001
0000
,  // measure 42
1000
0000
1000
0000
,  // measure 43
0001
0000
0001
0000
,  // measure 44
0110
0000
1001
0000
,  // measure 45
0001
1000
0100
0000
,  // measure 46
0010
0001
1000
0000
,  // measure 47
0001
0010
0100
1000
,  // measure 48
0100
0010
0001
1000
,  // measure 49
0010
0100
0001
0000
,  // measure 50
0001
1000
0001
0000
,  // measure 51
1000
0100
0010
0001
,  // measure 52
1000
0100
1000
0001
,  // measure 53
0010
0001
1000
0000
,  // measure 54
0010
0100
0001
0000
,  // measure 55
1000
0100
0010
0001
,  // measure 56
1000
0010
0100
0001
,  // measure 57
1000
0100
0010
0000
,  // measure 58
0100
1000
0001
0000
,  // measure 59
0100
0001
0010
0100
,  // measure 60
1000
0100
0010
0001
,  // measure 61
1000
0100
0010
0001
,  // measure 62
1000
0010
0100
0001
,  // measure 63
0010
0100
1000
0001
,  // measure 64
0010
0100
1000
0010
,  // measure 65
0100
0001
0010
0001
,  // measure 66
1000
0010
0100
0010
,  // measure 67
1000
0100
1000
0100
,  // measure 68
0010
0001
1000
0010
,  // measure 69
0100
0001
0010
0001
,  // measure 70
1000
0001
0100
1000
,  // measure 71
0100
0001
1000
0001
,  // measure 72
0100
0010
1000
0001
,  // measure 73
1000
0100
0010
0001
,  // measure 74
0010
0100
1000
0001
,  // measure 75
0100
0010
1000
0001
,  // measure 76
0010
0001
0100
0010
,  // measure 77
1000
0000
1000
0000
,  // measure 78
0001
0000
0001
0010
,  // measure 79
0100
1000
0001
0000
,  // measure 80
0100
0010
1000
0000
,  // measure 81
0001
0000
0001
0000
,  // measure 82
0010
0000
0010
0100
,  // measure 83
1000
0100
0010
0000
,  // measure 84
1000
0001
2000
0000
,  // measure 85
3000
0000
0000
0000
;
