#VERSION:0.83;
#TITLE:Why;
#SUBTITLE:;
#ARTIST:Plave;
#TITLETRANSLIT:;
#SUBTITLETRANSLIT:;
#ARTISTTRANSLIT:;
#GENRE:;
#ORIGIN:;
#CREDIT:;
#BANNER:why-bn.png;
#BACKGROUND:bg.png;
#PREVIEWVID:;
#JACKET:jacket.png;
#CDIMAGE:;
#DISCIMAGE:;
#LYRICSPATH:;
#CDTITLE:;
#MUSIC:audio.ogg;
#OFFSET:0.161000;
#SAMPLESTART:66.700935;
#SAMPLELENGTH:14.999995;
#SELECTABLE:YES;
#BPMS:0.000=100.000;
#STOPS:;
#DELAYS:;
#WARPS:;
#TIMESIGNATURES:0.000=4=4;
#TICKCOUNTS:0.000=4;
#COMBOS:0.000=1;
#SPEEDS:0.000=1.000=0.000=0;
#SCROLLS:0.000=1.000,
109.000=0.500,
111.500=0.600,
112.000=0.800,
112.500=0.900,
113.000=1.000,
144.000=0.600,
145.000=0.500,
175.500=0.600,
176.000=0.800,
176.500=0.900,
177.000=1.000;
#FAKES:;
#LABELS:0.000=Song Start;
#BGCHANGES:0.000=MV.avi=1.000=1=0=1===CrossFade==,
99999=-nosongbg-=1.000=0=0=0 // don't automatically add -songbackground-
;
#KEYSOUNDS:;
#ATTACKS:
;

//---------------dance-single - ----------------
#NOTEDATA:;
#CHARTNAME:;
#STEPSTYPE:dance-single;
#DESCRIPTION:;
#CHARTSTYLE:;
#DIFFICULTY:Hard;
#METER:9;
#RADARVALUES:0.318832,0.347408,0.040702,0.644448,0.010175,329.000000,323.000000,6.000000,95.000000,0.000000,0.000000,0.000000,0.000000,0.000000,0.318832,0.347408,0.040702,0.644448,0.010175,329.000000,323.000000,6.000000,95.000000,0.000000,0.000000,0.000000,0.000000,0.000000;
#CREDIT:Musey's Chart;
#NOTES:
// measure 0
0000
0000
0000
0000
,  // measure 1
0000
0000
0000
0000
,  // measure 2
0000
0000
0000
0000
,  // measure 3
0000
0000
0000
0000
,  // measure 4
0000
0000
0000
0000
0000
0000
1000
0010
0002
0000
0000
0000
1003
0000
0000
0000
,  // measure 5
1000
0000
0000
0000
0000
0000
0001
0010
2000
0000
0000
0000
3001
0000
0000
0000
,  // measure 6
0001
0000
0000
0000
0000
0000
1000
0010
0200
0000
0000
0000
0310
0000
0000
0000
,  // measure 7
0010
0000
0000
0000
0000
0000
0000
0100
,  // measure 8
0020
0000
2030
0000
3002
0000
1003
0001
,  // measure 9
1000
0000
2000
0000
3002
0000
1003
0001
,  // measure 10
1000
0000
0001
0010
1000
0010
0002
0000
,  // measure 11
1003
0020
0001
0001
0030
0001
0000
0001
,  // measure 12
0010
0100
0002
0000
0023
0000
0031
0010
,  // measure 13
0001
0000
0020
0000
0032
0000
0013
0001
,  // measure 14
0010
0000
0001
0010
0100
0010
0002
0000
,  // measure 15
0013
0200
1000
1300
0000
1000
0000
2000
,  // measure 16
3020
2030
3001
0000
0000
0001
0000
0000
,  // measure 17
0101
0000
0001
0000
0001
0010
0000
0010
,  // measure 18
0100
0000
0100
0010
0001
0010
1000
0010
,  // measure 19
0100
1000
0001
1000
0000
1000
0000
1000
,  // measure 20
0020
0000
1030
0001
0010
0010
0100
0020
,  // measure 21
0130
0000
1001
1000
0010
1000
0001
0010
,  // measure 22
0200
0000
0310
0001
0200
0000
0310
0000
,  // measure 23
0110
0000
0010
0100
0002
0000
0013
0000
,  // measure 24
0110
0000
0001
0010
1000
0010
0001
0100
,  // measure 25
0010
0001
2000
0000
0000
3100
0000
0100
,  // measure 26
0010
1000
0010
0001
0010
1000
0001
0010
,  // measure 27
1000
0010
0200
0000
0000
1300
0000
1000
,  // measure 28
0100
1000
1000
0000
1000
0001
0000
0001
,  // measure 29
1000
0000
0010
0010
1000
0001
0000
0001
,  // measure 30
0010
0000
0100
0010
0001
1000
0020
0000
,  // measure 31
1030
0000
0001
0001
1000
0010
0000
0010
,  // measure 32
1000
0100
2000
0000
3002
0000
1003
0001
,  // measure 33
1001
0000
0002
0000
2003
0000
3001
1000
,  // measure 34
1001
0000
0100
1000
0100
0001
0200
0000
,  // measure 35
0310
0000
0001
0001
0000
0001
0000
0200
,  // measure 36
0302
0203
0320
0000
0000
1000
2030
0000
,  // measure 37
0000
0000
3002
0000
0000
0013
0020
0000
,  // measure 38
0031
0001
2000
0000
0000
3001
0002
0000
,  // measure 39
0000
0000
0023
0000
0000
0031
0002
0000
,  // measure 40
0000
2003
3020
0230
,  // measure 41
0000
0000
0300
0001
0100
0001
0010
0001
,  // measure 42
0100
0010
0001
1000
0100
0010
1000
0001
,  // measure 43
0010
0100
0000
0100
0000
0010
0000
0100
,  // measure 44
1000
0001
0200
0000
0302
0000
0103
0001
,  // measure 45
0100
0000
0002
0000
0203
0000
0301
0100
,  // measure 46
0001
0000
1000
0001
1000
0010
2000
0000
,  // measure 47
3001
0000
0010
0010
0001
1000
0000
0001
,  // measure 48
1000
0010
2000
0000
3002
0000
1003
1000
,  // measure 49
1000
0000
0002
0000
2003
0000
3001
0001
,  // measure 50
0001
0000
1000
0001
0010
0001
2000
0000
,  // measure 51
3010
0000
1000
1000
0001
1000
0000
2000
,  // measure 52
3002
0023
0032
2003
3001
2000
3000
0002
,  // measure 53
0023
0032
1003
2000
3010
2000
3000
2000
,  // measure 54
3020
2030
3001
0002
0013
0002
0003
0002
,  // measure 55
0203
0320
1030
2000
3100
2000
3000
2000
,  // measure 56
3200
2300
3100
0020
0031
0002
0013
0200
,  // measure 57
1300
1000
0010
2000
3001
0002
0013
0200
,  // measure 58
1300
1000
0010
2000
3001
0020
0130
0020
,  // measure 59
0032
2003
3010
0020
1030
0002
0013
0200
,  // measure 60
1300
2000
3000
0000
0000
0000
0000
0000
;

//---------------dance-single - ----------------
#NOTEDATA:;
#CHARTNAME:;
#STEPSTYPE:dance-single;
#DESCRIPTION:;
#CHARTSTYLE:;
#DIFFICULTY:Challenge;
#METER:9;
#RADARVALUES:0.288790,0.306537,0.013567,0.583395,0.010175,298.000000,296.000000,2.000000,86.000000,116.000000,0.000000,0.000000,0.000000,0.000000,0.288790,0.306537,0.013567,0.583395,0.010175,298.000000,296.000000,2.000000,86.000000,116.000000,0.000000,0.000000,0.000000,0.000000;
#CREDIT:Musey's Chart;
#NOTES:
// measure 0
0000
0000
0000
0000
,  // measure 1
0000
0000
0000
0000
,  // measure 2
0000
0000
0000
0000
,  // measure 3
0000
0000
0000
0000
,  // measure 4
0000
0000
0000
0000
0000
0000
1000
0001
2000
0000
0000
0000
3001
0000
0000
0000
,  // measure 5
MMMM
0000
0000
0000
0000
0000
0001
1000
0002
0000
0000
0000
1003
0000
0000
0000
,  // measure 6
MMMM
0000
0000
0000
0000
0000
1000
0010
2000
0000
0000
0000
3010
0000
0000
0000
,  // measure 7
MMMM
0000
0000
0000
0000
0000
0000
1000
,  // measure 8
0010
1000
0002
0000
2003
0000
3001
1000
,  // measure 9
MMMM
0000
0002
0000
2003
0000
3001
1000
,  // measure 10
MMMM
0000
1000
0010
1000
0001
MMMM
MMMM
,  // measure 11
0001
0000
1000
1000
0001
1000
0000
1000
,  // measure 12
0001
0010
0002
0000
2003
0000
3010
1000
,  // measure 13
MMMM
0000
0002
0000
2003
0000
3010
1000
,  // measure 14
MMMM
0000
1000
0010
0001
0010
0200
0000
,  // measure 15
0301
0000
1000
1000
0000
MMMM
0000
1000
,  // measure 16
0001
0100
0002
0000
0000
0013
0000
0000
,  // measure 17
0110
0000
MMMM
0000
0001
0100
0000
0100
,  // measure 18
0001
0000
0100
0001
0010
0100
0001
1000
,  // measure 19
0010
0001
0010
0010
0100
1000
0000
1000
,  // measure 20
0002
0000
1003
0001
0100
0100
0001
0020
,  // measure 21
0030
MMMM
0000
1000
0001
1000
0010
0010
,  // measure 22
0200
0000
0301
0010
0200
0000
1300
0000
,  // measure 23
1100
0000
0001
1000
0020
0000
1030
0000
,  // measure 24
MMMM
0000
0001
1000
0010
1000
0100
0010
,  // measure 25
0001
1000
0020
0000
0000
0130
0000
0100
,  // measure 26
0001
0100
0010
1000
0001
0010
1000
0010
,  // measure 27
0001
1000
0020
0000
0000
1030
0000
0001
,  // measure 28
1000
0010
2000
0000
3002
0000
1003
0001
,  // measure 29
MMMM
0000
0002
0000
2003
0000
3001
1000
,  // measure 30
MMMM
0000
0001
0010
0100
0010
0002
0000
,  // measure 31
1003
0000
1000
1000
0001
1000
0000
1000
,  // measure 32
0010
1000
0200
0000
2300
0000
3100
1000
,  // measure 33
MMMM
0000
0002
0000
0023
0000
0031
0010
,  // measure 34
MMMM
0000
0001
1000
0100
1000
0002
0000
,  // measure 35
0013
0000
0001
0001
1000
0010
0000
0010
,  // measure 36
1000
0001
2000
0000
0000
3010
0020
0000
,  // measure 37
0000
0030
0000
MMMM
0000
1000
2000
0000
,  // measure 38
3001
0001
0020
0000
0000
0130
0200
0000
,  // measure 39
0000
0000
2300
0000
0000
3001
0002
0000
,  // measure 40
0000
2003
3002
0023
,  // measure 41
0000
0000
0030
0001
0100
0100
0001
0010
,  // measure 42
0100
MMMM
0001
1000
0010
1000
0100
MMMM
,  // measure 43
0001
0010
0000
0100
0000
MMMM
0000
0001
,  // measure 44
1000
0001
2000
0000
3002
0000
1003
0001
,  // measure 45
MMMM
0000
0002
0000
2003
0000
3001
1000
,  // measure 46
MMMM
0000
0010
1000
0001
1000
0200
0000
,  // measure 47
0310
0000
0001
0001
0010
0001
0000
0001
,  // measure 48
1000
0010
2000
0000
3002
0000
1003
MMMM
,  // measure 49
1000
0000
0002
0000
2003
0000
3001
MMMM
,  // measure 50
0001
0000
1000
0010
0001
0010
2000
0000
,  // measure 51
3001
0010
0001
0001
0010
0001
0000
0001
,  // measure 52
1000
0010
2000
3002
0103
0002
0003
0002
,  // measure 53
0203
0302
0013
0020
0032
2003
3000
2000
,  // measure 54
3200
2300
3010
0020
1030
0002
0003
0002
,  // measure 55
0023
0230
1300
2000
3001
2000
3000
2000
,  // measure 56
3020
2030
3001
0002
0103
0010
MMMM
2000
,  // measure 57
3020
2030
3001
0001
MMMM
0200
0310
0002
,  // measure 58
1003
1000
MMMM
2000
3010
2000
3001
0002
,  // measure 59
0023
0130
MMMM
0002
0013
0200
1300
2000
,  // measure 60
3010
2000
3000
0000
0000
0000
0000
0000
;

//---------------dance-single - ----------------
#NOTEDATA:;
#CHARTNAME:;
#STEPSTYPE:dance-single;
#DESCRIPTION:;
#CHARTSTYLE:;
#DIFFICULTY:Medium;
#METER:6;
#RADARVALUES:0.228706,0.264563,0.006784,0.393452,0.000000,236.000000,235.000000,1.000000,58.000000,0.000000,0.000000,0.000000,0.000000,0.000000,0.228706,0.264563,0.006784,0.393452,0.000000,236.000000,235.000000,1.000000,58.000000,0.000000,0.000000,0.000000,0.000000,0.000000;
#CREDIT:Musey's Chart;
#NOTES:
// measure 0
0000
0000
0000
0000
,  // measure 1
0000
0000
0000
0000
,  // measure 2
0000
0000
0000
0000
,  // measure 3
0000
0000
0000
0000
,  // measure 4
0000
0000
2000
3001
,  // measure 5
0001
0000
0002
1003
,  // measure 6
1000
0000
0020
1030
,  // measure 7
1000
0000
0000
0000
,  // measure 8
0000
0000
2000
0000
3002
0000
1003
0001
,  // measure 9
1000
0000
0002
0000
2003
0000
3001
1000
,  // measure 10
0001
0010
0100
1000
,  // measure 11
0002
0000
0013
0000
0010
0000
0001
0010
,  // measure 12
0001
0000
2000
0000
3002
0000
1003
0010
,  // measure 13
1000
0000
0002
0000
2003
0000
3100
1000
,  // measure 14
0100
2000
3001
0020
,  // measure 15
0031
0000
0001
1000
0001
0000
0001
1000
,  // measure 16
0010
2000
0000
3100
,  // measure 17
0000
0000
0100
1000
0100
0000
2000
0000
,  // measure 18
3001
0000
0001
0010
0100
0000
0100
0000
,  // measure 19
0010
0000
0001
0000
1000
0000
1000
0001
,  // measure 20
2000
3010
0010
1000
,  // measure 21
1000
0000
0001
0010
0001
0000
1000
0001
,  // measure 22
2000
0000
3010
1000
0200
0000
0310
0000
,  // measure 23
0010
0000
0001
0010
0002
0000
1003
0000
,  // measure 24
0001
0000
1000
0100
1000
0000
0010
1000
,  // measure 25
0001
0000
0020
0000
0000
0031
0000
0000
,  // measure 26
0001
0000
0001
0100
0001
0000
0010
0100
,  // measure 27
1000
0000
0002
0000
0000
1003
0000
0000
,  // measure 28
1001
0000
0020
0000
2030
0000
3010
1000
,  // measure 29
0010
0000
2000
0000
3020
0000
1030
0010
,  // measure 30
1000
0001
1000
0001
,  // measure 31
0010
0000
0001
0000
0010
0000
0001
0100
,  // measure 32
0001
0000
0020
0000
2030
0000
3001
1000
,  // measure 33
0001
0000
2000
0000
3200
0000
1300
0100
,  // measure 34
1000
0001
1000
0001
,  // measure 35
0010
0200
0000
0310
,  // measure 36
0010
0002
0000
0000
,  // measure 37
0000
2003
0000
0000
,  // measure 38
0000
3020
0000
0000
,  // measure 39
0000
2030
0000
0000
,  // measure 40
0000
3002
0203
0302
,  // measure 41
0000
0023
0032
0023
,  // measure 42
0000
0230
2300
3002
,  // measure 43
0000
2003
0000
3001
,  // measure 44
0000
0000
2000
0000
3002
0000
1003
0001
,  // measure 45
1000
0000
0200
0000
0320
0000
0130
0010
,  // measure 46
0100
0000
1000
0001
1000
0000
0010
0000
,  // measure 47
1000
0200
0310
0002
,  // measure 48
1003
0000
2000
0000
3002
0000
1003
1000
,  // measure 49
1000
0000
0002
0000
2003
0000
3001
0001
,  // measure 50
0001
0000
0001
0010
0100
0000
1000
0000
,  // measure 51
0001
2000
3010
0020
,  // measure 52
1030
0000
0001
0000
0001
0000
0001
1000
,  // measure 53
0001
0000
1000
0000
1000
0000
1000
0100
,  // measure 54
1000
0000
0010
0000
0010
0000
0010
1000
,  // measure 55
0010
0000
1000
0000
0100
0000
1000
0100
,  // measure 56
1000
0000
0001
0010
0100
0000
0100
0010
,  // measure 57
0001
0000
0001
1000
0010
0000
0010
1000
,  // measure 58
0001
0000
0001
1000
0100
0000
0100
0010
,  // measure 59
0001
0000
0001
1000
0010
0000
2000
0000
,  // measure 60
3001
0000
0000
0000
;

//---------------dance-single - ----------------
#NOTEDATA:;
#CHARTNAME:;
#STEPSTYPE:dance-single;
#DESCRIPTION:;
#CHARTSTYLE:;
#DIFFICULTY:Easy;
#METER:3;
#RADARVALUES:0.147302,0.183922,0.000000,0.210294,0.000000,152.000000,152.000000,0.000000,31.000000,0.000000,0.000000,0.000000,0.000000,0.000000,0.147302,0.183922,0.000000,0.210294,0.000000,152.000000,152.000000,0.000000,31.000000,0.000000,0.000000,0.000000,0.000000,0.000000;
#CREDIT:Musey's Chart;
#NOTES:
// measure 0
0000
0000
0000
0000
,  // measure 1
0000
0000
0000
0000
,  // measure 2
0000
0000
0000
0000
,  // measure 3
0000
0000
0000
0000
,  // measure 4
0000
1000
0000
0001
,  // measure 5
0001
0000
0000
1000
,  // measure 6
1000
0000
0000
0010
,  // measure 7
0010
0000
0000
0000
,  // measure 8
0000
2000
0000
3001
,  // measure 9
0001
0002
0000
0013
,  // measure 10
0010
0001
0010
0001
,  // measure 11
1000
0020
0000
1030
,  // measure 12
0000
0001
1000
0002
,  // measure 13
0000
1003
0001
2000
,  // measure 14
0000
3010
1000
0100
,  // measure 15
0010
0002
0000
1003
,  // measure 16
0000
1000
0000
1000
,  // measure 17
0000
0010
0000
0010
,  // measure 18
0000
1000
0001
1000
,  // measure 19
0000
0001
1000
0001
,  // measure 20
0000
0100
0010
0100
,  // measure 21
0000
0001
1000
0001
,  // measure 22
0000
0100
0010
0001
,  // measure 23
0000
1000
0001
1000
,  // measure 24
0000
0010
1000
0100
,  // measure 25
0000
0002
0000
0013
,  // measure 26
0000
0001
1000
0010
,  // measure 27
0000
2000
0000
3000
,  // measure 28
0000
0001
1000
0002
,  // measure 29
0000
1003
0001
2000
,  // measure 30
0000
3010
1000
0001
,  // measure 31
0000
0020
0000
0031
,  // measure 32
0000
0100
0001
0200
,  // measure 33
0000
0301
0100
0002
,  // measure 34
0000
0013
0001
1000
,  // measure 35
0000
0200
0000
1300
,  // measure 36
0000
0002
0000
0000
,  // measure 37
0000
2003
0000
0000
,  // measure 38
0000
3200
0000
0000
,  // measure 39
0000
2300
0000
0000
,  // measure 40
0000
3001
0001
0002
,  // measure 41
0000
0013
0010
0020
,  // measure 42
0000
0032
0000
2003
,  // measure 43
0000
3001
0000
0000
,  // measure 44
0000
0020
2030
3010
,  // measure 45
0000
0020
2030
3010
,  // measure 46
0000
0001
1000
0100
,  // measure 47
1000
0002
0000
0013
,  // measure 48
0000
1000
0001
2000
,  // measure 49
0000
3001
1000
0002
,  // measure 50
0000
0013
0100
0010
,  // measure 51
0001
2000
0000
3010
,  // measure 52
0000
0001
0001
1000
,  // measure 53
1000
0001
0001
1000
,  // measure 54
1000
0010
0010
1000
,  // measure 55
1000
0100
0100
1000
,  // measure 56
1000
0001
0001
0010
,  // measure 57
0010
0001
0001
1000
,  // measure 58
1000
0010
0010
1000
,  // measure 59
1000
0001
0001
0002
,  // measure 60
0000
0003
0000
0000
;

//---------------dance-single - ----------------
#NOTEDATA:;
#CHARTNAME:;
#STEPSTYPE:dance-single;
#DESCRIPTION:;
#CHARTSTYLE:;
#DIFFICULTY:Beginner;
#METER:2;
#RADARVALUES:0.096909,0.143050,0.000000,0.278130,0.000000,100.000000,100.000000,0.000000,41.000000,0.000000,0.000000,0.000000,0.000000,0.000000,0.096909,0.143050,0.000000,0.278130,0.000000,100.000000,100.000000,0.000000,41.000000,0.000000,0.000000,0.000000,0.000000,0.000000;
#CREDIT:Musey's Chart;
#NOTES:
// measure 0
0000
0000
0000
0000
,  // measure 1
0000
0000
0000
0000
,  // measure 2
0000
0000
0000
0000
,  // measure 3
0000
0000
0000
0000
,  // measure 4
0000
1000
0000
1000
,  // measure 5
0000
0001
0000
0001
,  // measure 6
0000
0010
0000
0010
,  // measure 7
0000
0000
0000
0000
,  // measure 8
0000
2000
0000
3001
,  // measure 9
0000
0002
0000
1003
,  // measure 10
0000
0010
0000
0010
,  // measure 11
0000
2000
0000
3000
,  // measure 12
0000
0002
0000
1003
,  // measure 13
0000
2000
0000
3010
,  // measure 14
0000
1000
0000
0100
,  // measure 15
0000
2000
0000
0000
,  // measure 16
3000
0001
0000
0001
,  // measure 17
0000
0020
0000
0031
,  // measure 18
0000
0100
0000
0100
,  // measure 19
0000
0020
0000
1030
,  // measure 20
0000
0001
0000
0002
,  // measure 21
0000
1003
0000
2000
,  // measure 22
0000
3010
0000
0010
,  // measure 23
0000
1000
0000
1000
,  // measure 24
0000
0001
0000
0001
,  // measure 25
0000
0200
0000
0000
,  // measure 26
0300
0010
0000
0010
,  // measure 27
0000
2000
0000
3000
,  // measure 28
0000
0001
0000
2000
,  // measure 29
3000
0001
0000
0020
,  // measure 30
0030
0001
0000
0001
,  // measure 31
0000
2000
0000
3010
,  // measure 32
0000
0001
0000
0002
,  // measure 33
0003
1000
0000
2000
,  // measure 34
3000
0010
0000
0010
,  // measure 35
0000
2000
0000
3001
,  // measure 36
0000
0002
0000
0000
,  // measure 37
0000
0000
0000
0000
,  // measure 38
0000
2003
0000
0000
,  // measure 39
0000
0000
0000
0000
,  // measure 40
0000
3020
0000
0000
,  // measure 41
0000
0230
0000
0000
,  // measure 42
0000
0302
0000
0000
,  // measure 43
0000
1003
0000
0000
,  // measure 44
0000
2000
0000
3001
,  // measure 45
0000
0002
0000
0013
,  // measure 46
0000
0100
0000
0100
,  // measure 47
0000
2000
0000
3001
,  // measure 48
0000
0020
0000
1030
,  // measure 49
0000
2000
0000
3010
,  // measure 50
0000
0001
0000
1000
,  // measure 51
0000
0002
0000
0103
,  // measure 52
0000
0001
0001
0002
,  // measure 53
0000
1003
1000
2000
,  // measure 54
0000
3010
0010
0020
,  // measure 55
0000
1030
1000
2000
,  // measure 56
0000
3002
0000
0023
,  // measure 57
0000
0032
0000
2003
,  // measure 58
0000
3020
0000
2030
,  // measure 59
0000
3002
0000
0203
,  // measure 60
0000
0300
0000
0000
;
