#TITLE:Wheat Waves;
#SUBTITLE:;
#ARTIST:Yihuik;
#TITLETRANSLIT:;
#SUBTITLETRANSLIT:;
#ARTISTTRANSLIT:;
#GENRE:;
#CREDIT:;
#BANNER:bn.png;
#BACKGROUND:bg.png;
#LYRICSPATH:;
#CDTITLE:;
#MUSIC:audio.ogg;
#OFFSET:-0.704000;
#SAMPLESTART:53.936077;
#SAMPLELENGTH:14.999997;
#SELECTABLE:YES;
#BPMS:0.000000=72.000000
,96.000000=55.000000
,97.750000=72.000000
,112.000000=75.000000
,113.250000=72.000000
;
#STOPS:
;
#BGCHANGES:;
#KEYSOUNDS:;
#ATTACKS:;

//---------------dance-single - ----------------
#NOTES:
     dance-single:
     :
     Hard:
     7:
     0.276920,0.324489,0.000000,0.713279,0.260137,231.000000,231.000000,0.000000,85.000000,0.000000,0.000000,0.276920,0.324489,0.000000,0.713279,0.260137,231.000000,231.000000,0.000000,85.000000,0.000000,0.000000:
// measure 0
0000
0000
0000
0000
,  // measure 1
0000
0000
0000
0000
,  // measure 2
0000
0000
0000
0000
,  // measure 3
0000
0000
0000
0000
,  // measure 4
0100
0000
0100
0001
0010
0000
0001
0010
0002
0000
0000
0103
0000
0000
0000
0000
,  // measure 5
1000
0000
1000
0001
0010
0000
0100
1000
0020
0000
0000
0130
0000
0000
0000
0000
,  // measure 6
1000
0001
1000
0000
0001
0000
0010
0000
0200
0000
0000
0000
1300
0000
0000
0000
,  // measure 7
1000
0000
0001
1000
0002
0000
2003
0000
3020
0000
0000
0000
1030
0000
0000
0000
,  // measure 8
1000
0010
0001
0010
1000
0000
0001
0000
0020
0000
0000
0130
0000
0000
0000
0000
,  // measure 9
1000
0100
2000
0000
3002
0000
2003
0000
3020
0000
0000
1030
0000
0000
0000
0000
,  // measure 10
0100
0010
0001
0010
0100
0000
0010
0000
0200
0000
0000
0000
1300
0000
0000
0000
,  // measure 11
0001
0010
1000
0010
0002
0000
1003
0000
,  // measure 12
1000
0000
0001
1000
0001
0000
0010
0000
0002
0000
1000
0000
0013
0000
0000
0000
,  // measure 13
0020
0000
0230
0000
2300
0000
3200
0000
2300
0000
0000
0000
3100
0000
0001
0010
,  // measure 14
0002
0003
0020
0030
0200
0300
1000
0100
2000
3000
0200
0300
2000
3000
0200
0300
,  // measure 15
0020
0000
0001
0000
0031
0001
0010
0100
,  // measure 16
1000
0100
2000
3000
2000
3200
1300
0100
1000
0010
2000
3000
0002
0000
0003
0000
,  // measure 17
0001
0010
0002
0003
0002
0023
0030
0020
0000
0130
2000
0000
3020
0000
1030
0000
,  // measure 18
0001
0010
0001
0000
1000
0010
1000
0000
2000
0000
0100
0000
3020
0000
0030
0000
,  // measure 19
0001
0010
0001
0000
0100
0010
1000
0000
2000
0000
0001
0000
3100
0000
0010
0000
,  // measure 20
0001
1000
0002
0003
0002
2003
3000
1000
0010
1000
0200
0000
0320
0000
0000
0000
,  // measure 21
0031
1000
0002
0003
0002
2003
3000
2000
0000
3010
0200
0000
0320
0000
1030
0000
,  // measure 22
0001
0010
0100
0000
0010
0001
0010
0000
0002
0000
1000
0000
2003
0000
3000
0000
,  // measure 23
1000
0010
1000
0000
1000
0100
0010
0000
0002
0000
0100
0000
1003
0000
0000
0000
,  // measure 24
0200
0000
0000
0000
0000
0000
0000
0300
0000
1000
0001
0000
0200
0000
0000
0000
,  // measure 25
0302
0010
2003
0000
,  // measure 26
3200
0000
1000
1000
2300
0000
0000
0000
,  // measure 27
3002
0100
0023
0001
,  // measure 28
0032
0000
0000
0000
0000
0000
0000
1000
0000
1000
0000
1000
0003
0000
0001
0000
,  // measure 29
1000
0002
0023
0030
0020
0032
0003
1000
0100
0010
0002
0000
2003
0000
0010
0000
,  // measure 30
3010
2000
3002
0003
0002
0023
0030
0100
1000
0001
0200
0000
0320
0000
0100
0000
,  // measure 31
1030
0010
2000
0000
3001
0010
0002
0000
2003
0000
0001
0000
3002
0000
0000
0000
,  // measure 32
1003
0010
0001
0010
1000
0010
0001
0020
0030
2000
3000
0020
0030
0000
0200
0000
,  // measure 33
2300
0000
0000
0000
0000
3000
0000
0000
;

//---------------dance-single - ----------------
#NOTES:
     dance-single:
     :
     Medium:
     3:
     0.159439,0.196781,0.000000,0.486708,0.000000,133.000000,133.000000,0.000000,58.000000,0.000000,0.000000,0.159439,0.196781,0.000000,0.486708,0.000000,133.000000,133.000000,0.000000,58.000000,0.000000,0.000000:
// measure 0
0000
0000
0000
0000
,  // measure 1
0000
0000
0000
0000
,  // measure 2
0000
0000
0000
0000
,  // measure 3
0000
0000
0000
0000
,  // measure 4
1000
0001
2000
0000
3002
0000
0013
0000
,  // measure 5
0001
0010
0100
1000
0020
0000
1030
0000
,  // measure 6
1000
0100
2000
0000
3002
0000
0013
0000
,  // measure 7
0200
2300
3020
0030
,  // measure 8
1000
0001
1000
0000
0002
0000
0013
0000
,  // measure 9
0100
1000
0020
0000
2030
0000
3000
0000
,  // measure 10
0001
1000
0002
0000
0023
0000
0000
0030
,  // measure 11
0010
0100
0020
0000
0032
0000
0003
0000
,  // measure 12
2000
3002
0023
0032
,  // measure 13
0103
0001
0100
0001
0200
0000
0300
0000
,  // measure 14
0001
0010
0200
0000
1300
0010
2000
0000
,  // measure 15
3002
0000
0000
0000
0003
0100
0001
0100
,  // measure 16
0001
0001
0020
0000
0031
0001
2000
0000
,  // measure 17
3100
0100
2000
0000
3010
1000
0020
0000
,  // measure 18
1030
0001
0020
0000
0032
0000
0203
0000
,  // measure 19
0301
0010
0002
0000
0103
0010
2000
0000
,  // measure 20
3100
1000
0002
0000
0023
0000
0230
0000
,  // measure 21
1300
0001
2000
0000
3002
0000
0023
0000
,  // measure 22
0130
1000
0100
0010
0002
0000
0203
0300
,  // measure 23
0010
0100
0001
0100
0020
0000
1030
0000
,  // measure 24
0002
0000
0003
0000
,  // measure 25
2000
0000
3020
0000
,  // measure 26
2030
0000
3002
0000
,  // measure 27
0023
0000
0032
0000
,  // measure 28
2003
0000
0000
3000
0000
0000
0000
0000
,  // measure 29
1000
1000
0200
0000
1300
1000
0002
0000
,  // measure 30
0013
0010
0002
0000
0103
0001
0200
0000
,  // measure 31
0301
1000
0200
0000
2300
0000
3020
0000
,  // measure 32
1030
0100
0010
0001
0010
0100
2000
0000
,  // measure 33
3002
0000
0003
0000
;

//---------------dance-single - ----------------
#NOTES:
     dance-single:
     :
     Easy:
     2:
     0.099499,0.126974,0.000000,0.520274,0.000000,83.000000,83.000000,0.000000,62.000000,0.000000,0.000000,0.099499,0.126974,0.000000,0.520274,0.000000,83.000000,83.000000,0.000000,62.000000,0.000000,0.000000:
// measure 0
0000
0000
0000
0000
,  // measure 1
0000
0000
0000
0000
,  // measure 2
0000
0000
0000
0000
,  // measure 3
0000
0000
0000
0000
,  // measure 4
2000
0000
3002
0000
,  // measure 5
0023
0000
2030
0000
,  // measure 6
3002
2003
3002
0000
,  // measure 7
0023
0000
0030
0000
,  // measure 8
2000
0000
3002
0000
,  // measure 9
0203
0000
0302
0000
,  // measure 10
0023
0032
2003
0000
,  // measure 11
3002
0000
0003
0000
,  // measure 12
1000
0010
2000
3010
,  // measure 13
0001
1000
0002
0013
,  // measure 14
0002
1003
0020
1030
,  // measure 15
2000
0000
3000
0000
,  // measure 16
0002
0003
0002
0003
2000
3000
2000
3000
,  // measure 17
0020
0030
0020
0030
0200
0300
0200
0300
,  // measure 18
0001
0002
0103
0200
,  // measure 19
0301
0001
1000
1000
,  // measure 20
0002
0003
0002
0003
2000
3000
2000
3000
,  // measure 21
0020
0030
0020
0030
0200
0300
0200
0300
,  // measure 22
0001
0001
0010
0010
,  // measure 23
0001
0001
1000
2000
,  // measure 24
3002
0000
0003
0000
,  // measure 25
2000
0000
0000
0000
,  // measure 26
3020
0000
0000
0000
,  // measure 27
2030
0000
0000
0000
,  // measure 28
3002
0000
0003
0000
,  // measure 29
0200
0300
0200
0300
2000
3000
2000
3000
,  // measure 30
0002
0003
0002
0003
2000
3000
2000
3000
,  // measure 31
0020
0030
0020
0030
2000
3000
2000
3000
,  // measure 32
0002
0003
0002
0003
0200
0300
0200
0300
,  // measure 33
0020
0000
0000
0000
0000
0030
0000
0000
;

//---------------dance-single - ----------------
#NOTES:
     dance-single:
     :
     Beginner:
     1:
     0.043156,0.070279,0.000000,0.134264,0.000000,36.000000,36.000000,0.000000,16.000000,0.000000,0.000000,0.043156,0.070279,0.000000,0.134264,0.000000,36.000000,36.000000,0.000000,16.000000,0.000000,0.000000:
// measure 0
0000
0000
0000
0000
,  // measure 1
0000
0000
0000
0000
,  // measure 2
0000
0000
0000
0000
,  // measure 3
0000
0000
0000
0000
,  // measure 4
1000
0000
0000
0000
,  // measure 5
0100
0000
0000
0000
,  // measure 6
1000
0000
0000
0000
,  // measure 7
0001
0000
0000
0000
,  // measure 8
1000
0000
0000
0000
,  // measure 9
0100
0000
0000
0000
,  // measure 10
1000
0000
0000
0000
,  // measure 11
0001
0000
0000
0000
,  // measure 12
0020
0000
0030
0000
,  // measure 13
2000
0000
3000
0000
,  // measure 14
0002
0000
0003
0000
,  // measure 15
0200
0000
0300
0000
,  // measure 16
1000
0000
1000
0000
,  // measure 17
2000
0000
3000
0000
,  // measure 18
0001
0000
0001
0000
,  // measure 19
0002
0000
0003
0000
,  // measure 20
0100
0000
0100
0000
,  // measure 21
0200
0000
0300
0000
,  // measure 22
0010
0000
0010
0000
,  // measure 23
0020
0000
0030
0000
,  // measure 24
2000
0000
3000
0000
,  // measure 25
0002
0000
0000
0000
,  // measure 26
0000
0000
0000
0000
,  // measure 27
2003
0000
0000
0000
,  // measure 28
0000
0000
0000
0000
,  // measure 29
3001
0000
0002
0003
,  // measure 30
1000
0000
2000
3000
,  // measure 31
0010
0000
0020
0030
,  // measure 32
0100
0000
0200
0300
,  // measure 33
0200
0000
0300
0000
;
