#VERSION:0.83;
#TITLE:Whatever;
#SUBTITLE:;
#ARTIST:Walk of the Earth;
#TITLETRANSLIT:;
#SUBTITLETRANSLIT:;
#ARTISTTRANSLIT:;
#GENRE:;
#ORIGIN:;
#CREDIT:;
#BANNER:Whatever.png;
#BACKGROUND:Whatever-bg.png;
#PREVIEWVID:;
#JACKET:Whatever-jacket.png;
#CDIMAGE:;
#DISCIMAGE:;
#LYRICSPATH:;
#CDTITLE:;
#MUSIC:Whatever.ogg;
#OFFSET:-0.198000;
#SAMPLESTART:69.125847;
#SAMPLELENGTH:15.000000;
#SELECTABLE:YES;
#BPMS:0.000=194.000;
#STOPS:;
#DELAYS:;
#WARPS:;
#TIMESIGNATURES:0.000=4=4;
#TICKCOUNTS:0.000=4;
#COMBOS:0.000=1;
#SPEEDS:0.000=1.000=0.000=0;
#SCROLLS:0.000=1.000;
#FAKES:;
#LABELS:0.000=Song Start;
#BGCHANGES:0.000=MV.avi=1.000=1=0=0=StretchNoLoop==CrossFade==,
99999=-nosongbg-=1.000=0=0=0 // don't automatically add -songbackground-
;
#KEYSOUNDS:;
#ATTACKS:
;

//---------------dance-single - ----------------
#NOTEDATA:;
#CHARTNAME:;
#STEPSTYPE:dance-single;
#DESCRIPTION:;
#CHARTSTYLE:;
#DIFFICULTY:Hard;
#METER:13;
#RADARVALUES:0.676190,0.718125,0.433333,0.050000,0.112500,568.000000,516.000000,52.000000,6.000000,0.000000,0.000000,0.000000,0.000000,0.000000,0.676190,0.718125,0.433333,0.050000,0.112500,568.000000,516.000000,52.000000,6.000000,0.000000,0.000000,0.000000,0.000000,0.000000;
#CREDIT:Rajeious's Chart;
#NOTES:
// measure 0
0000
0000
0000
0000
,  // measure 1
0000
0000
0000
0000
,  // measure 2
0000
0000
0000
0000
,  // measure 3
0000
0000
0000
1000
,  // measure 4
0001
0000
0010
0000
0100
1000
0010
0100
,  // measure 5
0001
0000
0010
0000
0100
1000
0100
0000
,  // measure 6
0010
0001
0010
0000
0100
0000
1000
0010
,  // measure 7
0100
0001
1000
0100
1000
0001
0010
0000
,  // measure 8
0001
0000
1000
0000
0001
0010
0100
1000
,  // measure 9
0001
0000
0010
0000
0100
1000
0010
0000
,  // measure 10
0100
0001
0010
0000
0001
1000
0100
0010
,  // measure 11
0100
1000
0010
0100
0001
1000
0100
0000
,  // measure 12
0020
0000
0001
0000
0031
1000
0100
0010
,  // measure 13
0100
0000
1001
0000
0100
1000
0001
1000
,  // measure 14
0100
0000
0010
0000
0001
1000
0010
0000
,  // measure 15
0010
0000
0100
0001
0010
0100
1000
0000
,  // measure 16
0002
0000
0100
0000
0103
0010
1000
0001
,  // measure 17
1000
0000
0011
0000
0001
0100
0001
0000
,  // measure 18
1000
0000
1100
0000
0001
0010
1000
0010
,  // measure 19
0001
0000
0000
0000
0001
0000
1000
0000
0100
0000
1000
0000
0001
0000
0000
0010
,  // measure 20
0000
0000
0010
0000
0001
0000
0000
0100
0000
0000
0100
0000
0010
0000
0000
0100
,  // measure 21
0000
0000
1000
0000
0100
0000
0000
0000
0000
0000
0000
0000
0001
0000
0000
0100
,  // measure 22
0000
0000
0100
0000
1000
0000
0000
0100
0000
0000
0100
0000
0010
0000
0000
1000
,  // measure 23
0000
0000
0100
0000
0010
0000
0000
0000
0000
0000
0000
0000
1000
0000
0000
0100
,  // measure 24
0000
0000
0100
0000
0010
0000
0000
0001
0000
0000
0001
0000
0100
0000
0000
0010
,  // measure 25
0000
0000
1000
0000
0100
0000
0000
0000
0000
0000
0000
0000
0010
0000
0000
0001
,  // measure 26
0000
0000
1000
0000
0100
0000
0000
0010
0000
0000
0001
0000
0100
0000
0000
0010
,  // measure 27
0000
1000
0100
0000
0010
0000
1001
0000
,  // measure 28
0100
0010
0000
0010
1000
0000
0101
0000
,  // measure 29
0010
0100
0000
0100
0001
0000
1001
0000
,  // measure 30
0100
0010
0000
0010
1000
0000
1100
0000
,  // measure 31
0100
1000
0000
1000
0001
0000
0110
0000
,  // measure 32
1000
0001
0010
0000
0100
0000
0101
0000
,  // measure 33
1000
0010
0100
0000
0001
0000
0101
0000
,  // measure 34
1000
0001
0110
0000
0001
1000
0110
0000
,  // measure 35
1001
0000
0010
0100
0001
0010
0100
0000
,  // measure 36
0000
1000
0010
1000
0010
0000
0101
0000
,  // measure 37
0000
1000
0001
1000
0001
0000
1010
0000
,  // measure 38
0000
0100
0010
0100
0010
0000
1001
0000
,  // measure 39
0000
0010
0100
0000
0100
0000
0001
0000
,  // measure 40
1000
0000
0101
0000
0010
0001
1000
0000
,  // measure 41
1010
0000
0100
0001
0010
0100
1000
0000
,  // measure 42
0001
0010
0100
0000
0010
0000
0001
0010
,  // measure 43
0100
1000
0001
0010
0010
0001
1000
0000
,  // measure 44
0010
0000
0101
0000
0001
0010
0100
1000
,  // measure 45
1100
0000
0001
0100
0010
0100
0101
0000
,  // measure 46
0001
0010
0100
1000
0010
1000
0001
0100
,  // measure 47
1000
0100
0010
1000
0001
0010
0001
0000
,  // measure 48
0002
0000
0000
0000
1003
0100
0010
0100
,  // measure 49
1000
0000
1001
0000
0001
1000
0100
0010
,  // measure 50
0001
0000
1001
0000
0010
0100
0001
0000
,  // measure 51
1100
0000
1000
0001
0010
0100
1000
0000
,  // measure 52
0020
0000
1000
0000
0130
0010
0001
0010
,  // measure 53
0100
0000
1001
0000
1000
0010
0100
0000
,  // measure 54
0001
0000
0101
0000
0001
0100
1000
0100
,  // measure 55
0001
0000
0000
0000
1000
0000
0100
0000
0010
0000
0100
0000
1000
0000
0000
0100
,  // measure 56
0000
0000
0100
0000
1000
0000
0000
0010
0000
0000
0010
0000
0100
0000
0000
0010
,  // measure 57
0000
0000
0001
0000
0010
0000
0000
0000
0000
0000
0000
0000
1000
0000
0000
0010
,  // measure 58
0000
0000
0010
0000
0001
0000
0000
0010
0000
0000
0010
0000
0100
0000
0000
0001
,  // measure 59
0000
0000
0010
0000
0100
0000
0000
0000
0000
0000
0000
0000
0001
0000
0000
0010
,  // measure 60
0000
0000
0010
0000
0100
0000
0000
1000
0000
0000
1000
0000
0010
0000
0000
0100
,  // measure 61
0000
0000
0001
0000
0010
0000
0000
0000
0000
0000
0000
0000
0100
0000
0000
1000
,  // measure 62
0000
0000
0001
0000
0010
0000
0000
0100
0000
0000
1000
0000
0010
0000
0000
0100
,  // measure 63
0000
0001
0010
0001
0100
0000
1001
0000
,  // measure 64
0010
0100
0000
0100
0001
0000
1010
0000
,  // measure 65
0100
0010
1000
0010
1000
0000
1001
0000
,  // measure 66
0010
0100
0000
0100
0001
0000
0011
0000
,  // measure 67
0010
0001
0100
0001
1000
0000
0110
0000
,  // measure 68
0001
1000
0100
0000
0010
0000
0011
0000
,  // measure 69
0001
0100
0010
0100
0001
0000
1010
0000
,  // measure 70
0001
1000
0110
0000
1000
0001
0110
0000
,  // measure 71
1001
1010
0101
1001
,  // measure 72
0000
1000
0010
1000
0010
0000
0101
0000
,  // measure 73
0000
1000
0001
1000
0001
0000
1010
0000
,  // measure 74
0000
0100
0010
0100
0010
0000
1001
0000
,  // measure 75
0000
0010
0100
0000
0100
0000
0011
0000
,  // measure 76
0000
1000
0100
1000
0100
0000
1010
0000
,  // measure 77
0000
0001
0100
0001
0100
0000
0110
0000
,  // measure 78
0000
1000
0001
1000
0001
0000
1100
0000
,  // measure 79
0000
0010
0001
0010
0001
0000
2001
0000
,  // measure 80
0010
0000
0100
0000
3010
0100
0010
0100
,  // measure 81
0001
1000
0100
0000
1000
0001
1000
0010
,  // measure 82
1000
0000
0010
0100
0001
0000
1000
0000
,  // measure 83
1000
0100
0010
0001
0010
0100
1000
0000
,  // measure 84
1002
0000
0100
0000
1003
0100
0010
0100
,  // measure 85
1000
0001
0010
0000
0100
0000
0101
0000
,  // measure 86
1000
0010
1000
0000
0010
0000
1010
0000
,  // measure 87
0100
0001
0010
0001
1000
0010
1000
0000
,  // measure 88
0001
1000
0010
0000
1000
0000
1001
0000
,  // measure 89
0010
0100
0001
0000
1000
0000
0011
0000
,  // measure 90
1000
0001
1000
0100
0010
0100
1000
0000
,  // measure 91
0001
0000
0000
0000
0100
0000
0010
0000
0001
0000
0010
0000
0100
0000
0000
0001
,  // measure 92
0000
0000
0001
0000
1000
0000
0000
0100
0000
0000
0100
0000
0010
0000
0000
0001
,  // measure 93
0000
0001
1000
0100
0001
0100
1000
0000
,  // measure 94
0010
0100
0010
0000
0100
0001
0100
0001
,  // measure 95
0010
0001
0100
0010
1000
0100
1000
0000
;

//---------------dance-single - ----------------
#NOTEDATA:;
#CHARTNAME:;
#STEPSTYPE:dance-single;
#DESCRIPTION:;
#CHARTSTYLE:;
#DIFFICULTY:Medium;
#METER:9;
#RADARVALUES:0.444048,0.478750,0.083333,0.316667,0.000000,373.000000,363.000000,10.000000,38.000000,0.000000,0.000000,0.000000,0.000000,0.000000,0.444048,0.478750,0.083333,0.316667,0.000000,373.000000,363.000000,10.000000,38.000000,0.000000,0.000000,0.000000,0.000000,0.000000;
#CREDIT:Rajeious's Chart;
#NOTES:
// measure 0
0000
0000
0000
0000
,  // measure 1
0000
0000
0000
0000
,  // measure 2
0000
0000
0000
0000
,  // measure 3
0000
0000
0000
0000
,  // measure 4
0001
1000
0100
0010
,  // measure 5
0001
0000
1000
0000
0100
1000
0010
0000
,  // measure 6
1000
0001
1000
0000
0010
0000
0100
0000
,  // measure 7
0001
0010
0001
1000
,  // measure 8
0010
0100
0001
1000
,  // measure 9
0100
0000
0010
0000
0001
1000
0001
0000
,  // measure 10
0100
0010
0100
0000
0001
0000
1000
0000
,  // measure 11
0100
0010
0001
1000
,  // measure 12
0200
0000
0000
0000
1300
0001
1000
0000
,  // measure 13
0100
0010
0001
0100
,  // measure 14
0010
1000
0100
0001
,  // measure 15
0100
1000
0010
1000
,  // measure 16
0002
0000
0000
0000
0103
0010
1000
0000
,  // measure 17
0100
0000
0010
0000
0001
1000
0010
0000
,  // measure 18
0100
0000
0100
0000
0001
0010
0100
0000
,  // measure 19
0100
0000
1000
0010
1000
0001
0200
0000
,  // measure 20
0000
0310
0000
2000
,  // measure 21
0000
3001
0000
0020
,  // measure 22
0000
0130
0000
2000
,  // measure 23
0000
3001
0000
2000
,  // measure 24
0000
3010
0000
0002
,  // measure 25
0000
0103
0000
0020
,  // measure 26
0000
0130
0000
2000
,  // measure 27
0000
3001
0000
0010
,  // measure 28
0000
1000
0000
0001
1000
0000
0010
0000
,  // measure 29
0000
0100
0000
0001
0100
0000
0010
0000
,  // measure 30
0000
1000
0000
0001
0010
0000
0100
0000
,  // measure 31
0000
1000
0000
0001
0100
0000
0010
0000
,  // measure 32
1000
0001
1000
0000
0010
0000
0010
0000
,  // measure 33
1000
0010
0100
0000
0001
0000
0010
0000
,  // measure 34
0100
1000
0010
0000
0100
0000
0001
0000
,  // measure 35
0010
0100
1000
0001
,  // measure 36
0000
1000
0000
1000
0000
0000
0110
0000
,  // measure 37
0000
0001
0000
0001
0000
0000
1100
0000
,  // measure 38
0000
0010
0000
0010
0000
0000
0110
0000
,  // measure 39
0000
0001
0000
0001
0000
0000
1000
0000
,  // measure 40
0020
0000
0130
0000
0001
1000
0002
0000
,  // measure 41
1003
0000
0100
0010
0001
0000
0100
0000
,  // measure 42
0010
1000
0100
0001
,  // measure 43
0100
1000
0010
0100
,  // measure 44
0002
0000
1003
0000
0100
0010
0002
0000
,  // measure 45
1003
0000
0010
0100
0002
0000
1003
0000
,  // measure 46
0100
0000
0010
0000
0001
1000
0020
0000
,  // measure 47
1000
1030
0100
0010
,  // measure 48
0002
0000
0000
0000
1003
0010
1000
0200
,  // measure 49
0000
0300
0000
0000
1000
0001
0100
0000
,  // measure 50
0001
0000
0010
0000
0001
0010
0002
0000
,  // measure 51
1003
0000
0100
0010
0001
0000
0100
0000
,  // measure 52
0020
0000
1000
0000
1030
0001
0100
0001
,  // measure 53
2000
0000
3001
0000
0100
0010
1000
0000
,  // measure 54
0001
0000
0010
0000
0001
0100
0001
0000
,  // measure 55
0010
0100
1000
0002
,  // measure 56
0000
0103
0000
2000
,  // measure 57
0000
3100
0000
0002
,  // measure 58
0000
0013
0000
0200
,  // measure 59
0000
0310
0000
0002
,  // measure 60
0000
1003
0000
0200
,  // measure 61
0000
0301
0000
0020
,  // measure 62
0000
1030
0000
2000
,  // measure 63
0000
3001
0010
0100
,  // measure 64
0000
1000
0000
0001
0100
0000
0010
0000
,  // measure 65
0000
1000
0000
0001
0010
0000
0100
0000
,  // measure 66
0000
1000
0000
0010
0100
0000
0001
0000
,  // measure 67
0000
1000
0000
1000
0100
0000
1000
0000
,  // measure 68
0001
0100
0001
0000
1000
0000
0100
0000
,  // measure 69
0010
0001
1000
0000
0010
0000
0100
0000
,  // measure 70
0001
1000
0010
0000
0100
0000
0001
0000
,  // measure 71
1000
0100
0010
0001
,  // measure 72
0000
1000
0000
1000
0000
0000
0011
0000
,  // measure 73
0000
0100
0000
0100
0000
0000
0011
0000
,  // measure 74
0000
1000
0000
1000
0000
0000
0110
0000
,  // measure 75
0000
1000
0000
1000
0000
0000
0011
0000
,  // measure 76
0000
0100
0000
0100
0000
0000
1001
0000
,  // measure 77
0000
0010
0000
0010
0000
0000
0011
0000
,  // measure 78
0000
1000
0000
1000
0000
0000
1100
0000
,  // measure 79
0000
0001
0000
0001
0000
0000
0010
0000
,  // measure 80
0001
1000
0100
1000
,  // measure 81
1000
0100
0010
0000
0001
0000
1000
0000
,  // measure 82
0010
0000
0100
0000
0001
0100
0002
0000
,  // measure 83
1003
0000
0100
1000
0002
0000
0103
0000
,  // measure 84
0002
0000
0013
0000
0100
1000
0010
0000
,  // measure 85
0100
0001
1000
0100
,  // measure 86
1000
0001
0100
0001
,  // measure 87
0001
1000
0010
0000
0100
0000
0002
0000
,  // measure 88
0103
0010
0100
0000
0001
0000
0200
0000
,  // measure 89
0301
1000
0010
0000
1000
0000
0200
0000
,  // measure 90
1300
0010
0100
0000
0001
0000
2000
0000
,  // measure 91
3001
1000
0010
0000
0100
0000
0200
0000
,  // measure 92
0301
0100
0001
0000
0010
0000
0200
0000
,  // measure 93
1300
0001
1000
0000
0010
0000
0100
0000
,  // measure 94
0001
0100
0001
0000
1000
0010
1000
0000
,  // measure 95
0100
0010
0001
0100
;

//---------------dance-single - ----------------
#NOTEDATA:;
#CHARTNAME:;
#STEPSTYPE:dance-single;
#DESCRIPTION:;
#CHARTSTYLE:;
#DIFFICULTY:Easy;
#METER:4;
#RADARVALUES:0.270238,0.359062,0.008333,0.175000,0.000000,227.000000,226.000000,1.000000,21.000000,0.000000,0.000000,0.000000,0.000000,0.000000,0.270238,0.359062,0.008333,0.175000,0.000000,227.000000,226.000000,1.000000,21.000000,0.000000,0.000000,0.000000,0.000000,0.000000;
#CREDIT:Rajeious's Chart;
#NOTES:
// measure 0
0000
0000
0000
0000
,  // measure 1
0000
0000
0000
0000
,  // measure 2
0000
0000
0000
0000
,  // measure 3
0000
0000
0000
0000
,  // measure 4
1000
0001
0000
0100
,  // measure 5
0010
1000
0000
0001
,  // measure 6
0010
0100
0000
1000
,  // measure 7
0001
0010
0100
1000
,  // measure 8
0000
0001
0000
0100
,  // measure 9
0010
1000
0000
0001
,  // measure 10
0010
0100
0000
1000
,  // measure 11
0001
0010
0100
1000
,  // measure 12
0001
0100
0000
0001
,  // measure 13
1000
0010
0000
0001
,  // measure 14
0000
0100
0000
0001
,  // measure 15
1000
0010
0100
0001
,  // measure 16
1000
0100
0000
0001
,  // measure 17
0010
0100
0000
1000
,  // measure 18
0001
0100
0000
0001
,  // measure 19
1000
0010
0100
0002
,  // measure 20
0000
0000
0000
2003
,  // measure 21
0000
0000
0000
3020
,  // measure 22
0000
0000
0000
0230
,  // measure 23
0000
0320
0000
2030
,  // measure 24
0000
0000
0000
3200
,  // measure 25
0000
0000
0000
0320
,  // measure 26
0000
0000
0000
0032
,  // measure 27
0000
2003
0000
3010
,  // measure 28
0000
0000
0000
1000
,  // measure 29
0000
0000
0000
0001
,  // measure 30
0000
0000
0000
1000
,  // measure 31
0000
0000
0000
0010
,  // measure 32
0000
0010
0000
1000
,  // measure 33
0000
1000
0000
0001
,  // measure 34
0010
0001
0100
0010
,  // measure 35
1000
0100
0010
0001
,  // measure 36
0000
0000
1000
1000
,  // measure 37
0000
0000
0010
0010
,  // measure 38
0000
0000
0100
0100
,  // measure 39
0000
0000
0001
0001
,  // measure 40
0000
1000
0000
0010
,  // measure 41
1000
0001
0000
0100
,  // measure 42
0000
0001
0000
0001
,  // measure 43
0010
0100
1000
0100
,  // measure 44
0000
0010
0000
1000
,  // measure 45
0001
0010
0000
1000
,  // measure 46
0001
0100
0010
1000
,  // measure 47
0100
0010
0001
1000
,  // measure 48
0002
0000
0003
0000
,  // measure 49
0000
1010
0000
1000
,  // measure 50
0001
0010
0000
1000
,  // measure 51
0001
1000
0100
0010
,  // measure 52
0001
1000
0000
0010
,  // measure 53
0100
0001
0000
1000
,  // measure 54
0000
0100
0000
0010
,  // measure 55
0001
0010
0000
0002
,  // measure 56
0000
0000
0000
0023
,  // measure 57
0000
0000
0000
0230
,  // measure 58
0000
0000
0000
2300
,  // measure 59
0000
3002
0000
0023
,  // measure 60
0000
0000
0000
0032
,  // measure 61
0000
0000
0000
2003
,  // measure 62
0000
0000
0000
3020
,  // measure 63
0000
0230
0000
0310
,  // measure 64
0000
0000
1000
0100
,  // measure 65
0000
0000
0001
1000
,  // measure 66
0000
0000
0001
0010
,  // measure 67
0000
0000
1000
0001
,  // measure 68
0000
0100
0010
1000
,  // measure 69
0000
0100
0010
0001
,  // measure 70
0000
1000
0000
0010
,  // measure 71
0100
0001
0010
0100
,  // measure 72
0000
0000
0001
0001
,  // measure 73
0000
0000
0100
0100
,  // measure 74
0000
0000
1000
1000
,  // measure 75
0000
0000
0010
0010
,  // measure 76
0000
0000
0100
0100
,  // measure 77
0000
0000
0001
0001
,  // measure 78
0000
0000
1000
1000
,  // measure 79
0000
0010
0000
0100
,  // measure 80
0000
0001
0010
0001
,  // measure 81
0000
0001
0100
0010
,  // measure 82
0000
1000
0000
0100
,  // measure 83
0010
0001
0010
0100
,  // measure 84
0000
1000
0001
0010
,  // measure 85
0000
0001
0100
0010
,  // measure 86
0000
1000
0100
0010
,  // measure 87
0001
0010
0100
1000
,  // measure 88
0000
0001
0010
0100
,  // measure 89
0000
1000
0001
0100
,  // measure 90
0000
0010
1000
0001
,  // measure 91
0000
0010
0001
1000
,  // measure 92
0000
0100
1000
0001
,  // measure 93
0000
0010
0001
0100
,  // measure 94
0001
1000
0100
0010
,  // measure 95
0001
1000
0010
0100
;
