#VERSION:0.83;
#TITLE:Wasureji no Kotonoha;
#SUBTITLE:;
#ARTIST:Kiwako Ashimine Covered By DAZBEE;
#TITLETRANSLIT:;
#SUBTITLETRANSLIT:;
#ARTISTTRANSLIT:;
#GENRE:;
#ORIGIN:;
#CREDIT:;
#BANNER:AV.avi;
#BACKGROUND:bg.png;
#PREVIEWVID:;
#JACKET:jacket.png;
#CDIMAGE:;
#DISCIMAGE:;
#LYRICSPATH:;
#CDTITLE:;
#MUSIC:Wasureji no Kotonoha.ogg;
#OFFSET:-0.230000;
#SAMPLESTART:114.959496;
#SAMPLELENGTH:14.999995;
#SELECTABLE:YES;
#BPMS:0.000=134.964;
#STOPS:;
#DELAYS:;
#WARPS:;
#TIMESIGNATURES:0.000=4=4;
#TICKCOUNTS:0.000=4;
#COMBOS:0.000=1;
#SPEEDS:0.000=1.000=0.000=0;
#SCROLLS:0.000=1.000;
#FAKES:;
#LABELS:0.000=Song Start;
#BGCHANGES:0.000=MV.avi=1.600=1=0=1===CrossFade==,
5.000=MV.avi=1.000=0=0=1=====,
99999=-nosongbg-=1.000=0=0=0 // don't automatically add -songbackground-
;
#KEYSOUNDS:;
#ATTACKS:
;

//---------------dance-single - ----------------
#NOTEDATA:;
#CHARTNAME:;
#STEPSTYPE:dance-single;
#DESCRIPTION:;
#CHARTSTYLE:;
#DIFFICULTY:Hard;
#METER:9;
#RADARVALUES:0.430536,0.472378,0.136989,0.635130,0.006227,484.000000,462.000000,22.000000,102.000000,0.000000,0.000000,0.000000,0.000000,0.000000,0.430536,0.472378,0.136989,0.635130,0.006227,484.000000,462.000000,22.000000,102.000000,0.000000,0.000000,0.000000,0.000000,0.000000;
#CREDIT:Rajeious's Chart;
#NOTES:
// measure 0
0000
0000
0000
0000
,  // measure 1
0000
0000
0000
0000
,  // measure 2
0000
0000
0000
0000
,  // measure 3
0000
0000
0000
0000
,  // measure 4
0000
0000
0000
0000
,  // measure 5
0000
0000
0000
0000
,  // measure 6
0000
0010
2000
0001
,  // measure 7
3001
0020
1000
0130
,  // measure 8
0002
0000
1003
0100
1000
0000
0020
0000
,  // measure 9
0130
0000
1000
0001
2000
0000
3010
0100
,  // measure 10
0002
0003
2000
3000
0020
0030
0200
0300
,  // measure 11
0002
1000
0100
1003
,  // measure 12
1000
0010
0200
0001
,  // measure 13
0310
2000
0010
3001
,  // measure 14
0002
0000
0103
0001
0100
0000
2000
0000
,  // measure 15
3010
0000
0001
0100
0020
0000
1030
0010
,  // measure 16
0200
0000
0302
0003
0020
0030
0200
0300
,  // measure 17
2000
0001
0100
3001
,  // measure 18
0100
0010
0200
0010
,  // measure 19
0301
0002
1000
0103
,  // measure 20
0200
0000
0301
1000
0020
0000
1030
0000
,  // measure 21
0001
0000
1000
0010
2000
0000
3001
0100
,  // measure 22
0020
0000
2030
3000
0200
0300
0020
0030
,  // measure 23
0002
1000
0010
1003
,  // measure 24
0001
1000
2000
0100
,  // measure 25
3001
0020
0001
0130
,  // measure 26
1000
0000
0001
0010
0200
0000
1300
0000
,  // measure 27
1000
0000
0100
0010
0002
0000
1003
0001
,  // measure 28
0200
0300
0020
0030
2000
3000
0002
0003
,  // measure 29
1000
0100
0010
0100
2000
0000
3001
0010
,  // measure 30
0100
0010
0002
0000
1003
0100
0010
0001
,  // measure 31
2000
0000
3001
0010
0100
1000
0100
0010
,  // measure 32
0100
0010
0001
0010
0200
0000
0310
0100
,  // measure 33
1000
0100
0020
0000
0130
1000
0001
0100
,  // measure 34
0020
0000
0130
0001
1000
0010
0200
0000
,  // measure 35
0302
1000
0103
0120
,  // measure 36
1030
0010
0100
0000
0210
0000
0301
1000
,  // measure 37
0001
0000
2001
0000
0010
0000
3001
0010
,  // measure 38
0200
0000
1300
0100
2000
3000
0200
0300
,  // measure 39
0020
0030
0002
1003
0020
0000
0130
0010
,  // measure 40
0100
0001
1000
0000
0010
0000
0100
0000
,  // measure 41
2100
3001
0001
0201
,  // measure 42
0310
1000
0001
0000
0012
0000
0013
0100
,  // measure 43
1000
0000
1002
0000
0100
0000
1003
0010
,  // measure 44
2000
0000
3001
1000
0020
0030
2000
3000
,  // measure 45
0002
0013
0200
0300
2000
0000
3010
0000
,  // measure 46
0100
0002
0000
0000
,  // measure 47
1003
0010
1010
1000
,  // measure 48
0001
1001
1000
0010
,  // measure 49
0110
0100
0001
1001
,  // measure 50
1000
0001
0011
0010
,  // measure 51
0100
1100
1000
0001
,  // measure 52
0101
0000
0100
0000
0000
0000
1000
0001
,  // measure 53
2000
0000
3010
0100
0010
0100
0002
0000
,  // measure 54
0103
0010
0100
0001
2000
0000
3001
0010
,  // measure 55
0001
1000
0100
0010
0002
0003
0001
1000
,  // measure 56
0020
0000
1030
0010
1000
0001
0020
0000
,  // measure 57
0031
1000
0100
1000
0002
0000
0103
0010
,  // measure 58
1000
0100
2000
0000
3001
0010
0100
0010
,  // measure 59
0002
0000
1003
0100
0010
0001
2000
0000
,  // measure 60
3010
0100
0001
0100
0020
0000
1030
0001
,  // measure 61
0100
0001
1000
0010
0200
0300
0100
0001
,  // measure 62
2000
0000
3010
1000
0001
0010
0200
0000
,  // measure 63
1300
0100
1000
0001
0020
0000
0031
0010
,  // measure 64
0001
1000
0001
0010
0100
1000
0100
0010
,  // measure 65
0002
1000
1003
0100
0010
0100
2000
0001
,  // measure 66
3001
0100
0010
1000
0200
1000
1300
0100
,  // measure 67
1000
0001
1000
0001
0200
0310
0100
0010
,  // measure 68
2000
0010
3010
1000
0001
0100
0002
1000
,  // measure 69
1003
0001
1000
0001
0200
0010
0310
0100
,  // measure 70
0010
1000
0001
0000
0001
0010
0100
1000
,  // measure 71
0002
0100
0103
0001
1000
0010
2000
0001
,  // measure 72
3001
1000
0010
0100
0002
1000
1003
0100
,  // measure 73
0010
0100
1000
0001
1000
0010
0100
0001
,  // measure 74
0020
0001
0031
0010
0001
1000
0020
0100
,  // measure 75
0130
0010
1000
0010
0200
0001
0301
0100
,  // measure 76
0001
0000
1001
0000
0001
1000
0100
0010
,  // measure 77
0001
0010
0001
1000
0010
0100
0020
0000
,  // measure 78
1030
0010
0200
0000
0301
0010
0100
1000
,  // measure 79
0100
0010
0002
0000
0103
0000
1000
0001
,  // measure 80
2000
0000
3001
0010
0200
0000
1300
0001
,  // measure 81
1000
0010
0200
0000
0310
1000
0001
0010
,  // measure 82
0100
1000
0002
0000
1000
0000
1003
0000
,  // measure 83
0010
0100
0101
0001
,  // measure 84
1000
1010
0010
1000
,  // measure 85
1001
0001
0100
0110
,  // measure 86
0001
1000
0110
1000
,  // measure 87
0001
0110
1000
0010
,  // measure 88
1001
0000
0000
0000
0000
0010
0100
0020
0000
0000
0000
0000
0000
0000
0000
0000
,  // measure 89
0000
0030
0000
0000
;

//---------------dance-single - ----------------
#NOTEDATA:;
#CHARTNAME:;
#STEPSTYPE:dance-single;
#DESCRIPTION:;
#CHARTSTYLE:;
#DIFFICULTY:Medium;
#METER:6;
#RADARVALUES:0.306891,0.387928,0.124535,0.722305,0.003113,345.000000,325.000000,20.000000,116.000000,0.000000,0.000000,0.000000,0.000000,0.000000,0.306891,0.387928,0.124535,0.722305,0.003113,345.000000,325.000000,20.000000,116.000000,0.000000,0.000000,0.000000,0.000000,0.000000;
#CREDIT:Rajeious's Chart;
#NOTES:
// measure 0
0000
0000
0000
0000
,  // measure 1
0000
0000
0000
0000
,  // measure 2
0000
0000
0000
0000
,  // measure 3
0000
0000
0000
0000
,  // measure 4
0000
0000
0000
0000
,  // measure 5
0000
0000
0000
0000
,  // measure 6
0000
0010
0200
0000
,  // measure 7
0301
2000
0000
3001
,  // measure 8
0200
0000
0000
0310
1000
0000
0002
0000
,  // measure 9
0003
0000
1000
0010
0200
0000
0000
0310
,  // measure 10
2000
0000
3002
0000
0023
0030
0200
0000
,  // measure 11
2300
0000
0000
3000
,  // measure 12
0000
0010
0200
0000
,  // measure 13
0301
0020
0000
0031
,  // measure 14
2000
0000
0000
3010
0200
0300
0002
0000
,  // measure 15
0003
0000
1000
0001
0200
0000
0000
0310
,  // measure 16
2000
3200
0320
0032
,  // measure 17
2003
0000
0000
3000
,  // measure 18
0000
0001
0200
0001
,  // measure 19
0310
2000
0010
3001
,  // measure 20
0002
0000
1003
0001
0100
0000
0020
0000
,  // measure 21
0100
0000
1030
0010
0200
0000
0000
0301
,  // measure 22
2000
3200
0320
0032
,  // measure 23
2003
0010
0001
3100
,  // measure 24
0001
0020
0001
0031
,  // measure 25
0200
0010
0310
1000
,  // measure 26
0002
0000
0000
0013
0001
0000
2000
0000
,  // measure 27
0010
0000
3010
0100
0002
0000
0000
1003
,  // measure 28
0002
0023
0230
2300
,  // measure 29
3002
0010
1000
2003
,  // measure 30
0010
3020
0230
0001
,  // measure 31
0302
0000
2003
0000
3001
0000
0001
0010
,  // measure 32
0200
2300
3002
0203
,  // measure 33
0010
0320
2030
3002
,  // measure 34
0203
0302
0000
0003
,  // measure 35
0010
0200
0301
2000
,  // measure 36
3010
0000
0100
0000
0002
0000
1003
0001
,  // measure 37
0100
0000
0020
0000
0130
0000
0001
1000
,  // measure 38
0002
0000
1003
0001
2000
0000
3200
0000
,  // measure 39
0320
0000
0032
0000
1000
0000
0103
0001
,  // measure 40
1000
0100
0010
1001
,  // measure 41
2000
0010
3001
0200
,  // measure 42
0001
0000
0310
0000
0020
0000
1030
0010
,  // measure 43
0100
0000
0002
0000
0103
0000
0100
0010
,  // measure 44
2000
0000
3010
1000
0002
0000
0023
0000
,  // measure 45
0230
2300
3002
0010
,  // measure 46
1003
1001
0000
0000
,  // measure 47
1000
0010
1010
0000
,  // measure 48
0100
0101
0000
1000
,  // measure 49
1001
0000
0010
0100
,  // measure 50
0001
0100
0101
0000
,  // measure 51
1000
1001
0000
0010
,  // measure 52
1000
1010
0000
0000
,  // measure 53
0102
0000
0003
2010
,  // measure 54
0000
3010
0120
0000
,  // measure 55
0130
0010
0100
0010
1000
0000
1000
0001
,  // measure 56
2000
0000
3000
0120
,  // measure 57
1000
1030
0102
0000
,  // measure 58
0003
0000
2010
0000
3010
0100
0010
0100
,  // measure 59
0001
0000
0001
1000
0010
0000
0020
0000
,  // measure 60
1030
0010
0100
0000
0200
0000
0301
0100
,  // measure 61
0001
0100
0010
1000
0010
0000
0010
0100
,  // measure 62
0002
0000
0003
0000
0001
0010
0200
0000
,  // measure 63
0300
0100
2000
3000
,  // measure 64
0001
0000
0001
0010
0100
1000
0100
0010
,  // measure 65
0002
0100
0100
2003
,  // measure 66
0010
0010
3002
1000
,  // measure 67
0100
0000
0103
0010
2000
0000
3001
0010
,  // measure 68
0200
1000
0010
2300
,  // measure 69
0001
0010
3002
1000
,  // measure 70
0010
0000
1003
0000
1000
0100
0010
0100
,  // measure 71
2000
0001
0010
3002
,  // measure 72
0010
1000
0023
0001
,  // measure 73
0100
0000
0031
0010
0200
0000
1300
0100
,  // measure 74
0020
0001
0100
0032
,  // measure 75
1000
0010
2003
0001
,  // measure 76
0100
0000
3001
0000
0001
0010
0100
0010
,  // measure 77
0002
1000
1000
0023
,  // measure 78
0001
0032
2003
0001
,  // measure 79
3020
0000
0230
0000
0301
0000
0001
1000
,  // measure 80
0020
2030
3002
0203
,  // measure 81
0010
0302
2003
3002
,  // measure 82
0023
0230
1000
1300
,  // measure 83
0001
0100
0101
0000
,  // measure 84
1000
1001
0000
0010
,  // measure 85
0110
0000
0100
0001
,  // measure 86
1000
0001
0011
0000
,  // measure 87
1000
1001
0000
0010
,  // measure 88
1010
0000
0000
0000
0000
2000
0000
0000
0000
0000
0000
0000
0000
0000
0000
0000
,  // measure 89
3000
0000
0000
0000
;

//---------------dance-single - ----------------
#NOTEDATA:;
#CHARTNAME:;
#STEPSTYPE:dance-single;
#DESCRIPTION:;
#CHARTSTYLE:;
#DIFFICULTY:Easy;
#METER:3;
#RADARVALUES:0.196588,0.277091,0.037361,0.572863,0.003113,221.000000,215.000000,6.000000,92.000000,0.000000,0.000000,0.000000,0.000000,0.000000,0.196588,0.277091,0.037361,0.572863,0.003113,221.000000,215.000000,6.000000,92.000000,0.000000,0.000000,0.000000,0.000000,0.000000;
#CREDIT:Rajeious's Chart;
#NOTES:
// measure 0
0000
0000
0000
0000
,  // measure 1
0000
0000
0000
0000
,  // measure 2
0000
0000
0000
0000
,  // measure 3
0000
0000
0000
0000
,  // measure 4
0000
0000
0000
0000
,  // measure 5
0000
0000
0000
0000
,  // measure 6
0000
1000
0020
0030
,  // measure 7
1000
0002
0003
0100
,  // measure 8
0020
0030
0001
2000
,  // measure 9
3000
0010
0200
0300
,  // measure 10
1000
0100
0010
0001
,  // measure 11
2000
0000
0000
3000
,  // measure 12
0000
0001
0020
0030
,  // measure 13
0001
0200
0300
0010
,  // measure 14
2000
3000
1000
0002
,  // measure 15
0003
0100
0020
0030
,  // measure 16
0010
0100
0001
1000
,  // measure 17
0002
0000
0000
0000
,  // measure 18
0003
1000
0020
0030
,  // measure 19
0100
0002
0003
0001
,  // measure 20
2000
3000
0010
0200
,  // measure 21
0300
0001
2000
3000
,  // measure 22
0001
0010
0100
1000
,  // measure 23
0002
0000
0000
0003
,  // measure 24
0000
0010
0200
0300
,  // measure 25
0010
2000
3000
1000
,  // measure 26
0002
0003
0100
0020
,  // measure 27
0030
1000
0002
0003
,  // measure 28
1000
0010
1000
0001
,  // measure 29
0200
0000
0302
0203
,  // measure 30
0000
0320
2030
0000
,  // measure 31
3002
0203
0000
0320
,  // measure 32
2030
3002
0203
0302
,  // measure 33
0000
2003
3200
0320
,  // measure 34
0032
2003
0000
3010
,  // measure 35
0200
0300
0001
2000
,  // measure 36
3000
0010
0200
0300
,  // measure 37
0001
2000
3000
1000
,  // measure 38
0020
0030
1000
0001
,  // measure 39
0100
0010
2000
0000
,  // measure 40
0000
3000
0000
0001
,  // measure 41
0200
0300
0010
2000
,  // measure 42
3000
1000
0002
0003
,  // measure 43
0100
0020
0030
1000
,  // measure 44
2000
3000
0010
1000
,  // measure 45
0100
0010
0002
0000
,  // measure 46
1003
1000
0000
0000
,  // measure 47
0100
0000
0000
0010
,  // measure 48
0000
0000
0001
0000
,  // measure 49
0000
1000
0000
0000
,  // measure 50
0010
0000
0000
0100
,  // measure 51
0000
0000
0001
0000
,  // measure 52
0000
1000
0000
0000
,  // measure 53
0010
0000
0000
0100
,  // measure 54
0000
0000
0001
0000
,  // measure 55
0000
1000
0000
0000
,  // measure 56
0010
0000
0000
0100
,  // measure 57
0000
0000
0001
0000
,  // measure 58
0000
0001
0000
1000
,  // measure 59
1020
0030
0001
2001
,  // measure 60
3000
1000
1002
0003
,  // measure 61
0001
0100
0010
1000
,  // measure 62
1002
0003
0001
2001
,  // measure 63
3000
1000
1020
0030
,  // measure 64
0010
2000
3200
0320
,  // measure 65
0032
1003
0010
0200
,  // measure 66
0301
0100
0020
1030
,  // measure 67
0001
0001
1000
0100
,  // measure 68
2000
3001
1000
0020
,  // measure 69
0130
0010
2000
3001
,  // measure 70
1000
0100
0010
0002
,  // measure 71
0103
0001
2000
3010
,  // measure 72
1000
0100
0020
0031
,  // measure 73
0010
0100
1000
0001
,  // measure 74
0020
0031
0010
0002
,  // measure 75
1003
0001
0200
0310
,  // measure 76
0100
0002
0000
1003
,  // measure 77
0020
0000
2030
3002
,  // measure 78
0000
0203
0320
0000
,  // measure 79
2030
3200
0000
2300
,  // measure 80
3200
0320
0032
2003
,  // measure 81
0000
3020
0230
0320
,  // measure 82
2030
3002
0000
0003
,  // measure 83
1000
0000
0000
0010
,  // measure 84
0000
0000
0100
0000
,  // measure 85
0000
0001
0000
0000
,  // measure 86
1000
0000
0000
0010
,  // measure 87
0000
0000
1000
0000
,  // measure 88
0000
0000
0000
0000
0000
2000
0000
0000
0000
0000
0000
0000
0000
0000
0000
0000
,  // measure 89
3000
0000
0000
0000
;
