#TITLE:WA DA DA;
#SUBTITLE:;
#ARTIST:Kep1er;
#TITLETRANSLIT:;
#SUBTITLETRANSLIT:;
#ARTISTTRANSLIT:;
#GENRE:;
#CREDIT:;
#BANNER:AV.avi;
#BACKGROUND:bg.png;
#LYRICSPATH:;
#CDTITLE:;
#MUSIC:audio.ogg;
#OFFSET:-0.043000;
#SAMPLESTART:40.556648;
#SAMPLELENGTH:14.999990;
#SELECTABLE:YES;
#BPMS:0.000000=125.999992
;
#STOPS:152.000000=-7.619048,
186.000000=-6.190476,
199.333328=-6.190476,
212.666672=-6.190476,
226.000000=-6.190476
;
#BGCHANGES:0.000=MV.avi=0.800=1=0=0=StretchNoLoop==CrossFade==,
7.000=MV.avi=1.000=0=0=1=====,
99999=-nosongbg-=1.000=0=0=0 // don't automatically add -songbackground-
;
#KEYSOUNDS:;
#ATTACKS:;

//---------------dance-single - ----------------
#NOTES:
     dance-single:
     :
     Hard:
     14:
     0.623470,0.812961,0.244270,0.724667,0.517038,536.000000,506.000000,30.000000,89.000000,0.000000,0.000000,0.623470,0.812961,0.244270,0.724667,0.517038,536.000000,506.000000,30.000000,89.000000,0.000000,0.000000:
// measure 0
0000
0000
0000
0000
,  // measure 1
0000
0000
0000
0000
,  // measure 2
0000
0000
0000
0000
,  // measure 3
0000
0000
0000
0000
,  // measure 4
0000
0000
0000
0000
,  // measure 5
0000
0000
0000
0000
,  // measure 6
1001
0000
1000
0000
0001
1000
0010
0000
0010
0000
2000
0000
3001
0010
0100
1000
,  // measure 7
0001
0000
1000
0010
1000
0000
0001
0000
0002
0000
0103
0000
0100
0010
1000
0010
,  // measure 8
0100
0000
0001
0000
1000
0100
0010
0001
1000
0000
0020
0000
0130
0000
0001
0000
,  // measure 9
1000
0200
0000
1300
0200
0000
0310
0000
0110
0000
0100
1000
0001
0000
1000
0000
,  // measure 10
0001
0010
0100
0010
0001
0000
1000
0010
1000
0000
0020
0000
0230
0000
0000
0000
,  // measure 11
0310
0000
0100
0010
1000
0000
0001
0000
2000
0000
0010
0000
3020
0000
0030
0000
,  // measure 12
0100
0001
1000
0001
0100
0000
0010
0100
0010
0000
2000
0000
3020
0000
0000
0000
,  // measure 13
0130
0000
0002
0000
1003
0000
0002
0000
1003
0100
1000
0100
0010
0001
0010
0100
,  // measure 14
1000
0000
0000
1000
0000
0000
1000
0000
0200
0000
0000
0320
0000
0000
0031
0000
,  // measure 15
0001
0000
0000
0001
0000
0000
0001
0000
0200
0000
0000
0000
0310
0000
1000
0000
,  // measure 16
1010
0000
0000
0010
0000
0000
0010
0000
0200
0000
0000
0302
0000
0000
1003
0000
,  // measure 17
1000
0000
0000
1000
0000
0000
1000
0000
0002
0000
0103
0000
0110
0000
0000
0000
,  // measure 18
0001
0000
1000
0100
0010
0100
1000
0000
1000
0000
0010
0100
0010
0100
0001
0000
,  // measure 19
0001
0000
1000
0010
1000
0010
0100
0000
0100
0000
0001
0010
0100
0010
0001
0000
,  // measure 20
0001
0000
1000
0001
1000
0001
0100
0000
0100
0000
0010
1000
0010
1000
0001
0000
,  // measure 21
0001
1000
0001
1000
2002
0000
3003
0000
,  // measure 22
0020
0000
0030
0000
1001
0000
1000
0000
0020
0000
0030
0000
0110
0000
0100
0001
,  // measure 23
1000
0000
1000
0000
1000
0000
0001
0100
0010
0000
1000
0000
0010
0100
0001
0000
,  // measure 24
0200
0000
0300
0000
1010
0000
1000
0000
0002
0000
0003
0000
0001
1000
0001
0000
,  // measure 25
0100
0000
0010
0000
1000
0001
1000
0000
0010
0000
0100
0000
0101
0000
0000
0000
,  // measure 26
0020
0000
0030
0000
1001
0000
1000
0000
0002
0000
0003
0000
0101
0000
0001
1000
,  // measure 27
0010
0000
0010
0000
0010
0000
0100
0001
0100
0000
0100
0000
0010
1000
0010
0000
,  // measure 28
0200
0000
0300
0000
0010
0100
0010
0000
1000
0000
0001
0000
0100
0010
0100
0000
,  // measure 29
0002
2003
3200
0320
0230
0320
0032
0003
,  // measure 30
2000
0000
3200
0000
0310
0000
0010
0001
0020
0000
0031
0000
0001
1000
0002
0000
,  // measure 31
0103
0000
0020
0000
0230
0000
0310
1000
0020
0000
0030
0000
1010
0000
0000
0000
,  // measure 32
0002
0000
0203
0000
0310
0000
0010
1000
0020
0000
1030
0000
1000
0001
1000
0000
,  // measure 33
0001
0010
1000
0010
0001
0001
2002
3003
,  // measure 34
0002
0000
0023
0000
0130
0000
0100
1000
0200
0000
1300
0000
1000
0001
2000
0000
,  // measure 35
3010
0000
0200
0000
0320
0000
0130
0001
0200
0000
0310
0000
0020
0000
0030
0000
,  // measure 36
2000
0000
3020
0000
0130
0000
0100
0001
0200
0000
0301
0000
0001
1000
0001
0000
,  // measure 37
1000
0100
0001
0100
1000
1000
2002
3003
,  // measure 38
0000
0000
0000
0000
,  // measure 39
0000
0000
0000
0000
,  // measure 40
0000
0000
0000
0000
,  // measure 41
0000
0000
0000
0000
,  // measure 42
0000
0000
0000
0000
,  // measure 43
1000
0001
1000
0001
0100
0000
0010
1000
0001
0000
0100
0001
1000
0000
0010
0000
,  // measure 44
0100
0000
0001
0000
0010
0001
0010
0000
0001
0000
1000
0010
0100
0000
0100
0000
,  // measure 45
0101
0000
0001
0000
1000
0010
0000
0010
0100
0000
0100
0001
0000
0000
1000
0000
,  // measure 46
0001
0000
0000
0100
0000
0000
0010
0000
0000
0100
0000
0000
0001
0000
0000
0000
0000
0000
1000
0000
0000
0001
0000
0000
1000
0000
0000
0000
0010
0000
0000
0000
0100
0000
0000
0000
0002
0000
0000
0000
0000
0000
0003
0000
0000
0000
0000
0000
,  // measure 47
0M0M
0000
0M00
00M0
M000
0000
00M0
0000
M000
0000
000M
0M00
000M
0000
0M00
0000
,  // measure 48
000M
0000
0M00
00M0
0M00
0000
00M0
0000
0M00
0000
000M
M000
000M
0000
M000
0000
,  // measure 49
000M
0000
0000
000M
0000
0000
M000
0000
0000
0000
0000
0000
0000
0000
0000
0000
0000
0000
1000
0000
0010
0000
0100
0000
,  // measure 50
0002
0000
0003
0000
0M0M
0000
0M00
00M0
F000
0000
00M0
0000
F000
0000
000M
0M00
,  // measure 51
000M
0000
0M00
0000
000M
0000
0M00
00M0
0M00
0000
00M0
0000
0M00
0000
000M
F000
,  // measure 52
000M
F000
000M
000M
F000
0000
0000
0000
,  // measure 53
0000
0000
0000
0000
0010
0000
0000
0000
0100
0000
0000
0000
0002
0000
0000
0000
0000
0000
0003
0000
0000
0000
0000
0000
0M0M
0000
0000
0000
0000
0000
0M00
0000
0000
00F0
0000
0000
F000
0000
0000
0000
0000
0000
00F0
0000
0000
0000
0000
0000
,  // measure 54
F000
0000
000M
0M00
000M
0000
0M00
0000
000M
0000
0M00
00F0
0M00
0000
00F0
0000
,  // measure 55
0M00
0000
000M
F000
000M
0000
F000
0000
000M
0000
000M
0000
F000
0000
0000
0000
,  // measure 56
0000
0000
0000
0000
0000
0000
0000
0000
0000
0000
0000
0000
0000
0000
0000
0000
0000
0000
0000
0000
0100
0000
0000
0000
0002
0000
0000
0000
0000
0000
0003
0000
0000
0000
0000
0000
0F0M
0000
0000
0000
0000
0000
0F00
0000
0000
00F0
0000
0000
,  // measure 57
F000
0000
00F0
0000
F000
0000
000M
0F00
000M
0000
0F00
0000
000M
0000
0F00
00F0
,  // measure 58
0F00
0000
00F0
0000
0F00
0000
000M
F000
000M
0000
F000
0000
000M
0000
000M
0000
,  // measure 59
F000
0000
0000
0000
0000
0000
0002
0003
,  // measure 60
0101
0000
0100
0010
1000
0000
0010
0000
1000
0000
0001
0100
0001
0000
0100
0000
,  // measure 61
0001
0000
0100
0010
0100
0000
0010
0000
0100
0000
0001
1000
0001
0000
1000
0000
,  // measure 62
0001
0001
1000
1000
0010
0010
0100
0100
,  // measure 63
0001
1000
0010
1000
0001
1000
0010
1000
0001
0000
0000
0000
0000
0000
0000
0000
,  // measure 64
0110
0000
0100
0000
0010
0000
1000
0000
1001
0000
0001
1000
0010
0000
0010
1000
,  // measure 65
0001
0000
0001
0000
0001
0000
1000
0010
0100
0000
0001
0000
0100
0010
1000
0010
,  // measure 66
0100
0000
0100
0000
0001
0000
0001
0000
1001
0000
1000
0000
0001
1000
0010
0000
,  // measure 67
0100
0000
0010
0000
1000
0001
1000
0000
0001
0000
0010
0000
0100
0000
1000
0000
,  // measure 68
1100
0000
0100
0000
1000
0000
0001
0000
1001
0000
1000
0001
0010
0000
0001
1000
,  // measure 69
0010
0000
0010
0000
0010
0000
0100
0001
0100
0000
0001
0000
0100
0001
1000
0001
,  // measure 70
0100
0000
0010
0000
0100
0010
0100
0000
0001
0000
1000
0000
0010
0100
0010
0000
,  // measure 71
2000
3002
0023
0230
0320
0230
2300
3000
,  // measure 72
0002
0000
0013
0000
0110
0000
0100
1000
0200
0000
1300
0000
1000
0001
2000
0000
,  // measure 73
3010
0000
0200
0000
0320
0000
0130
0001
0200
0000
0300
0000
0101
0000
0000
0000
,  // measure 74
2000
0000
3010
0000
0110
0000
0100
0001
0200
0000
0301
0000
0001
1000
0001
0000
,  // measure 75
1000
0100
0001
0100
1000
1001
2002
3003
,  // measure 76
2000
0000
3100
0000
0110
0000
0010
0001
0020
0000
0031
0000
0001
1000
0002
0000
,  // measure 77
0103
0000
0020
0000
0230
0000
0310
1000
0020
0000
0130
0000
0200
0000
0300
0000
,  // measure 78
0002
0000
0103
0000
0110
0000
0010
1000
0020
0000
1030
0000
1000
0001
1000
0000
,  // measure 79
0001
0010
1000
0010
0001
1001
2002
3003
;

//---------------dance-single - ----------------
#NOTES:
     dance-single:
     :
     Medium:
     9:
     0.424564,0.521109,0.081423,0.512967,0.158775,365.000000,355.000000,10.000000,63.000000,0.000000,0.000000,0.424564,0.521109,0.081423,0.512967,0.158775,365.000000,355.000000,10.000000,63.000000,0.000000,0.000000:
// measure 0
0000
0000
0000
0000
,  // measure 1
0000
0000
0000
0000
,  // measure 2
0000
0000
0000
0000
,  // measure 3
0000
0000
0000
0000
,  // measure 4
0000
0000
0000
0000
,  // measure 5
0000
0000
0000
1000
0100
1000
0001
0010
,  // measure 6
0100
0000
1000
0100
0010
0000
0100
0000
,  // measure 7
1000
0100
0010
0001
1000
0000
0010
0100
,  // measure 8
0010
0000
1000
0001
1000
0000
0100
0000
,  // measure 9
0001
0010
0100
1000
0001
0000
1001
0000
,  // measure 10
0100
0010
0100
0010
1000
0001
0020
0000
,  // measure 11
0130
1000
0001
0100
0002
0000
0013
0000
,  // measure 12
1000
0100
1000
0010
1000
0001
0020
0000
,  // measure 13
0031
0010
0100
1000
0002
0000
0103
0000
,  // measure 14
0010
0000
1000
0000
0001
1000
0100
1000
,  // measure 15
0002
0000
0013
0100
0020
0000
0130
0000
,  // measure 16
0001
0000
0010
0000
0001
0010
0100
1000
,  // measure 17
0020
0000
1030
0010
2000
0000
3010
0000
,  // measure 18
1000
0100
1000
0001
0020
0000
0130
0000
,  // measure 19
0001
1000
0010
1000
0002
0000
0013
0000
,  // measure 20
0100
0010
0001
0010
0100
1000
0001
0100
,  // measure 21
0010
0100
0010
0100
0020
0000
0130
0000
,  // measure 22
0001
0000
0000
0000
1000
0000
0001
0000
1000
0000
0000
1000
0000
0000
1000
0100
,  // measure 23
1000
0000
1000
0000
1000
0000
1000
0001
2000
0000
0000
0000
3001
0000
0000
0000
,  // measure 24
1000
0000
0000
0000
0100
0000
0010
0000
0001
0000
0000
0000
0010
0001
0010
0000
,  // measure 25
0000
0000
0000
0000
0001
0010
0001
0000
0000
0000
0010
0000
0200
0000
0000
0000
,  // measure 26
1300
0000
0000
0000
0010
0000
1000
0000
0010
0000
0000
1000
0000
0000
0001
0010
,  // measure 27
0001
0000
0001
0000
0001
0000
0001
0100
0002
0000
0000
0000
0103
0000
0000
0000
,  // measure 28
0010
0000
0000
0000
1000
0010
1000
0000
0000
0000
0000
0000
0010
1000
0010
0000
,  // measure 29
1000
0100
0010
0001
0010
0001
0020
0000
,  // measure 30
0032
2003
3000
2000
3002
0003
0002
2003
,  // measure 31
3000
2000
3200
2300
3200
0300
1100
0000
,  // measure 32
0002
2003
3000
2000
3002
0003
0002
2003
,  // measure 33
3100
0010
0001
0010
0100
0010
0200
0000
,  // measure 34
0320
0230
0300
0200
0320
0030
0020
0230
,  // measure 35
0300
0200
0320
0032
0023
0032
2003
3000
,  // measure 36
0002
2003
3000
2000
3200
0300
0200
2300
,  // measure 37
3010
1000
0001
0010
0100
1000
0002
0003
,  // measure 38
0000
0000
0000
0000
,  // measure 39
0000
0000
0000
0000
,  // measure 40
0000
0000
0000
0000
,  // measure 41
0000
0000
0000
0000
,  // measure 42
0000
0000
0000
0000
,  // measure 43
1000
0000
1000
0100
1000
0000
0010
0000
2000
0000
0000
0000
3001
0000
0000
0000
,  // measure 44
0001
0000
0010
0000
0100
0010
0100
0000
0020
0000
0000
0000
0130
0000
0000
0000
,  // measure 45
0001
0000
1000
0000
0010
0000
1000
0010
2000
0000
0000
0000
3001
0000
0000
0000
,  // measure 46
0010
1000
0001
1000
0001
0000
M000
0000
,  // measure 47
M000
0000
0000
M000
0000
0000
M000
0000
000M
0000
0000
000M
0000
0000
000M
0000
,  // measure 48
00M0
0000
0000
00M0
0000
0000
00M0
0000
0000
0000
0000
0000
0000
0000
0000
0000
,  // measure 49
0000
0000
0000
0001
,  // measure 50
1000
0000
0000
0000
M000
0000
0000
M000
0000
0000
1000
0000
000M
0000
0000
000M
,  // measure 51
0000
0000
0001
0000
00M0
0000
0000
00M0
0000
0000
0010
0000
0000
0000
0000
0000
,  // measure 52
0000
0000
0000
0000
,  // measure 53
0000
0000
0000
0000
M000
0000
0000
0000
M000
0000
0000
1000
0000
0000
1000
0000
,  // measure 54
000M
0000
0000
0001
0000
0000
0001
0000
00M0
0000
0000
0010
0000
0000
0010
0000
,  // measure 55
0000
0000
0000
0000
,  // measure 56
0000
0000
0000
0000
0000
0000
0000
0000
1000
0000
0000
0000
1000
0000
0000
M000
,  // measure 57
0000
0000
1000
0000
000M
0000
0000
0001
0000
0000
000M
0000
00M0
0000
0000
0010
,  // measure 58
0000
00M0
0000
0000
0000
0000
0000
0000
,  // measure 59
0000
0000
0000
1000
,  // measure 60
1000
0000
0000
1000
0000
0000
1000
0000
0001
0000
0000
0001
0000
0000
0001
0000
,  // measure 61
0010
0000
0000
0010
0000
0000
0010
0000
0001
0000
0000
0001
0000
0000
0001
0000
,  // measure 62
0010
0100
1000
0001
0100
0010
1000
0001
,  // measure 63
0010
0100
1000
0001
1000
0001
2000
0000
,  // measure 64
3001
0000
0001
0000
0000
0000
0010
0000
1000
0000
0000
0010
0000
0000
1000
0100
,  // measure 65
1000
0000
1000
0000
1000
0000
1000
0001
0020
0000
0000
0000
0031
0000
0000
0000
,  // measure 66
0001
0000
0001
0000
0000
0000
0100
0000
0010
0000
0000
0000
0010
0100
0010
0000
,  // measure 67
0000
0000
0000
0000
0100
0010
0100
0000
0000
0000
0001
0000
2000
0000
0000
0000
,  // measure 68
3010
0000
0010
0000
0000
0000
1000
0000
0100
0000
0000
1000
0000
0000
1000
0001
,  // measure 69
1000
0000
1000
0000
1000
0000
1000
0100
2000
0000
0000
0000
3100
0000
0000
0000
,  // measure 70
0001
0000
0000
0000
1000
0001
1000
0000
0000
0000
0000
0000
0001
1000
0001
0000
,  // measure 71
0010
0100
1000
0010
0100
0010
0200
0000
,  // measure 72
0310
0110
0100
0110
,  // measure 73
1000
0100
1000
0100
2000
0000
3100
0000
,  // measure 74
0001
0011
0010
0011
,  // measure 75
0001
0010
0100
1000
0010
0100
0020
0000
,  // measure 76
0130
0110
0010
0110
,  // measure 77
1000
0100
0010
0001
0020
0000
0031
0000
,  // measure 78
0001
0011
0100
0110
,  // measure 79
1000
0100
1000
0010
0100
0001
0020
0000
,  // measure 80
0030
0000
0000
0000
;

//---------------dance-single - ----------------
#NOTES:
     dance-single:
     :
     Easy:
     4:
     0.266370,0.389610,0.040712,0.105850,0.000000,229.000000,224.000000,5.000000,13.000000,0.000000,0.000000,0.266370,0.389610,0.040712,0.105850,0.000000,229.000000,224.000000,5.000000,13.000000,0.000000,0.000000:
// measure 0
0000
0000
0000
0000
,  // measure 1
0000
0000
0000
0000
,  // measure 2
0000
0000
0000
0000
,  // measure 3
0000
0000
0000
0000
,  // measure 4
0000
0000
0000
0000
,  // measure 5
0000
0000
1000
1000
,  // measure 6
1000
0000
1000
0100
1000
0000
0010
0000
,  // measure 7
1000
0001
1000
0000
0001
0000
0010
0000
,  // measure 8
0100
0000
1000
0010
1000
0000
1000
0000
,  // measure 9
0001
1000
0001
0000
0010
0000
0001
0000
,  // measure 10
0010
0000
0100
0000
1000
0001
0010
0000
,  // measure 11
0100
1000
0020
1030
,  // measure 12
0001
0000
0010
0000
0100
1000
0100
0000
,  // measure 13
1000
0001
0001
1001
,  // measure 14
1000
0001
1000
0010
,  // measure 15
2000
0000
3002
0000
,  // measure 16
0013
0100
1000
0010
,  // measure 17
0200
0000
0320
0000
,  // measure 18
1030
0001
0010
0100
,  // measure 19
0100
0010
0100
0000
2000
0000
0000
0000
,  // measure 20
3010
1000
0010
1000
,  // measure 21
0002
0000
0013
0000
,  // measure 22
0010
1000
0010
1000
,  // measure 23
0010
1000
0010
0000
1000
0000
0001
0000
,  // measure 24
1000
1000
0100
1000
,  // measure 25
0010
1000
0001
0010
,  // measure 26
0100
0010
0100
0010
,  // measure 27
0010
0001
0010
0000
0100
0000
1000
0000
,  // measure 28
0010
1000
0010
1000
,  // measure 29
0020
0000
0000
0000
,  // measure 30
1030
0001
1000
0001
,  // measure 31
1000
0000
0010
1000
0010
0000
1010
0000
,  // measure 32
0001
1000
0001
1000
,  // measure 33
0100
0010
0100
0100
,  // measure 34
1000
0001
1000
0001
,  // measure 35
1000
0000
0010
1000
0010
0000
1010
0000
,  // measure 36
1000
0100
1000
0100
,  // measure 37
1000
0001
1000
1000
,  // measure 38
1000
0000
0000
0000
,  // measure 39
0000
0000
0000
0000
,  // measure 40
0000
0000
0000
0000
,  // measure 41
0000
0000
0000
0000
,  // measure 42
0000
0000
0000
0000
,  // measure 43
1000
0001
1000
0000
,  // measure 44
1000
0010
1000
0000
,  // measure 45
0100
1000
0001
0010
,  // measure 46
0002
0000
0003
0000
,  // measure 47
M000
M000
000M
000M
,  // measure 48
00M0
00M0
0000
0000
,  // measure 49
0000
0000
0000
0000
,  // measure 50
0000
1000
M000
0001
,  // measure 51
000M
0010
00M0
0000
,  // measure 52
0000
0000
0000
0000
,  // measure 53
0000
0000
M000
M000
,  // measure 54
0001
000M
00M0
00M0
,  // measure 55
0000
0000
0000
0000
,  // measure 56
0000
0000
0000
1000
,  // measure 57
M000
000M
000M
00M0
,  // measure 58
0010
0000
0000
0000
,  // measure 59
0000
0000
0000
0000
,  // measure 60
1000
1000
0001
0001
,  // measure 61
0010
0010
0100
0100
,  // measure 62
1000
0000
0001
0000
1000
0000
0001
1000
,  // measure 63
0001
1000
2000
0000
,  // measure 64
3001
0001
1000
1000
,  // measure 65
0100
1000
0100
0000
2000
0000
0000
0000
,  // measure 66
3010
0010
1000
0001
,  // measure 67
0001
0010
0200
0000
,  // measure 68
1300
1000
0010
0010
,  // measure 69
1000
0010
1000
0000
0010
0000
1000
0000
,  // measure 70
0001
1000
0001
1000
,  // measure 71
0001
1000
0100
1000
,  // measure 72
1010
0010
1000
1000
,  // measure 73
0001
0000
0001
1000
0001
0000
1001
0000
,  // measure 74
0001
0001
0010
0010
,  // measure 75
0100
1000
0010
0010
,  // measure 76
1000
1000
0001
0001
,  // measure 77
0100
0000
0100
0010
0200
0000
0310
0000
,  // measure 78
1000
1000
0001
0001
,  // measure 79
0010
0100
1000
1000
;

//---------------dance-single - ----------------
#NOTES:
     dance-single:
     :
     Beginner:
     2:
     0.139583,0.291292,0.000000,0.048854,0.000000,120.000000,120.000000,0.000000,6.000000,0.000000,0.000000,0.139583,0.291292,0.000000,0.048854,0.000000,120.000000,120.000000,0.000000,6.000000,0.000000,0.000000:
// measure 0
0000
0000
0000
0000
,  // measure 1
0000
0000
0000
0000
,  // measure 2
0000
0000
0000
0000
,  // measure 3
0000
0000
0000
0000
,  // measure 4
0000
0000
0000
0000
,  // measure 5
0000
0000
0000
0000
,  // measure 6
1000
0000
0000
0000
,  // measure 7
1000
0000
0000
0000
,  // measure 8
0010
0000
0000
0000
,  // measure 9
0001
0000
0000
0000
,  // measure 10
0100
0000
0000
0000
,  // measure 11
1000
0000
0000
0000
,  // measure 12
0010
0000
0000
0000
,  // measure 13
0001
0000
0000
0000
,  // measure 14
1000
0000
1000
0000
,  // measure 15
1000
0000
0000
0000
,  // measure 16
0010
0000
0010
0000
,  // measure 17
0010
0000
0000
0000
,  // measure 18
1000
0000
0001
0000
,  // measure 19
1000
0000
0010
0000
,  // measure 20
1000
0000
0001
0000
,  // measure 21
0020
0000
0000
0000
,  // measure 22
0031
0000
0001
0000
,  // measure 23
1000
0000
2000
0000
,  // measure 24
3010
0000
0010
0000
,  // measure 25
1000
0000
1000
0000
,  // measure 26
0001
0000
0001
0000
,  // measure 27
0010
0000
0020
0000
,  // measure 28
0031
0000
0001
0000
,  // measure 29
1000
0000
0000
0000
,  // measure 30
0100
1000
0100
0000
,  // measure 31
0010
1000
0010
0000
,  // measure 32
1000
0001
1000
0000
,  // measure 33
2000
0000
3100
0000
,  // measure 34
0001
0010
0001
0000
,  // measure 35
0010
0100
0010
0000
,  // measure 36
1000
0001
1000
0000
,  // measure 37
0002
0000
0000
0003
,  // measure 38
0000
0000
0000
0000
,  // measure 39
0000
0000
0000
0000
,  // measure 40
0000
0000
0000
0000
,  // measure 41
0000
0000
0000
0000
,  // measure 42
0000
0000
0000
0000
,  // measure 43
1000
0000
1000
0000
,  // measure 44
0010
0000
0010
0000
,  // measure 45
1000
0001
1000
0000
,  // measure 46
0001
1000
0000
0000
,  // measure 47
0001
0001
1000
1000
,  // measure 48
0000
0000
0000
0000
,  // measure 49
0000
0000
0000
0000
,  // measure 50
0000
0001
0001
1000
,  // measure 51
1000
0000
0000
0000
,  // measure 52
0000
0000
0000
0000
,  // measure 53
0000
0000
0001
0001
,  // measure 54
1000
1000
0000
0000
,  // measure 55
0000
0000
0000
0000
,  // measure 56
0000
0000
0000
0001
,  // measure 57
0001
1000
1000
0000
,  // measure 58
0000
0000
0000
0000
,  // measure 59
0000
0000
0000
0000
,  // measure 60
0001
0001
1000
1000
,  // measure 61
0010
0010
1000
1000
,  // measure 62
0002
0000
0000
0000
,  // measure 63
1003
0000
0000
0000
,  // measure 64
0010
0000
0010
0000
,  // measure 65
1000
0010
1000
0000
,  // measure 66
0001
0000
0001
0000
,  // measure 67
1000
0001
1000
0000
,  // measure 68
0100
0000
0100
0000
,  // measure 69
1000
0010
1000
0000
,  // measure 70
0001
0000
0001
0000
,  // measure 71
1000
0000
0000
0000
,  // measure 72
0100
1000
0100
1000
,  // measure 73
0010
0010
0010
0000
,  // measure 74
1000
0001
1000
0001
,  // measure 75
1000
0000
1000
0000
,  // measure 76
0001
1000
0001
1000
,  // measure 77
0100
0100
1000
0000
,  // measure 78
0010
1000
0010
1000
,  // measure 79
0010
0000
1000
0000
;
