#VERSION:0.83;
#TITLE:Usagi Flap;
#SUBTITLE:;
#ARTIST:Nor;
#TITLETRANSLIT:;
#SUBTITLETRANSLIT:;
#ARTISTTRANSLIT:;
#GENRE:;
#ORIGIN:;
#CREDIT:;
#BANNER:Usagi Flap.png;
#BACKGROUND:Usagi Flap-bg.png;
#PREVIEWVID:;
#JACKET:Usagi Flap-jacket.png;
#CDIMAGE:;
#DISCIMAGE:;
#LYRICSPATH:;
#CDTITLE:;
#MUSIC:Usagi Flap.ogg;
#OFFSET:-0.351000;
#SAMPLESTART:79.728325;
#SAMPLELENGTH:15.000004;
#SELECTABLE:YES;
#BPMS:0.000=169.986;
#STOPS:;
#DELAYS:;
#WARPS:;
#TIMESIGNATURES:0.000=4=4;
#TICKCOUNTS:0.000=4;
#COMBOS:0.000=1;
#SPEEDS:0.000=1.000=0.000=0;
#SCROLLS:0.000=1.000;
#FAKES:;
#LABELS:0.000=Song Start;
#BGCHANGES:;
#KEYSOUNDS:;
#ATTACKS:
;

//---------------dance-single - ----------------
#NOTEDATA:;
#CHARTNAME:;
#STEPSTYPE:dance-single;
#DESCRIPTION:;
#CHARTSTYLE:;
#DIFFICULTY:Hard;
#METER:14;
#RADARVALUES:0.652003,0.755227,0.314760,0.338367,0.078690,580.000000,540.000000,40.000000,43.000000,7.000000,0.000000,0.000000,0.000000,0.000000,0.652003,0.755227,0.314760,0.338367,0.078690,580.000000,540.000000,40.000000,43.000000,7.000000,0.000000,0.000000,0.000000,0.000000;
#CREDIT:Rajeious's Chart;
#NOTES:
// measure 0
0000
0000
0000
0000
,  // measure 1
0000
0000
0000
0000
,  // measure 2
0000
0000
0000
0000
,  // measure 3
0000
0000
0000
0000
0000
2000
0000
3001
,  // measure 4
0010
0001
0100
0000
1010
0000
1000
0001
,  // measure 5
0100
0002
0000
2003
0000
3200
0000
1300
,  // measure 6
0100
0010
0002
0000
0003
0000
2000
0000
,  // measure 7
3000
0002
0000
0003
0000
0000
0000
2000
,  // measure 8
0000
3010
0100
0001
0100
0001
1000
0000
,  // measure 9
1000
0010
0100
0001
0010
0001
0100
0000
,  // measure 10
0100
0001
1000
0100
1000
0100
0010
0000
,  // measure 11
0010
0001
1000
0001
0010
0100
2000
0000
,  // measure 12
3010
0000
0201
0000
0310
0010
0010
0000
,  // measure 13
1000
0000
1002
0000
0103
0100
0100
0000
,  // measure 14
0001
1000
0010
0100
1000
0100
0020
0000
,  // measure 15
1030
0002
0000
2003
0100
3000
0001
1000
,  // measure 16
0110
0000
1000
0100
0001
0100
1000
0000
,  // measure 17
0110
0000
0001
1000
0100
0010
0002
0000
,  // measure 18
0013
1000
0001
0100
1000
0100
0001
0000
,  // measure 19
0110
0000
1000
0001
0010
0100
1000
0001
,  // measure 20
0100
0000
0002
0000
1003
1000
1000
0001
,  // measure 21
0100
0001
0020
0000
0031
0001
0001
1000
,  // measure 22
0100
1000
0010
0100
0001
0100
0020
0000
,  // measure 23
1030
0002
0000
2003
0010
3000
0001
0100
,  // measure 24
0001
1100
1000
1010
,  // measure 25
0001
0100
0010
0001
1000
0100
0000
0001
,  // measure 26
1000
1100
0100
0110
,  // measure 27
0010
0001
1000
0000
1000
0100
0000
0001
,  // measure 28
1000
1001
0100
1001
,  // measure 29
0010
0100
1000
0100
0010
1000
0000
1000
,  // measure 30
0001
1010
0100
0101
,  // measure 31
0001
1000
0001
0000
1000
0100
0000
0100
,  // measure 32
1000
0000
0001
0000
1000
0100
0010
0100
,  // measure 33
1000
0001
0000
0100
0010
0000
0010
1000
,  // measure 34
0001
0000
0001
0000
0100
0000
0001
1000
,  // measure 35
0001
0100
0000
0010
1000
0000
0001
0010
,  // measure 36
0100
0010
0001
0000
0001
0000
1000
0000
,  // measure 37
0010
0100
0000
0010
0000
0100
0000
0001
,  // measure 38
0010
0001
1000
0100
1000
0001
0100
0010
,  // measure 39
0000
1000
0000
0000
0000
0000
0020
0030
,  // measure 40
0200
0300
1001
0000
0001
0000
1010
0000
,  // measure 41
0001
1000
0100
0000
0100
1000
0001
0000
,  // measure 42
1000
1010
0100
1001
,  // measure 43
0100
0010
0001
0000
0001
0010
0100
0000
,  // measure 44
0100
1001
1000
0101
,  // measure 45
0001
1000
0010
0000
0010
1000
0001
0000
,  // measure 46
0100
1001
1000
0110
,  // measure 47
0100
0000
0000
0000
0001
0000
1000
0100
1000
0000
0001
0000
0100
0010
0100
0010
,  // measure 48
1000
0000
0001
0000
1000
0000
0010
0000
1000
0000
0010
0000
0100
0000
0000
0100
,  // measure 49
0001
0000
0100
0000
0010
0000
1000
0000
0010
0000
1000
0000
0001
0000
0000
0001
,  // measure 50
0100
0000
0001
0000
1000
0000
0100
0000
0010
0000
0100
0000
1000
0000
0000
1000
,  // measure 51
0100
0000
1000
0000
0001
0000
0010
0000
0001
0000
1000
0000
0010
0000
0100
0010
,  // measure 52
1000
0000
0001
0000
1001
0000
0000
0000
0110
0000
0000
0000
0001
0000
0100
0010
,  // measure 53
0100
0000
0001
0000
1100
0000
0000
0000
0011
0000
0000
0000
1000
0000
0001
0010
,  // measure 54
0100
0010
0001
0001
1000
1000
0010
0010
,  // measure 55
1000
0000
1000
0000
0001
0100
0010
0100
0001
0100
0010
0100
0001
0000
2000
0000
,  // measure 56
3020
0030
1001
0100
1001
0100
2000
0000
,  // measure 57
3010
0100
0001
1000
0001
1000
0100
0010
,  // measure 58
0001
1000
1001
0010
1001
0010
2000
0000
,  // measure 59
3001
0010
0100
0010
0100
1000
0001
0010
,  // measure 60
0100
0000
1000
0000
0010
0000
0100
0000
0010
0000
1000
0000
0001
0000
1000
0100
,  // measure 61
0010
0000
0100
0000
1000
0000
0001
0000
1000
0000
0010
0000
0100
0000
0001
1000
,  // measure 62
0001
0100
0010
1000
0100
0010
0002
1000
,  // measure 63
1003
0000
0020
0000
0130
0000
0002
0000
1003
0000
0100
0000
0010
0100
1000
0000
,  // measure 64
0001
0000
1001
0010
1001
0010
0002
0000
,  // measure 65
0103
0010
1000
0001
1000
0001
0010
0100
,  // measure 66
1000
0001
1001
0100
1001
0100
0002
0000
,  // measure 67
1003
0100
0010
0100
0010
0001
1000
0100
,  // measure 68
0010
0000
0001
0000
0100
0000
0010
0000
0100
0000
0001
0000
1000
0000
0001
0010
,  // measure 69
0100
0000
0010
0000
0001
0000
1000
0000
0001
0000
0100
0000
0010
0000
1000
0001
,  // measure 70
1000
0010
0100
0001
0010
0100
2000
0001
,  // measure 71
3001
0200
0310
2000
3001
0010
0100
0010
,  // measure 72
0001
0000
1000
0001
1000
0001
0010
00M0
,  // measure 73
0001
0100
0000
1000
0010
1000
0010
00M0
,  // measure 74
1000
0001
0000
0100
0010
0100
0010
00M0
,  // measure 75
1000
0001
0000
0010
0001
0010
0001
000M
,  // measure 76
1000
0010
0000
0100
0001
0100
0001
000M
,  // measure 77
1000
0010
0000
1000
0100
1000
0100
0M00
,  // measure 78
1000
0001
0000
0010
0001
0010
0001
000M
,  // measure 79
0100
0000
0010
0000
0000
0000
1000
0000
0100
0000
1000
0000
0010
0100
0010
0000
,  // measure 80
1000
0000
1001
0000
0101
0000
0100
0010
,  // measure 81
1000
0010
0000
0010
1000
0001
0000
1000
,  // measure 82
0010
0001
0010
1000
0010
1000
0100
0010
,  // measure 83
0001
1000
0000
1000
0100
0010
0001
0010
,  // measure 84
0100
1000
0001
0000
0101
0000
0100
0010
,  // measure 85
0100
0000
0020
0000
1030
0000
0200
0000
1300
0000
0020
0000
0130
0001
0100
0000
,  // measure 86
0001
1000
2020
3030
0000
0000
0220
0330
,  // measure 87
0000
2002
3003
0000
0000
0000
0000
0000
;

//---------------dance-single - ----------------
#NOTEDATA:;
#CHARTNAME:;
#STEPSTYPE:dance-single;
#DESCRIPTION:;
#CHARTSTYLE:;
#DIFFICULTY:Medium;
#METER:10;
#RADARVALUES:0.433919,0.480599,0.133773,0.173118,0.000000,386.000000,369.000000,17.000000,22.000000,0.000000,0.000000,0.000000,0.000000,0.000000,0.433919,0.480599,0.133773,0.173118,0.000000,386.000000,369.000000,17.000000,22.000000,0.000000,0.000000,0.000000,0.000000,0.000000;
#CREDIT:Rajeious's Chart;
#NOTES:
// measure 0
0000
0000
0000
0000
,  // measure 1
0000
0000
0000
0000
,  // measure 2
0000
0000
0000
0000
,  // measure 3
0000
0000
0000
0000
,  // measure 4
0000
0001
1000
0001
,  // measure 5
0100
0010
1000
0001
,  // measure 6
0010
0002
0000
2003
,  // measure 7
0000
3020
0000
0030
0000
0000
0000
0000
,  // measure 8
0000
1000
1000
0010
,  // measure 9
0100
0000
0001
0010
0001
0010
0100
0000
,  // measure 10
1000
0010
0010
0100
,  // measure 11
0001
0000
0001
1000
0100
0010
0001
0000
,  // measure 12
0100
0020
1030
0001
,  // measure 13
0101
0020
1030
0100
,  // measure 14
1100
0000
0001
0000
0010
0001
0100
0000
,  // measure 15
0001
0100
0000
0100
0001
0000
1000
0001
,  // measure 16
0010
0000
0001
1000
0001
1000
0010
0000
,  // measure 17
0100
0001
0010
0100
,  // measure 18
1000
0000
1000
0001
1000
0001
0100
0000
,  // measure 19
0010
0100
0001
0010
,  // measure 20
0100
2000
3001
0010
,  // measure 21
0011
0200
1300
0010
,  // measure 22
0101
0000
0001
0000
1000
0001
1000
0000
,  // measure 23
0100
0010
0000
0010
0001
0000
1000
0010
,  // measure 24
0100
0001
0010
0001
,  // measure 25
0001
1000
0000
0000
0100
1000
0000
1000
,  // measure 26
0010
0100
0001
0010
,  // measure 27
0100
1000
0000
0000
0001
0010
0000
1000
,  // measure 28
0001
1000
0001
0010
,  // measure 29
0100
1000
0000
0000
0100
1000
0000
0001
,  // measure 30
0100
0010
1000
0001
,  // measure 31
0010
0001
0000
0000
1000
0001
0000
0100
,  // measure 32
0010
2000
3001
0200
,  // measure 33
0310
1000
0100
0010
,  // measure 34
0001
0020
0031
0200
,  // measure 35
0310
1000
0001
0010
,  // measure 36
0001
1000
1000
0001
,  // measure 37
0001
0010
0100
1000
,  // measure 38
0001
0000
0100
0001
0010
0000
0001
1000
,  // measure 39
0000
1000
0000
0000
0000
0000
0000
0000
,  // measure 40
0000
0001
0100
0010
,  // measure 41
1000
1000
0100
0010
,  // measure 42
0001
1000
0010
0100
,  // measure 43
0001
1000
1000
0100
,  // measure 44
0010
0001
0010
0100
,  // measure 45
1000
0001
0100
0010
,  // measure 46
1000
0001
0010
0100
,  // measure 47
1000
0001
0100
0010
,  // measure 48
1000
1000
0001
0010
,  // measure 49
0010
0001
0100
0000
0010
0000
1000
0000
,  // measure 50
1000
0010
0100
0000
0001
0000
0010
0000
,  // measure 51
0100
1000
0001
0000
0100
0000
0010
0000
,  // measure 52
1000
1000
0001
0100
,  // measure 53
0100
0010
1000
0000
0001
0000
0010
0000
,  // measure 54
0010
0100
1000
0000
0001
0000
0100
0000
,  // measure 55
0100
0010
1000
0000
0001
0000
0010
0001
,  // measure 56
2000
0000
3100
0010
0100
0010
0001
0000
,  // measure 57
1001
1000
0100
1000
,  // measure 58
0100
0000
0010
0001
0010
0001
0100
0000
,  // measure 59
1010
1000
0100
0010
,  // measure 60
0001
0000
0200
0000
0301
0010
0100
0000
,  // measure 61
1000
0000
0020
0000
0130
0001
1000
0000
,  // measure 62
0010
0000
0010
1000
0001
0100
0001
0000
,  // measure 63
0001
1000
0000
1000
0100
0000
0100
0010
,  // measure 64
0001
0000
1000
0010
1000
0010
0100
0000
,  // measure 65
0101
1000
0100
0010
,  // measure 66
0001
0000
0100
0010
0100
0010
1000
0000
,  // measure 67
0011
1000
0100
0010
,  // measure 68
0001
0000
2000
0000
3010
0100
0001
0000
,  // measure 69
0010
0000
0002
0000
0103
0010
1000
0000
,  // measure 70
1000
0000
0010
0100
0001
0100
0010
0000
,  // measure 71
1000
0010
0000
0010
0100
0000
0001
0010
,  // measure 72
0100
0000
1000
0000
0001
0000
0000
0010
,  // measure 73
0100
0000
0001
0000
1000
0000
0000
0100
,  // measure 74
0010
0000
0001
0000
1000
0000
0000
0100
,  // measure 75
1000
0000
0001
0000
0100
0000
0000
0010
,  // measure 76
0100
0000
0001
0000
1000
0000
0000
0100
,  // measure 77
1000
0000
0001
0000
0010
0000
0000
0100
,  // measure 78
1000
0000
0010
0000
0100
0000
0000
0001
,  // measure 79
1000
0000
0100
0000
0010
0000
0000
0001
,  // measure 80
0100
0010
1001
0001
,  // measure 81
0100
0010
1001
0100
,  // measure 82
0100
1000
1001
0010
,  // measure 83
0100
1000
0110
0001
,  // measure 84
1000
0100
0011
1000
,  // measure 85
0010
0010
0101
0010
,  // measure 86
1000
0000
2002
3003
0000
0000
0220
0330
,  // measure 87
0000
2002
3003
0000
0000
0000
0000
0000
;

//---------------dance-single - ----------------
#NOTEDATA:;
#CHARTNAME:;
#STEPSTYPE:dance-single;
#DESCRIPTION:;
#CHARTSTYLE:;
#DIFFICULTY:Easy;
#METER:5;
#RADARVALUES:0.302394,0.373286,0.047214,0.039345,0.000000,269.000000,263.000000,6.000000,5.000000,0.000000,0.000000,0.000000,0.000000,0.000000,0.302394,0.373286,0.047214,0.039345,0.000000,269.000000,263.000000,6.000000,5.000000,0.000000,0.000000,0.000000,0.000000,0.000000;
#CREDIT:Rajeious's Chart;
#NOTES:
// measure 0
0000
0000
0000
0000
,  // measure 1
0000
0000
0000
0000
,  // measure 2
0000
0000
0000
0000
,  // measure 3
0000
0000
0000
0000
,  // measure 4
0000
1000
0000
0001
,  // measure 5
0000
0100
0000
0010
,  // measure 6
0000
1001
0000
0000
,  // measure 7
0000
0000
0000
0000
,  // measure 8
0000
1000
1000
0001
,  // measure 9
0100
1000
0100
0001
,  // measure 10
0010
0100
0100
1000
,  // measure 11
0001
0100
0001
0010
,  // measure 12
0000
1000
0001
0100
,  // measure 13
0000
1000
0001
0010
,  // measure 14
0000
1000
0100
1000
,  // measure 15
0100
0010
0001
0010
,  // measure 16
0100
1000
1000
0001
,  // measure 17
0010
0100
1000
0010
,  // measure 18
0100
0010
0010
1000
,  // measure 19
0100
1000
0001
0010
,  // measure 20
0000
1000
0100
1000
,  // measure 21
0000
0001
0010
0001
,  // measure 22
0000
0100
0001
1000
,  // measure 23
0010
0100
0001
1000
,  // measure 24
0100
0010
0000
0001
,  // measure 25
0000
1000
0010
0100
,  // measure 26
0001
1000
0000
0001
,  // measure 27
0000
1000
0100
0001
,  // measure 28
0100
1000
0000
1000
,  // measure 29
0000
0001
0010
0001
,  // measure 30
0100
0010
0000
1000
,  // measure 31
0000
0001
1000
0010
,  // measure 32
0100
0002
0003
0002
,  // measure 33
0003
1000
0000
0100
,  // measure 34
0000
0002
0003
0002
,  // measure 35
0003
0100
0000
0100
,  // measure 36
0000
0001
0001
0010
,  // measure 37
0010
0100
0100
1000
,  // measure 38
1000
0002
0000
0000
,  // measure 39
0000
0003
0000
0000
,  // measure 40
0000
0001
0000
0001
,  // measure 41
0000
1000
0000
1000
,  // measure 42
0000
0001
0001
0010
,  // measure 43
0100
1000
0010
0100
,  // measure 44
0001
0010
0000
0001
,  // measure 45
0000
1000
0000
1000
,  // measure 46
0000
0001
0001
0010
,  // measure 47
0100
1000
0010
0100
,  // measure 48
0010
1000
1000
0001
,  // measure 49
0001
0100
0100
0010
,  // measure 50
0010
1000
0001
0100
,  // measure 51
0010
0001
1000
0100
,  // measure 52
0010
1000
0001
0100
,  // measure 53
0000
1000
0010
0100
,  // measure 54
0000
0001
1000
0010
,  // measure 55
0100
0001
1000
0100
,  // measure 56
1000
1000
1000
0001
,  // measure 57
0001
0100
0010
1000
,  // measure 58
0001
0010
0001
0100
,  // measure 59
1000
0100
0001
0100
,  // measure 60
0010
1000
0101
0010
,  // measure 61
1000
0010
0101
0010
,  // measure 62
1000
0100
1000
0100
,  // measure 63
0010
0001
0001
0010
,  // measure 64
0100
1000
1000
0001
,  // measure 65
0100
0010
0100
0010
,  // measure 66
1000
0001
0001
1000
,  // measure 67
0100
0010
0001
0001
,  // measure 68
1000
0100
1000
0001
,  // measure 69
0101
1000
0001
0010
,  // measure 70
1001
0100
0010
0001
,  // measure 71
1000
0001
0100
0010
,  // measure 72
1000
0001
0000
1000
,  // measure 73
0000
0001
0000
0100
,  // measure 74
0000
1000
0000
0001
,  // measure 75
0000
0100
0000
0001
,  // measure 76
0000
1000
0000
0001
,  // measure 77
0000
0010
0000
0100
,  // measure 78
0000
1000
0000
0001
,  // measure 79
0000
0010
0000
0100
,  // measure 80
0000
1000
0001
0100
,  // measure 81
0001
1000
0100
0010
,  // measure 82
0001
1000
0010
0100
,  // measure 83
1000
0100
0010
0100
,  // measure 84
0001
1000
0100
0001
,  // measure 85
0100
1000
0001
0001
,  // measure 86
1000
1001
0000
0000
;

//---------------dance-single - ----------------
#NOTEDATA:;
#CHARTNAME:;
#STEPSTYPE:dance-single;
#DESCRIPTION:;
#CHARTSTYLE:;
#DIFFICULTY:Beginner;
#METER:3;
#RADARVALUES:0.001124,0.000000,0.000000,0.000000,0.000000,1.000000,1.000000,0.000000,0.000000,0.000000,0.000000,0.000000,0.000000,0.000000,0.001124,0.000000,0.000000,0.000000,0.000000,1.000000,1.000000,0.000000,0.000000,0.000000,0.000000,0.000000,0.000000,0.000000;
#CREDIT:Rajeious's Chart;
#NOTES:
// measure 0
1000
0000
0000
0000
;
