#TITLE:+Together We Are Free;
#SUBTITLE:;
#ARTIST:Andreas Kubler;
#TITLETRANSLIT:;
#SUBTITLETRANSLIT:;
#ARTISTTRANSLIT:;
#GENRE:;
#CREDIT:;
#BANNER:Together We Are Free.png;
#BACKGROUND:Together We Are Free-bg.png;
#LYRICSPATH:;
#CDTITLE:;
#MUSIC:Together We Are Free.mp3;
#OFFSET:-0.057000;
#SAMPLESTART:52.946312;
#SAMPLELENGTH:15.000022;
#SELECTABLE:YES;
#BPMS:0.000000=230.006989
;
#STOPS:
;
#BGCHANGES:;
#KEYSOUNDS:;
#ATTACKS:;

//---------------dance-single - ----------------
#NOTES:
     dance-single:
     :
     Hard:
     12:
     0.577676,0.799620,0.393141,1.079577,0.000000,648.000000,585.000000,63.000000,173.000000,0.000000,0.000000,0.577676,0.799620,0.393141,1.079577,0.000000,648.000000,585.000000,63.000000,173.000000,0.000000,0.000000:
0000
0000
0000
0000
,
0000
0000
0000
0000
,
0000
0000
0000
0000
,
0000
0000
0000
0000
,
0000
0000
0000
0000
,
0000
0000
0000
0000
,
0000
0000
0000
0000
,
0000
0000
0000
0000
,
0000
0000
0000
0000
,
0000
0000
0000
0000
,
0000
0000
0000
0000
,
0000
0000
0000
0000
,
0000
0000
0000
0000
,
0000
0000
0000
0000
,
0000
0000
0000
0000
,
1001
0000
0100
0010
0100
0010
1000
0000
,
0001
0000
0010
0000
0100
0000
1000
0001
,
1000
0001
0010
0000
0001
0000
0100
0000
,
0110
0000
1000
0001
1000
0010
0100
0000
,
0001
0000
1000
0000
0001
0000
1000
0100
,
0010
0100
1000
0000
0001
0010
0100
1000
,
0002
0203
0320
2030
,
0001
0001
3020
0230
,
0302
0023
0001
0001
,
0032
0100
1000
0203
,
0010
0000
0001
0000
0310
1000
0010
0100
,
0001
0010
0001
0100
0010
1000
0001
1000
,
1001
0000
0000
1001
0000
0000
1001
0000
,
0010
0000
0100
0000
0001
1000
0001
1000
,
0000
1000
0001
0000
0101
0000
0101
0000
,
1000
0100
1000
0100
0000
0100
1000
0000
,
0011
0000
0011
0000
1000
0001
1000
0001
,
0000
0100
0010
0000
1010
0000
0101
0000
,
1001
0000
0000
1001
0000
0000
1001
0000
,
0010
0000
1000
0000
0001
0010
0001
1000
,
0000
0001
0010
0000
0101
0000
0101
0000
,
1000
0100
0010
0001
0000
0100
0010
0000
,
1010
0000
1010
0000
0001
0010
1000
0010
,
0000
0010
0001
0000
0101
0000
1010
0000
,
2001
0000
0000
3020
,
0100
0000
0100
0000
1030
0000
0001
0100
,
0001
0000
1010
0000
0100
0010
0100
0000
,
2001
0000
0000
3200
,
1000
1000
1300
0010
,
0010
0000
1001
0000
1000
0100
1000
0001
,
0020
0001
0001
0230
,
1000
1000
2300
0010
,
0010
3002
0100
0100
,
1003
0010
0010
0101
,
0001
1000
0001
1000
0001
0000
0000
0000
,
0000
0000
0000
2000
,
3200
0320
0032
0023
,
0230
0000
2300
0000
3002
0000
0103
0010
,
0200
0302
1000
1003
,
0020
2030
3002
0203
,
0302
0000
0023
0000
0230
0000
1300
0001
,
0020
0000
0032
0000
1003
0010
1000
0010
,
2000
3200
0320
0032
,
0203
0000
0320
0000
2030
0000
3010
0100
,
0002
2003
0001
3001
,
0200
0302
2003
3002
,
0023
0000
0230
0000
2300
0000
3010
0100
,
0020
0000
2030
0000
3001
0100
0010
0100
,
0002
2003
3200
2300
,
3020
0000
0230
0000
0302
0000
1003
0010
,
2000
0000
3020
0000
0130
0010
0001
0010
,
0200
0320
0230
0320
,
2030
0000
3002
0000
0023
0000
0130
1000
,
0002
0000
0203
0000
0310
1000
0010
1000
,
0002
0023
0032
0203
,
0320
0000
2030
0000
3200
0000
1300
0010
,
2000
0000
3002
0000
1003
0100
1000
0001
,
0020
0032
2003
3200
,
0320
0000
0230
0000
2300
0000
3001
0100
,
0020
0000
0230
0000
0301
1000
0001
1000
,
1001
0000
0000
1001
0000
0000
1001
0000
,
0101
0000
1010
0000
1000
0001
0000
0101
,
0000
0001
1000
0000
0010
0100
0010
0100
,
0010
1000
0000
1001
0000
1000
0001
0000
,
0100
0010
0100
0010
0100
0001
0000
0011
,
0000
0001
0010
0000
1100
0000
0110
0000
,
1001
0000
0000
1001
0000
0000
1001
0000
,
1100
0000
0011
0000
1000
0100
0000
0011
,
0000
0100
1000
0000
0010
1000
0010
1000
,
0010
0100
0000
1001
0000
0100
0010
0000
,
0100
0001
0100
0001
0100
0010
0000
1100
,
0000
0001
1000
0000
0000
0000
0000
0000
,
2001
0000
0000
3200
,
1000
0000
1000
0000
1300
0000
0001
1000
,
0001
0000
1001
0000
1000
0100
1000
0000
,
1020
0100
0100
0230
,
0001
0001
0301
0100
,
0100
0000
1001
0000
0001
0100
0010
1000
,
0200
1000
1000
0320
,
0001
0001
0032
0100
,
0100
2003
0010
0010
,
3001
0100
0100
1001
,
0010
0100
0010
0100
0010
0000
0000
0000
,
0000
0000
0001
1000
,
0002
0000
0000
0023
,
0000
0000
0230
0000
,
0000
0000
0000
0300
,
2000
0000
0000
3200
,
0000
0000
0320
0000
,
0000
0000
0000
0000
,
0032
0000
0000
0000
,
0000
0000
2003
0000
,
0000
0000
0000
0000
,
3020
0000
0000
0000
,
0000
0000
0000
0000
,
0000
0000
0000
0000
,
0230
0000
0000
0000
,
0000
0000
0000
0000
,
0000
0000
0000
0301
,
1000
0100
0001
1000
,
0010
0001
1000
0000
,
1000
0100
0000
0000
,
1002
0023
0032
0203
,
0320
0000
2030
0000
3200
0000
1300
0001
,
2000
3020
0100
0130
,
2000
3200
0320
0032
,
0023
0000
0230
0000
2300
0000
3001
0010
,
0002
0000
2003
0000
3010
0100
0010
0100
,
0002
2003
3002
0203
,
0320
0000
2030
0000
3200
0000
1300
0001
,
2000
3020
0130
1001
,
0120
2030
3002
0203
,
0302
0000
2003
0000
3020
0000
1030
0001
,
0200
0000
0302
0000
1003
0100
0010
0001
,
2000
3200
2300
3002
,
0203
0000
0302
0000
0023
0000
0031
1000
,
0020
0000
2030
0000
3001
0100
0001
0100
,
0020
2030
3002
0203
,
0320
0000
2030
0000
3200
0000
1300
0001
,
0020
0000
0032
0000
1003
0010
1000
0010
,
0200
0302
2003
3002
,
0023
0000
0230
0000
2300
0000
3001
0010
,
0002
0000
0203
0000
0310
1000
0001
1000
,
0010
0100
0010
1000
0000
0001
0100
0000
,
1100
0000
1001
0000
0010
1000
0010
0100
,
0001
0010
0001
0100
0010
0100
0010
0100
,
0010
1000
0100
1000
0001
1000
0001
0100
,
0010
0100
0010
0100
0010
1000
0001
0010
,
0100
1000
0100
0000
1100
0000
1001
0000
,
0100
1000
0001
0101
0000
0000
0101
0000
,
1010
0000
0110
0000
0001
0100
0000
1001
,
0000
0100
0010
1000
0001
1000
0001
1000
,
0001
0100
0000
1010
0000
0001
1000
0010
,
0100
0010
0100
0010
0100
0001
0000
1100
,
0000
0001
1002
0000
0000
0000
0000
0000
,
0000
0000
0000
0003
;

//---------------dance-single - ----------------
#NOTES:
     dance-single:
     :
     Medium:
     9:
     0.416319,0.611474,0.280815,1.029654,0.000000,467.000000,422.000000,45.000000,165.000000,0.000000,0.000000,0.416319,0.611474,0.280815,1.029654,0.000000,467.000000,422.000000,45.000000,165.000000,0.000000,0.000000:
0000
0000
0000
0000
,
0000
0000
0000
0000
,
0000
0000
0000
0000
,
0000
0000
0000
0000
,
0000
0000
0000
0000
,
0000
0000
0000
0000
,
0000
0000
0000
0000
,
0000
0000
0000
0000
,
0000
0000
0000
0000
,
0000
0000
0000
0000
,
0000
0000
0000
0000
,
0000
0000
0000
0000
,
0000
0000
0000
0000
,
0000
0000
0000
0000
,
0000
0000
0000
0000
,
1001
0000
0000
0010
,
0100
0001
0101
0000
,
0000
1000
0100
0010
,
1001
0000
0000
0010
,
0100
0001
0101
0000
,
0000
1000
0010
0100
,
0001
0010
0100
2000
,
0000
0000
3010
1000
,
0001
0020
0000
0000
,
0031
0100
0010
0001
,
1000
0100
0010
0100
,
0001
0010
0100
1000
,
1001
0000
0000
1001
0000
0000
1001
0000
,
0010
0000
0100
0000
0001
0100
0000
0100
,
0000
0100
0001
0000
1000
0000
0010
0000
,
0100
0001
0000
0001
0000
1000
0100
0000
,
0010
0000
0010
0000
0001
1000
0000
1000
,
0000
0010
0100
0000
0010
0000
1000
0000
,
0110
0000
0000
0110
0000
0000
0110
0000
,
0010
0000
1000
0000
0001
0010
0000
0010
,
0000
0001
0100
0000
0001
0000
0001
0000
,
1000
0100
0000
0100
0000
1000
0001
0000
,
0010
0000
0010
0000
0001
0100
0000
0100
,
0000
0001
1000
0000
0100
0000
0010
0000
,
1002
0000
0000
0103
,
0010
1000
1002
0000
,
0000
0103
0000
0000
,
2001
0000
0000
3100
,
0010
0001
2001
0000
,
0000
3010
0000
0000
,
2010
0000
0000
3200
,
0000
0000
0320
0000
,
0000
0032
0000
0000
,
2003
0000
0000
0000
,
0000
0000
3001
0000
,
0000
0000
0000
2000
,
3002
0203
0320
2030
,
3200
2300
3002
0000
,
2003
0000
3020
0000
0000
0030
0000
0000
,
0002
0023
0230
2300
,
3200
0320
0032
0000
,
1003
2000
3000
2000
,
3200
0320
0230
2300
,
3002
0023
0230
0000
,
2300
0000
3002
0000
0000
0003
0000
0000
,
0200
0320
2030
3002
,
0023
0230
2300
0000
,
3001
0000
0002
0000
0000
0003
2000
0000
,
3020
0230
0302
0203
,
0320
2030
3200
1000
,
2300
3002
0100
0103
,
0020
0230
0302
0023
,
0230
2300
3002
0100
,
0103
0000
0200
0000
0001
0300
0002
0000
,
2003
3200
0320
0230
,
2300
3002
0203
0010
,
0320
2030
0001
3001
,
0200
0302
2003
3002
,
0023
0230
2300
0001
,
3001
0002
1000
1003
,
0110
0000
0000
0110
0000
0000
0110
0000
,
1000
0000
1001
0000
0001
0100
0000
0100
,
0000
0010
1000
0000
0001
0000
0001
0000
,
1000
0010
0000
0010
0000
0100
0001
0000
,
1000
0000
1000
0000
0010
0100
0000
0100
,
0000
0001
0010
0000
1001
0000
0100
0000
,
1001
0000
0000
1001
0000
0000
1001
0000
,
0100
0000
0101
0000
1000
0001
0000
0001
,
0000
0100
0010
0000
1000
0000
1000
0000
,
0001
0010
0000
0010
0000
0001
1000
0000
,
0100
0000
0100
0000
1000
0001
0000
0001
,
0000
0100
0010
0000
0000
0000
0000
0000
,
2001
0000
0000
3010
,
0100
0001
2001
0000
,
0000
3010
0100
0010
,
1002
0000
0000
0013
,
0100
1000
1002
0000
,
0000
0103
0010
1000
,
0102
0000
0000
1003
,
0100
0010
0002
0000
,
0000
0013
0100
1000
,
0020
0000
0000
1030
,
0001
0010
1001
0000
,
0000
0000
0001
1000
,
0002
0000
0000
0023
,
0000
0000
0230
0000
,
0000
0000
0000
0000
0000
0000
0000
0300
,
2000
0000
0000
3200
,
0000
0000
0320
0000
,
0000
0000
0000
0000
,
0032
0000
0000
0000
,
0000
0000
2003
0000
,
0000
0000
0000
0000
,
3020
0000
0000
0000
,
0000
0000
0000
0000
,
0000
0000
0000
0000
,
0230
0000
0000
0000
,
0000
0000
0000
0000
,
0000
0000
0000
0000
,
0301
1000
0001
1000
,
0010
1000
0002
0000
,
0203
0320
0000
0030
,
2001
3200
0320
0032
,
0023
0230
2300
0000
,
3010
0020
0030
0020
,
0230
0302
2003
3200
,
0320
0032
2003
0000
,
3002
0023
0000
0030
,
0200
2300
3020
0230
,
0302
0023
0032
0000
,
1003
0000
2000
0000
0000
3000
0000
0000
,
0102
2003
3020
2030
,
3002
0203
0302
0100
,
2003
3020
0100
0130
,
2001
3200
0320
0032
,
0023
0230
2300
0001
,
3001
0102
0003
2000
,
3002
0023
0230
0320
,
0032
2003
3002
0100
,
0203
0320
1000
1030
,
1002
0023
0032
2003
,
3200
2300
3020
0100
,
0130
0102
1000
1003
,
0110
0000
0000
0110
0000
0000
0110
0000
,
1000
0000
1001
0000
0001
0100
0000
0100
,
0000
0001
1000
0000
0010
0100
0010
0000
,
1000
0100
0000
0100
0000
1000
0001
0000
,
0001
0100
0001
0000
0100
0010
0000
0010
,
0000
1000
0100
0000
1001
0000
0010
0000
,
1001
0000
0000
1001
0000
0000
1001
0000
,
0010
0000
0101
0000
1000
0010
0000
0010
,
0000
1000
0001
0000
0100
0010
0100
0000
,
0001
0010
0000
0010
0000
0001
1000
0000
,
0010
0100
0010
0000
1000
0100
0000
0100
,
0000
1000
0002
0000
0000
0000
0000
0000
,
0000
0000
0000
0003
;

//---------------dance-single - ----------------
#NOTES:
     dance-single:
     :
     Easy:
     4:
     0.221977,0.465684,0.455544,0.455544,0.000000,249.000000,176.000000,73.000000,73.000000,0.000000,0.000000,0.221977,0.465684,0.455544,0.455544,0.000000,249.000000,176.000000,73.000000,73.000000,0.000000,0.000000:
// measure 0
0000
0000
0000
0000
,  // measure 1
0000
0000
0000
0000
,  // measure 2
0000
0000
0000
0000
,  // measure 3
0000
0000
0000
0000
,  // measure 4
0000
0000
0000
0000
,  // measure 5
0000
0000
0000
0000
,  // measure 6
0000
0000
0000
0000
,  // measure 7
0000
0000
0000
0000
,  // measure 8
0000
0000
0000
0000
,  // measure 9
0000
0000
0000
0000
,  // measure 10
0000
0000
0000
0000
,  // measure 11
0000
0000
0000
0000
,  // measure 12
0000
0000
0000
0000
,  // measure 13
0000
0000
0000
0000
,  // measure 14
0000
0000
0000
0000
,  // measure 15
1001
0000
0000
0010
,  // measure 16
0000
0000
0101
0000
,  // measure 17
0000
1000
0000
0000
,  // measure 18
1010
0000
0000
0001
,  // measure 19
0000
0000
1001
0000
,  // measure 20
0000
0010
0000
0000
,  // measure 21
1001
0000
0000
0100
,  // measure 22
0000
0000
1100
0000
,  // measure 23
0000
0010
0000
0000
,  // measure 24
0101
0000
0000
1000
,  // measure 25
0000
0000
1001
0000
,  // measure 26
0000
0010
0000
0000
,  // measure 27
1000
0000
0000
1000
0000
0000
1000
0000
,  // measure 28
0000
0000
0110
0000
,  // measure 29
0000
0001
0000
0000
,  // measure 30
1001
0000
0000
1000
,  // measure 31
0000
0000
1100
0000
,  // measure 32
0000
0010
0000
0000
,  // measure 33
1000
0000
0000
1000
0000
0000
1000
0000
,  // measure 34
0000
0000
0101
0000
,  // measure 35
0000
0010
0000
0000
,  // measure 36
0101
0000
0000
1000
,  // measure 37
0000
0000
1010
0000
,  // measure 38
0000
0001
0000
0000
,  // measure 39
2010
0000
0000
3200
,  // measure 40
0000
0000
0320
0000
,  // measure 41
0000
0031
0000
0000
,  // measure 42
1002
0000
0000
0023
,  // measure 43
0000
0000
0230
0000
,  // measure 44
0000
1300
0000
0000
,  // measure 45
2001
0000
0000
3002
,  // measure 46
0000
0000
0203
0000
,  // measure 47
0000
0302
0000
0000
,  // measure 48
2003
0000
0000
0000
,  // measure 49
0000
0000
3001
0000
,  // measure 50
0000
0000
0000
0000
,  // measure 51
2000
0000
0000
3020
,  // measure 52
0000
0000
0230
0000
,  // measure 53
0000
0302
0000
0000
,  // measure 54
0203
0000
0000
0000
,  // measure 55
0000
0000
0302
0000
,  // measure 56
0000
0000
2003
0000
0000
3000
0000
0000
,  // measure 57
2000
0000
0000
3200
,  // measure 58
0000
0000
0320
0000
,  // measure 59
0000
0032
0000
0000
,  // measure 60
2003
0000
0000
3002
,  // measure 61
0000
0000
0203
0000
,  // measure 62
0000
0302
0000
0000
,  // measure 63
2003
0000
0000
3020
,  // measure 64
0000
0000
0230
0000
,  // measure 65
0000
0000
0000
0000
0000
0300
0000
0000
,  // measure 66
0002
0000
0000
0000
,  // measure 67
0000
0000
2003
0000
,  // measure 68
0000
3200
0000
0000
,  // measure 69
0320
0000
0000
0032
,  // measure 70
0000
0000
2003
0000
,  // measure 71
0000
3002
0000
0000
,  // measure 72
0203
0000
0000
0302
,  // measure 73
0000
0000
0023
0000
,  // measure 74
0000
0000
0032
0000
0000
0003
0000
0000
,  // measure 75
1001
0000
0000
1001
0000
0000
1001
0000
,  // measure 76
0000
0000
0000
0000
1010
0000
0000
1010
,  // measure 77
0000
1010
0000
0000
,  // measure 78
0101
0000
0000
0101
0000
0000
0101
0000
,  // measure 79
0000
0000
0000
0000
0110
0000
0000
0110
,  // measure 80
0000
0110
0000
0000
,  // measure 81
1001
0000
0000
1001
0000
0000
1001
0000
,  // measure 82
0000
0000
0000
0000
1100
0000
0000
1100
,  // measure 83
0000
1100
0000
0000
,  // measure 84
1001
0000
0000
1001
0000
0000
1001
0000
,  // measure 85
0000
0000
0000
0000
0011
0000
0000
0011
,  // measure 86
0000
0011
0000
0000
,  // measure 87
1001
0000
0000
0100
,  // measure 88
0000
0000
1001
0000
,  // measure 89
0000
0010
0000
0000
,  // measure 90
1001
0000
0000
0100
,  // measure 91
0000
0000
1010
0000
,  // measure 92
0000
0001
0000
0000
,  // measure 93
0011
0000
0000
1000
,  // measure 94
0000
0000
1100
0000
,  // measure 95
0000
0010
0000
0000
,  // measure 96
0110
0000
0000
0001
,  // measure 97
0000
0000
1001
0000
,  // measure 98
0000
0000
0000
0000
,  // measure 99
2000
0000
0000
0000
,  // measure 100
0000
0000
3020
0000
,  // measure 101
0000
0000
0000
0000
,  // measure 102
0230
0000
0000
0000
,  // measure 103
0000
0000
0302
0000
,  // measure 104
0000
0000
0000
0000
,  // measure 105
0203
0000
0000
0000
,  // measure 106
0000
0000
0302
0000
,  // measure 107
0000
0000
0000
0000
,  // measure 108
2003
0000
0000
0000
,  // measure 109
0000
0000
0000
0000
,  // measure 110
0000
0000
0000
0000
,  // measure 111
3020
0000
0000
0000
,  // measure 112
0000
0000
0000
0000
,  // measure 113
0000
0000
0000
0000
,  // measure 114
1030
0000
0000
1000
,  // measure 115
0000
0000
1000
0000
,  // measure 116
0000
0000
0000
0000
,  // measure 117
0002
0000
0000
0000
,  // measure 118
0000
0000
0023
0000
,  // measure 119
0000
0230
0000
0000
,  // measure 120
2300
0000
0000
3002
,  // measure 121
0000
0000
2003
0000
,  // measure 122
0000
3020
0000
0000
,  // measure 123
2030
0000
0000
3002
,  // measure 124
0000
0000
0023
0000
,  // measure 125
0000
0032
0000
0000
,  // measure 126
0203
0000
0000
0320
,  // measure 127
0000
0000
2030
0000
,  // measure 128
0000
0000
0000
0000
,  // measure 129
3002
0000
0000
0000
,  // measure 130
0000
0000
2003
0000
,  // measure 131
0000
3020
0000
0000
,  // measure 132
0230
0000
0000
0302
,  // measure 133
0000
0000
2003
0000
,  // measure 134
0000
3020
0000
0000
,  // measure 135
0230
0000
0000
0302
,  // measure 136
0000
0000
0023
0000
,  // measure 137
0000
0000
0032
0000
0000
0003
0000
0000
,  // measure 138
0101
0000
0000
0101
0000
0000
0101
0000
,  // measure 139
0000
0000
0000
0000
1010
0000
0000
1010
,  // measure 140
0000
1010
0000
0000
,  // measure 141
0101
0000
0000
0101
0000
0000
0101
0000
,  // measure 142
0000
0000
0000
0000
1010
0000
0000
1010
,  // measure 143
0000
1010
0000
0000
,  // measure 144
0110
0000
0000
0110
0000
0000
0110
0000
,  // measure 145
0000
0000
0000
0000
1001
0000
0000
1001
,  // measure 146
0000
1001
0000
0000
,  // measure 147
0011
0000
0000
0011
0000
0000
0011
0000
,  // measure 148
0000
0000
0000
0000
1001
0000
0000
0110
,  // measure 149
0000
1001
0000
0000
;
