#VERSION:0.83;
#TITLE:-The 89's Momentum;
#SUBTITLE:;
#ARTIST:MYUKKE.;
#TITLETRANSLIT:;
#SUBTITLETRANSLIT:;
#ARTISTTRANSLIT:;
#GENRE:;
#ORIGIN:;
#CREDIT:;
#BANNER:BN.png;
#BACKGROUND:BG.png;
#PREVIEWVID:;
#JACKET:jacket.png;
#CDIMAGE:;
#DISCIMAGE:;
#LYRICSPATH:;
#CDTITLE:;
#MUSIC:audio.ogg;
#OFFSET:-0.024000;
#SAMPLESTART:16.878094;
#SAMPLELENGTH:15.000022;
#SELECTABLE:YES;
#DISPLAYBPM:*;
#BPMS:0.000=128.000;
#STOPS:;
#DELAYS:;
#WARPS:;
#TIMESIGNATURES:0.000=4=4;
#TICKCOUNTS:0.000=4;
#COMBOS:0.000=1;
#SPEEDS:0.000=1.000=0.000=0;
#SCROLLS:0.000=1.000;
#FAKES:;
#LABELS:0.000=Song Start;
#BGCHANGES:;
#KEYSOUNDS:;
#ATTACKS:
;

//---------------dance-single - ----------------
#NOTEDATA:;
#CHARTNAME:;
#STEPSTYPE:dance-single;
#DESCRIPTION:;
#CHARTSTYLE:;
#DIFFICULTY:Hard;
#METER:15;
#RADARVALUES:0.790665,0.800764,0.230611,0.281057,0.972889,768.000000,736.000000,32.000000,39.000000,0.000000,0.000000,0.000000,0.000000,0.000000,0.790665,0.800764,0.230611,0.281057,0.972889,768.000000,736.000000,32.000000,39.000000,0.000000,0.000000,0.000000,0.000000,0.000000;
#CREDIT:Rajeious's Chart;
#DISPLAYBPM:*;
#NOTES:
// measure 0
0000
0000
0000
0000
,  // measure 1
0000
0000
0000
0000
,  // measure 2
0000
0000
0000
0000
,  // measure 3
0000
0000
0000
0000
,  // measure 4
0000
0000
0000
0000
,  // measure 5
1000
0000
0001
1000
0001
0100
0000
0001
1000
0100
0010
0001
1000
0001
0000
0100
,  // measure 6
0010
1000
0001
0010
0001
0000
1000
0001
0100
0010
0100
0001
1000
0000
0100
0000
,  // measure 7
0110
0000
1001
0000
0101
0000
0010
0100
0000
0100
0010
1000
0001
0000
0100
0000
,  // measure 8
0020
0000
0230
0000
0301
1000
0001
1000
0000
0001
0100
0001
2000
0000
3000
0000
,  // measure 9
2001
0000
3001
0000
1000
0010
0100
0001
0000
0001
0010
0000
0010
0000
0001
0000
,  // measure 10
0100
0010
1000
0000
0001
1000
0001
0100
0000
0100
0010
0000
1000
0000
0001
0100
,  // measure 11
0001
0000
1000
0000
0001
0010
0100
0010
0000
0010
0001
0000
0100
0000
0010
0000
,  // measure 12
0100
0010
1000
0000
1000
0100
0010
0001
0000
0001
0010
0000
0001
0000
1000
0000
,  // measure 13
2001
0000
3001
0000
0100
0010
0100
0001
0000
0001
1000
0000
0001
0000
1000
0000
,  // measure 14
0010
0100
0001
0000
0001
0010
0100
0010
0000
0010
0100
0000
1000
0000
0010
0000
,  // measure 15
1000
0000
0001
0000
0100
0010
0100
0000
0010
0100
0010
0000
1000
0000
0001
0010
,  // measure 16
0100
0010
0001
1000
0001
0010
0100
1000
0001
1000
0001
0000
0020
0000
0100
0000
,  // measure 17
0130
1000
0001
0100
0010
0100
0000
0001
0000
0001
0100
0001
0010
0100
0000
0100
,  // measure 18
1000
0000
0001
0010
0001
1000
0010
1000
0000
1000
0010
0100
0001
0000
0100
0000
,  // measure 19
0001
0000
1000
0100
0010
0001
0010
0100
1000
0010
0000
0010
0100
0000
0100
0000
,  // measure 20
0001
1000
0001
0010
0100
1000
0000
1000
0000
0010
0100
0010
0100
0000
0100
0000
,  // measure 21
0001
0000
0100
0000
0001
1000
0001
0000
1000
0000
1000
0000
0010
0100
0010
0000
,  // measure 22
1000
0000
0100
0000
0001
0000
1000
0000
0010
0100
1000
0000
0001
0000
1000
0000
,  // measure 23
1000
0100
0010
0001
0010
0100
1000
0001
0000
0001
0010
0100
1000
0100
0010
0001
,  // measure 24
1000
0010
1000
0010
0100
0001
1000
0001
0000
0001
1000
0010
0100
0000
0010
0000
,  // measure 25
0110
0000
0200
0000
0300
0200
0000
0300
0002
0000
0003
0002
0000
0003
2000
0000
,  // measure 26
3000
0000
0020
0000
0030
0000
0010
0100
0002
0000
0003
0000
0002
0000
0003
0000
,  // measure 27
1000
0000
0200
0000
0300
0200
0000
0300
0020
0000
0030
0020
0000
0030
0002
0000
,  // measure 28
0003
0000
0200
0000
0300
0000
0100
0001
2000
0000
3000
0000
2000
0000
3000
0000
,  // measure 29
0002
0203
0302
2003
3020
0032
0023
2030
,  // measure 30
3000
0010
0100
0001
0100
0010
1000
0000
0001
0010
0100
0000
1000
0000
0100
0000
,  // measure 31
0010
0100
1000
0001
0010
0000
0001
1000
0010
0100
1000
0100
0010
0000
0100
0000
,  // measure 32
0001
0000
0100
0000
0100
0001
1000
0000
0010
0001
0010
0001
0020
0000
0030
0000
,  // measure 33
1002
0000
0103
0010
0100
0000
0001
0100
0001
0100
0010
0000
0010
0000
0100
0000
,  // measure 34
0010
1000
0001
0000
0100
0010
1000
0010
0100
0000
0001
1000
0100
1000
0001
0000
,  // measure 35
1000
0000
0010
0000
0001
0000
0010
1000
0001
0000
1000
0010
0100
0010
1000
0000
,  // measure 36
1000
0000
0001
0100
0001
0000
1000
0001
0100
0010
0100
0000
0001
0000
1000
0100
,  // measure 37
0010
0000
0001
1000
0001
0010
0100
1000
0001
0000
1000
0000
0001
0010
0100
0000
,  // measure 38
0010
0100
1000
0001
0100
0010
1000
0001
0010
0001
1000
0010
0100
0001
1000
0000
,  // measure 39
1002
0000
0103
0010
0100
0000
0001
0010
0100
1000
0100
0010
0001
0000
1001
0000
,  // measure 40
0100
0010
0100
0000
0001
1000
0001
1000
0002
0000
0003
0000
2010
0000
3000
0000
,  // measure 41
0001
0000
1000
0001
1000
0001
0010
0100
0010
0100
1000
0000
0001
0000
0010
0000
,  // measure 42
0010
0001
0010
0100
1000
0001
0010
0001
1000
0010
1000
0000
0001
0000
1000
0010
,  // measure 43
0100
0000
0100
0001
1000
0100
1000
0100
0010
0001
1000
0000
0001
0000
0010
0000
,  // measure 44
0010
0001
1000
0010
0100
0010
1000
0001
0010
0100
1000
0000
0001
0000
1000
0100
,  // measure 45
1000
0000
0001
1000
0001
0010
0100
1000
0001
1000
0010
0000
0100
0000
0010
0000
,  // measure 46
0010
0100
0010
1000
0001
0100
0001
1000
0010
1000
0001
0000
0100
0000
0010
0100
,  // measure 47
0010
0000
1000
0001
0010
0100
0010
0100
1000
0001
0100
0000
0100
0000
1001
0000
,  // measure 48
0001
0010
0100
1000
0001
1000
0001
0100
0010
1000
0001
0000
0200
0000
0000
0000
,  // measure 49
0301
1000
0001
1000
0100
0000
0100
0010
0000
0010
0100
0000
1000
0000
0001
0000
,  // measure 50
0001
0010
0100
1000
0001
0000
0001
0100
0000
0100
0010
0000
1000
0000
0001
0000
,  // measure 51
1000
0001
1000
0100
0010
0000
0010
0100
0000
0100
1000
0000
1000
0000
0010
0000
,  // measure 52
0100
0010
0001
0010
0100
0000
0100
0010
0000
0010
1000
0000
0001
1000
0001
0000
,  // measure 53
1001
0000
0000
0000
1010
0000
0000
0000
0001
1000
0010
0100
0001
0000
0100
0000
,  // measure 54
0110
0000
0000
0000
0110
0000
0000
0000
1000
0100
0010
0100
0001
0000
0100
0000
,  // measure 55
0110
0000
1001
0000
0101
0000
1001
0000
1000
0010
1000
0010
1000
0001
1000
0001
,  // measure 56
0100
0000
0100
0000
0101
0000
0001
0010
0100
0010
0001
1000
0100
1000
0001
0100
,  // measure 57
0001
1000
0010
0000
0100
0000
0100
0010
0000
0010
1000
0000
0001
0000
0100
0000
,  // measure 58
1001
0000
0000
0000
1001
0000
0000
0000
1001
0000
0001
1000
0001
0000
0100
0000
,  // measure 59
0210
0000
0301
0000
0001
1000
0100
0010
0000
0010
0001
0000
1000
0000
0010
0000
,  // measure 60
0001
0000
1000
0000
0100
0010
0100
0001
0000
0001
1000
0000
0010
0000
1000
0001
,  // measure 61
1000
0100
0010
0000
0001
1000
0001
0100
0000
0100
0010
0000
1000
0010
0100
0001
,  // measure 62
1000
0000
1000
0000
0001
0000
0100
0010
0000
0010
0100
0000
1000
0000
0001
0000
,  // measure 63
1001
0000
0100
0010
0100
0001
0000
1000
0001
0010
0100
1000
0001
0010
0000
0010
,  // measure 64
0100
1000
0100
1000
0001
0000
0100
0010
0000
0001
1000
0001
1000
0000
0010
0000
,  // measure 65
1000
0000
0001
0010
0100
1000
0100
0010
0001
1000
0000
1000
0010
0000
0100
0000
,  // measure 66
0001
1000
0100
0010
0001
1000
0000
1001
0000
0000
0001
0000
1001
0000
0100
0010
,  // measure 67
0100
0001
1000
0001
0100
0000
0100
0010
0000
0010
1000
0000
0001
0000
0100
0000
,  // measure 68
0001
1000
0100
0010
0001
0000
1000
0100
0000
0100
0010
0000
0001
0000
1000
0000
,  // measure 69
1001
0000
0101
0000
1010
0000
0100
0001
0000
1000
0001
1000
0100
0010
0100
1000
,  // measure 70
0001
0000
1000
0000
1001
0000
0010
0100
0010
1000
0001
0000
1001
0000
0000
0000
,  // measure 71
0020
0000
0030
0010
1000
0001
1000
0001
0200
0000
0300
0100
0000
0000
0000
0000
;

//---------------dance-single - ----------------
#NOTEDATA:;
#CHARTNAME:;
#STEPSTYPE:dance-single;
#DESCRIPTION:;
#CHARTSTYLE:;
#DIFFICULTY:Medium;
#METER:9;
#RADARVALUES:0.397392,0.439129,0.136925,0.266644,0.021620,386.000000,367.000000,19.000000,37.000000,0.000000,0.000000,0.000000,0.000000,0.000000,0.397392,0.439129,0.136925,0.266644,0.021620,386.000000,367.000000,19.000000,37.000000,0.000000,0.000000,0.000000,0.000000,0.000000;
#CREDIT:Rajeious's Chart;
#DISPLAYBPM:*;
#NOTES:
// measure 0
0000
0000
0000
0000
,  // measure 1
0000
0000
0000
0000
,  // measure 2
0000
0000
0000
0000
,  // measure 3
0000
0000
0000
0000
,  // measure 4
0000
0000
0000
0000
,  // measure 5
0100
0000
0010
0000
0010
1000
0001
0000
,  // measure 6
1000
0000
0100
0000
0100
1000
0001
0000
,  // measure 7
0001
1000
0001
1000
0100
1000
0001
0000
,  // measure 8
0100
0001
1000
0100
0010
0001
2000
3000
,  // measure 9
1010
0000
0001
0000
0010
0100
1000
0000
,  // measure 10
0010
0000
0100
0000
0001
1000
0001
0100
,  // measure 11
0010
0000
0001
0000
1000
0100
0010
0000
,  // measure 12
0001
0000
0001
0000
0010
1000
0001
0010
,  // measure 13
0011
0000
0001
0000
1000
0010
0100
0000
,  // measure 14
0100
0000
0010
0000
0010
1000
0001
0100
,  // measure 15
0001
0000
0100
0000
0001
1000
0100
0000
,  // measure 16
0001
1000
0001
0010
0100
0010
0001
1000
,  // measure 17
2001
3000
0020
0030
0100
0010
1000
0000
,  // measure 18
0020
0030
0200
0300
0010
0100
0010
0000
,  // measure 19
2000
3000
0002
0003
1000
0001
1000
0000
,  // measure 20
0020
0030
2000
3000
0010
1000
0010
0000
,  // measure 21
0101
1000
0010
1000
,  // measure 22
1001
0001
0100
0000
0010
0000
1000
0000
,  // measure 23
0001
1000
0001
0100
0010
0000
1000
0000
,  // measure 24
0100
0001
0100
0001
1000
0000
0010
0000
,  // measure 25
0110
0000
0100
0000
0000
0100
0000
0000
0001
0000
0000
0001
0000
0000
1000
0000
,  // measure 26
0000
1000
0000
0010
0010
0000
0010
0000
,  // measure 27
1000
0000
0001
0000
0000
0001
0000
0000
0001
0000
0000
0100
0000
0000
0100
0000
,  // measure 28
0000
0010
0000
1000
1000
0000
0010
0000
,  // measure 29
0010
1000
0002
0003
1000
0001
1000
0020
,  // measure 30
0030
0100
0020
0030
2000
3000
0010
0100
,  // measure 31
1000
0100
0010
1000
0001
0100
0001
0100
,  // measure 32
0000
0010
0010
0000
0100
0000
0200
0300
,  // measure 33
0110
0000
0010
0000
0010
1000
0001
0010
,  // measure 34
0001
0000
0001
0000
0100
0010
1000
0001
,  // measure 35
1000
0000
0010
0000
0001
1000
0100
0010
,  // measure 36
0001
0010
0100
1000
0001
0000
0010
0000
,  // measure 37
0101
0000
1000
0000
0010
0100
0010
0100
,  // measure 38
0001
0000
1000
0000
0001
1000
0100
0010
,  // measure 39
0001
0000
0100
0000
0001
1000
0100
0010
,  // measure 40
0000
0001
0001
0000
0200
0300
0002
0003
,  // measure 41
0101
0000
0100
0000
0001
1000
0001
0100
,  // measure 42
0000
0100
0010
0000
0010
0100
0001
0000
,  // measure 43
1000
0000
0001
0000
0010
1000
0001
0010
,  // measure 44
0000
0010
0001
0000
0100
0010
0100
0000
,  // measure 45
0110
0000
0010
0000
0001
1000
0001
0010
,  // measure 46
0000
0010
0001
0000
1000
0010
0100
0000
,  // measure 47
0001
0000
1000
0000
1000
0100
1000
0001
,  // measure 48
0010
0001
1000
0010
1000
0001
1000
0000
,  // measure 49
1010
0000
0002
0003
1000
0000
0020
0030
,  // measure 50
0001
0000
0020
0030
1000
0000
0010
0100
,  // measure 51
0110
0000
0002
0003
1000
0000
0020
0030
,  // measure 52
1000
0000
0002
0003
1000
0000
0020
0030
,  // measure 53
1010
0000
1000
0000
0001
1000
0001
0000
,  // measure 54
0101
0000
0100
0000
0010
0100
0010
0000
,  // measure 55
1000
0001
1000
0001
0100
0010
1000
0001
,  // measure 56
0010
0000
0010
0000
0001
1000
0001
0000
,  // measure 57
0100
0010
1000
0100
,  // measure 58
0010
0000
0010
0000
0001
0000
0100
0001
,  // measure 59
1001
0000
1000
0000
0010
0100
0001
0000
,  // measure 60
0010
0000
0001
0000
0100
0001
0100
0010
,  // measure 61
1000
0000
0010
0000
0100
0001
0100
0000
,  // measure 62
0010
0000
1000
0000
0001
1000
0001
0100
,  // measure 63
0120
0030
0200
0300
0010
0100
0010
0000
,  // measure 64
0002
0003
2000
3000
0001
1000
0001
0000
,  // measure 65
0200
0300
0002
0003
0100
0001
0100
0000
,  // measure 66
0020
0030
2000
3000
0010
1000
0010
0000
,  // measure 67
2001
3000
0200
0300
1000
0100
1000
0000
,  // measure 68
0020
0030
2000
3000
0010
1000
0010
0000
,  // measure 69
0010
0100
0010
0100
0001
1000
0100
0010
,  // measure 70
0001
1000
0001
1000
0100
1000
0001
0000
,  // measure 71
0120
0000
0030
0100
0000
0000
0000
0000
0210
0000
0300
0010
0000
0000
0000
0000
;

//---------------dance-single - ----------------
#NOTEDATA:;
#CHARTNAME:;
#STEPSTYPE:dance-single;
#DESCRIPTION:;
#CHARTSTYLE:;
#DIFFICULTY:Easy;
#METER:5;
#RADARVALUES:0.272821,0.309703,0.100892,0.093686,0.000000,265.000000,251.000000,14.000000,13.000000,0.000000,0.000000,0.000000,0.000000,0.000000,0.272821,0.309703,0.100892,0.093686,0.000000,265.000000,251.000000,14.000000,13.000000,0.000000,0.000000,0.000000,0.000000,0.000000;
#CREDIT:Rajeious's Chart;
#DISPLAYBPM:*;
#NOTES:
// measure 0
0000
0000
0000
0000
,  // measure 1
0000
0000
0000
0000
,  // measure 2
0000
0000
0000
0000
,  // measure 3
0000
0000
0000
0000
,  // measure 4
0000
0000
0000
0000
,  // measure 5
1000
0001
0100
0010
,  // measure 6
0001
0100
1000
0100
,  // measure 7
0010
0100
0010
1000
,  // measure 8
0001
0100
0010
1000
,  // measure 9
1001
0100
0010
1000
,  // measure 10
0001
0100
0001
0010
,  // measure 11
1000
0100
0100
1000
,  // measure 12
0010
0100
0001
0100
,  // measure 13
0101
0010
1000
0100
,  // measure 14
0001
1000
0001
0100
,  // measure 15
0010
0010
1000
0001
,  // measure 16
0100
1000
0100
0010
,  // measure 17
1000
0001
0100
0010
,  // measure 18
1000
0001
0010
0001
,  // measure 19
0100
0010
1000
0100
,  // measure 20
0010
1000
0100
0010
,  // measure 21
0002
0103
0010
1000
,  // measure 22
0002
0103
0010
1000
,  // measure 23
0001
0000
0000
0100
0000
0000
0000
0000
,  // measure 24
0010
0000
0000
1000
0000
0000
0000
0000
,  // measure 25
1001
0000
0100
0000
,  // measure 26
0100
0000
0010
0000
,  // measure 27
0010
0000
1000
0000
,  // measure 28
0001
0000
0100
0000
,  // measure 29
0010
0100
0010
1000
,  // measure 30
0001
0100
0010
1000
,  // measure 31
0001
0010
0100
1000
,  // measure 32
0001
0010
1000
0102
,  // measure 33
1003
0010
1000
0001
,  // measure 34
0010
1000
0001
0100
,  // measure 35
0010
1000
0001
0100
,  // measure 36
0010
0000
1000
0000
0200
0300
0020
0030
,  // measure 37
0011
1000
0001
1000
,  // measure 38
0010
1000
0100
0010
,  // measure 39
0001
0000
1000
0000
0010
0000
1000
1000
,  // measure 40
0000
0010
0010
0000
2000
0000
3002
0000
,  // measure 41
1003
1000
0010
1000
,  // measure 42
0001
0010
1000
0010
,  // measure 43
0001
1000
0100
1000
,  // measure 44
0010
0100
0001
0010
,  // measure 45
1000
0001
1000
0010
,  // measure 46
0100
0001
0100
0001
,  // measure 47
1000
0000
0010
0000
1000
0000
0001
0001
,  // measure 48
0000
0100
0100
0000
0010
0000
1000
0000
,  // measure 49
1001
0100
0000
0100
,  // measure 50
0000
0010
0000
0010
,  // measure 51
1010
0100
0000
0100
,  // measure 52
0000
0001
0000
1000
,  // measure 53
1001
0001
0100
0010
,  // measure 54
1010
0100
0010
1000
,  // measure 55
1001
1000
0001
0100
,  // measure 56
0010
1000
0001
0010
,  // measure 57
0100
1000
0100
0010
,  // measure 58
0002
0003
0002
0003
0002
0003
1000
0000
,  // measure 59
1010
0001
1000
0010
,  // measure 60
0100
0001
0100
1000
,  // measure 61
0010
0100
0010
0001
,  // measure 62
1000
0100
0010
0001
,  // measure 63
1001
1000
0100
0010
,  // measure 64
1000
0001
0100
0010
,  // measure 65
1000
0001
0100
0010
,  // measure 66
0001
1000
0100
0010
,  // measure 67
1001
0100
0001
0100
,  // measure 68
0010
1000
0100
0010
,  // measure 69
0001
1000
0001
0100
,  // measure 70
0010
1000
0100
0020
,  // measure 71
1030
0000
0001
0000
2002
3003
0000
0000
;
