#TITLE:-Tempestissimo;
#SUBTITLE:;
#ARTIST:t+pazolite;
#TITLETRANSLIT:;
#SUBTITLETRANSLIT:;
#ARTISTTRANSLIT:;
#GENRE:;
#CREDIT:;
#BANNER:Tempestissimo-bn.PNG;
#BACKGROUND:Tempestissimo-bg.png;
#LYRICSPATH:;
#CDTITLE:;
#MUSIC:Tempestissimo.mp3;
#OFFSET:-0.294000;
#SAMPLESTART:58.308067;
#SAMPLELENGTH:15.000007;
#SELECTABLE:YES;
#DISPLAYBPM:*;
#BPMS:0.000000=115.500000
,32.000000=231.000000
,222.000000=115.500000
,223.000000=231.000000
,253.000000=115.500000
,275.000000=231.000000
,291.000000=115.500000
,295.000000=231.000000
;
#STOPS:253.000000=-6.753247,
295.000000=-3.376623
;
#BGCHANGES:0.000=Tempestissimo-bg.png=1.000=0=0=1=====,
99999=-nosongbg-=1.000=0=0=0 // don't automatically add -songbackground-
;
#KEYSOUNDS:;
#ATTACKS:;

//---------------dance-single - ----------------
#NOTES:
     dance-single:
     :
     Challenge:
     19:
     0.913866,1.582570,0.563173,0.462090,0.451260,886.000000,808.000000,78.000000,64.000000,0.000000,0.000000,0.913866,1.582570,0.563173,0.462090,0.451260,886.000000,808.000000,78.000000,64.000000,0.000000,0.000000:
// measure 0
0000
0000
0000
0000
,  // measure 1
0000
0000
0000
0000
,  // measure 2
0000
0000
0000
0000
,  // measure 3
0000
0000
0000
0000
,  // measure 4
0000
0000
0000
0000
,  // measure 5
0000
0000
0000
0000
,  // measure 6
0000
0000
0000
0000
,  // measure 7
0000
0000
0000
0000
,  // measure 8
0001
0000
1000
0000
0010
0000
0000
0000
0100
0000
0000
0001
0000
0000
1000
0000
,  // measure 9
0000
0000
0001
0100
0001
0000
0100
0000
0010
0000
1000
0001
1000
0000
0010
0000
,  // measure 10
0100
0000
0010
0000
1000
0000
0000
0000
0001
0000
0000
0100
0000
0000
0001
0000
,  // measure 11
0000
0000
0100
0001
0100
0000
0010
0000
1000
0000
0010
1000
0010
0000
0100
0000
,  // measure 12
0001
0001
1000
1000
,  // measure 13
0010
0010
0100
0100
,  // measure 14
0001
0010
0100
1000
0100
0010
0001
1000
,  // measure 15
0001
0100
0010
0100
0010
1000
0002
0000
,  // measure 16
0103
0010
1000
0001
0010
0001
1000
0100
,  // measure 17
0010
0000
0001
1000
0001
0000
0100
0000
0010
0000
1000
0000
0001
1000
0001
1000
,  // measure 18
0001
0100
0001
1000
0001
0100
0010
1000
,  // measure 19
0010
0000
1000
0001
1000
0000
0010
0000
0100
0001
0100
0001
0100
0000
0010
0000
,  // measure 20
1000
0001
0010
0001
1000
0001
0010
0100
,  // measure 21
1000
0000
0001
1000
0001
0000
0100
0000
0010
1000
0010
1000
0010
0000
1000
0001
,  // measure 22
1000
0000
0001
0000
0100
0000
0010
1000
0010
0000
0100
0010
0100
0000
2000
0000
,  // measure 23
3001
0010
0100
1000
0010
0000
0110
0000
,  // measure 24
0001
0000
0000
0000
0100
0000
0000
0000
1010
0000
0000
1010
0000
0000
1010
0000
,  // measure 25
0000
0000
0001
0100
0001
0000
0100
0000
0010
0000
1000
0001
1000
0000
0010
0000
,  // measure 26
0100
0000
0000
0000
1000
0000
0000
0000
0101
0000
0000
0101
0000
0000
0101
0000
,  // measure 27
0000
0000
1000
0001
0100
0000
0010
0000
0100
0000
0001
0000
1001
0000
0000
0000
,  // measure 28
0001
0000
1000
0000
0010
0000
0100
0000
0010
0000
1000
0000
0001
0000
1000
0001
,  // measure 29
1000
0000
0010
0000
0100
0000
0001
0000
1000
0001
1000
0001
0100
0000
0010
0000
,  // measure 30
0100
0000
0001
0000
0010
0000
0001
0010
0001
0000
1000
0100
1000
0000
0001
0000
,  // measure 31
1000
0001
0100
0001
1000
0100
0010
0001
,  // measure 32
1000
1010
0000
1010
0000
1010
0000
1001
,  // measure 33
0000
0001
0101
0000
1001
0000
1010
0000
,  // measure 34
0010
0110
0000
0110
0000
0110
0000
1010
,  // measure 35
0000
1000
1001
0000
0101
0000
0110
0000
,  // measure 36
0010
1010
0000
1010
0000
1010
0000
1010
,  // measure 37
0000
1000
1001
0000
1010
0000
0101
0000
,  // measure 38
0001
1001
0000
1001
0000
1001
0000
0101
,  // measure 39
0000
0100
0101
0000
0110
0000
0101
0000
,  // measure 40
2010
0001
0010
0100
,  // measure 41
0010
0001
0010
0100
,  // measure 42
0010
0001
0100
0001
,  // measure 43
0010
0001
0100
0001
,  // measure 44
3001
0000
1000
0000
0010
1000
0010
0000
1000
0000
0001
0000
0100
0001
0100
0000
,  // measure 45
0010
0000
1000
0000
0001
1000
0001
0000
0100
0000
0001
0000
1000
0001
1000
0000
,  // measure 46
0010
0000
1000
0000
0001
0100
0001
0000
1000
0000
0010
0000
1000
0001
1000
0000
,  // measure 47
0001
0010
0001
0010
0100
1000
0100
0010
0001
0000
0000
0000
1000
0000
0000
0000
,  // measure 48
1002
0000
0203
0000
0310
1000
0001
0200
,  // measure 49
0000
0310
1000
0010
0200
0000
0302
0000
,  // measure 50
0023
0000
0230
0000
1300
0001
1000
0020
,  // measure 51
0000
0130
0200
0301
0200
0310
2000
3001
,  // measure 52
2000
3010
0200
0000
0301
1000
0001
2000
,  // measure 53
0000
3001
0010
0100
2000
0000
3200
0000
,  // measure 54
0320
0000
0032
0000
1003
0010
1000
0002
,  // measure 55
0000
0103
0010
1000
0020
0000
1030
0001
,  // measure 56
0010
0000
0100
0000
0010
0000
0100
0000
1000
0000
0002
0000
0000
0000
0103
0010
,  // measure 57
1000
0010
0100
0001
2000
0000
3010
0100
,  // measure 58
0010
0000
1000
0000
0001
0000
0010
0000
0001
0000
0020
0000
0000
0000
0031
1000
,  // measure 59
0002
0103
0002
1003
0020
0130
0020
1030
,  // measure 60
0001
0000
0010
0000
0100
0000
0010
0000
0100
0000
2000
0000
0000
0000
3010
0100
,  // measure 61
0001
0100
0010
1000
0020
0000
0130
0001
,  // measure 62
1000
0000
0100
0000
1000
0000
0001
0000
0100
0000
0002
0000
0000
0000
0013
0100
,  // measure 63
1000
0100
0010
0000
0000
0000
0000
0000
,  // measure 64
0000
0000
0000
0000
,  // measure 65
0000
0000
0000
0000
,  // measure 66
0000
0000
0000
0000
0000
0000
0000
0000
0000
0000
0000
0000
0000
0000
0000
0000
0000
0000
0000
0000
0000
0000
0000
0000
0001
1000
0001
1000
0001
0000
0000
0000
,  // measure 67
0100
0010
0100
0010
0100
0000
0000
0000
0001
0000
1000
0000
0001
0000
0100
0000
0010
0000
0000
0000
1000
0000
0000
0000
0010
0100
0010
0100
0010
0000
0000
0000
,  // measure 68
1000
0001
1000
0001
1000
0000
0000
0000
0001
0000
0010
0000
0100
0000
1000
0000
0100
0000
0010
0000
0001
0000
0000
0000
1001
0000
0000
0000
1000
0000
0000
0000
,  // measure 69
0010
0000
0100
0000
0001
0000
1000
0000
0001
0000
0200
0000
0000
0000
0301
1000
,  // measure 70
0001
0010
0100
1000
0100
0010
0001
1000
,  // measure 71
0001
0000
1000
0000
0010
0000
0100
0000
0010
0000
0100
0000
0001
1000
0001
1000
,  // measure 72
0001
1000
0001
1000
0001
1000
0001
1000
0001
1000
0001
1000
0001
0000
0000
0000
,  // measure 73
0000
0000
0000
F00F
,  // measure 74
0000
0000
0000
0000
,  // measure 75
0000
0000
0000
0000
,  // measure 76
0000
0000
0000
0000
,  // measure 77
2002
0000
0000
3003
2020
0000
0000
3030
,  // measure 78
2002
0000
0000
3003
0202
0000
0000
0303
,  // measure 79
0001
1000
0100
1000
0100
0010
0100
1000
,  // measure 80
0001
0010
0100
1000
0001
0100
0010
1000
,  // measure 81
0010
0100
0010
0100
0010
0100
0010
0100
0010
0100
0010
0100
0010
0100
0010
0100
,  // measure 82
0020
0000
0000
0000
0230
0000
0000
0000
0301
0000
0000
0001
0000
0000
1000
0000
,  // measure 83
1001
0001
0010
0100
0010
0100
1000
0001
,  // measure 84
1000
0100
0010
0001
1000
0001
1000
0100
,  // measure 85
1000
0001
0010
0100
0010
0001
0100
0001
,  // measure 86
1000
0100
1000
0001
1000
0001
0100
0001
,  // measure 87
2000
3010
2000
3001
2000
3010
0200
0000
,  // measure 88
0302
1003
0002
1003
0020
0000
2030
0000
,  // measure 89
3001
0100
0001
0100
0010
1000
0010
1000
,  // measure 90
0001
1000
0001
1000
0010
0100
0010
0000
0100
0000
0100
0000
,  // measure 91
1000
0010
1000
0010
0100
0001
0100
0001
,  // measure 92
1000
0100
1000
0100
0010
0001
0010
0001
,  // measure 93
1000
0001
1000
0001
1000
0001
1000
0001
1000
0001
1000
0001
1000
0001
1000
0001
,  // measure 94
1000
0001
1000
0001
1000
0001
1000
0001
2000
0000
0000
0000
3200
0000
0000
0000
,  // measure 95
0310
0001
0010
0001
0010
0100
1000
0010
,  // measure 96
0100
0001
1000
0010
0100
0001
0100
0001
,  // measure 97
1000
0010
1000
0010
1000
0010
1000
0010
1000
0010
1000
0010
1000
0010
1000
0010
,  // measure 98
1000
0000
0001
0000
0100
0000
0010
0000
0100
0000
0000
0100
0000
0000
0100
0000
,  // measure 99
0001
0000
1001
0000
0000
0000
1001
0000
0000
0000
0001
0100
0010
0000
1000
0000
,  // measure 100
0001
0010
0001
1000
0010
0000
2000
0000
,  // measure 101
3001
0000
1001
0000
0000
0000
1001
0000
0000
0000
1000
0001
0100
0000
0010
0000
,  // measure 102
1000
0000
0001
1000
0010
0000
0100
0000
0002
0000
0000
0000
0203
0000
0000
0000
,  // measure 103
0301
0010
0001
0010
0100
1000
0100
1000
,  // measure 104
0001
0010
0001
0010
0100
1000
0100
1000
,  // measure 105
0001
0100
0010
0100
0001
1000
0010
1000
,  // measure 106
0001
0100
0001
0100
0001
0100
0001
0100
0001
0100
0001
0100
0001
0100
0001
0100
,  // measure 107
0001
0101
0000
0110
0000
0110
0000
1010
,  // measure 108
0000
1000
1001
0000
1010
0000
0101
0000
,  // measure 109
0001
0101
0000
0101
0000
0101
0000
1001
,  // measure 110
0000
1000
1010
0000
1001
0000
1010
0000
,  // measure 111
0010
0110
0000
0101
0000
0101
0000
0101
,  // measure 112
0000
0100
0110
0000
1001
0000
0101
0000
,  // measure 113
0100
1100
0000
1001
0000
1001
0000
1001
,  // measure 114
0000
1000
1010
0000
1001
0000
0110
0000
,  // measure 115
1002
0100
0010
0100
,  // measure 116
1000
0100
0010
0100
,  // measure 117
0010
1000
0100
1000
,  // measure 118
0010
1000
0100
1000
,  // measure 119
1003
0000
0010
0000
0100
0001
0100
0000
0001
0000
0100
0000
0010
1000
0010
0000
,  // measure 120
0100
0000
0010
0000
1000
0001
1000
0000
0010
0000
0100
0000
0001
1000
0001
1000
,  // measure 121
0001
1000
0002
0000
0103
0010
0100
0010
0200
0000
0301
0000
2000
0000
3001
0000
,  // measure 122
0100
0000
0010
0100
0010
0000
1000
0000
0001
0000
0000
0010
0000
0000
0001
0000
,  // measure 123
2000
0000
0000
0000
,  // measure 124
0000
0000
0010
0000
0001
0000
0010
3000
,  // measure 125
0220
0330
0000
0000
;

//---------------dance-single - ----------------
#NOTES:
     dance-single:
     :
     Hard:
     16:
     0.737488,0.947646,0.433210,0.245486,0.126353,715.000000,655.000000,60.000000,34.000000,0.000000,0.000000,0.737488,0.947646,0.433210,0.245486,0.126353,715.000000,655.000000,60.000000,34.000000,0.000000,0.000000:
// measure 0
0000
0000
0000
0000
,  // measure 1
0000
0000
0000
0000
,  // measure 2
0000
0000
0000
0000
,  // measure 3
0000
0000
0000
0000
,  // measure 4
0000
0000
0000
0000
,  // measure 5
0000
0000
0000
0000
,  // measure 6
0000
0000
0000
0000
,  // measure 7
0000
0000
0000
0000
,  // measure 8
1001
0010
0100
0010
,  // measure 9
1000
0000
0001
1000
0100
0010
0001
0000
,  // measure 10
1001
1000
0001
0100
,  // measure 11
0010
0000
1000
0001
1000
0001
0100
0001
,  // measure 12
0010
0001
0010
0000
0100
0000
0100
0000
,  // measure 13
1000
0001
1000
0001
0100
0001
1000
0000
,  // measure 14
0001
0010
0100
0000
0010
0001
0010
0000
,  // measure 15
0001
0000
1000
0010
1000
0000
0010
0000
0100
0000
0001
0000
0100
0000
0000
0000
,  // measure 16
0001
0010
0100
0000
0010
0000
0100
0000
,  // measure 17
1000
0001
0100
0001
1000
0010
1000
0001
,  // measure 18
0100
0010
0100
0000
0010
0000
0010
0000
,  // measure 19
1000
0100
0001
0100
1000
0001
0010
0100
,  // measure 20
1000
0001
1000
0000
0010
0000
1000
0000
,  // measure 21
0001
1000
0100
0010
0001
0100
0010
0100
,  // measure 22
1000
0001
0010
0100
0010
1000
0001
0010
,  // measure 23
0100
0000
1000
0001
1000
0000
0100
0000
0010
0000
0100
0000
1000
0000
0000
0000
,  // measure 24
1000
0000
0000
0000
1001
0000
0000
0000
0100
0000
0000
0010
0000
0000
0010
0000
,  // measure 25
0000
0000
1000
0001
1000
0000
0010
0000
0100
0000
0001
0100
0001
0000
0100
0000
,  // measure 26
0010
0000
0000
0000
0101
0000
0000
0000
0100
0000
0000
0010
0000
0000
0100
0000
,  // measure 27
0000
0000
0001
1000
0001
0000
0100
0000
0010
0000
1000
0010
1000
0000
0001
0000
,  // measure 28
0100
0001
0100
0000
0001
0000
1000
0100
,  // measure 29
0010
0100
1000
0000
1000
0000
0100
0000
,  // measure 30
0010
0001
1000
0001
0100
1000
0100
0010
,  // measure 31
0100
0000
0010
1000
0001
0000
0100
0000
0010
0000
1000
0001
1000
0000
0001
0000
,  // measure 32
0100
0001
0000
0110
0000
0110
0000
0110
,  // measure 33
0000
0100
0001
0000
1000
0000
1000
0000
,  // measure 34
0001
0100
0000
1010
0000
1010
0000
1010
,  // measure 35
0000
0010
1000
0000
0001
0000
0001
0000
,  // measure 36
0100
0001
0000
1010
0000
1010
0000
1010
,  // measure 37
0000
1000
0001
0000
0100
0000
0100
0000
,  // measure 38
0001
1000
0000
0110
0000
0110
0000
0110
,  // measure 39
0000
0010
1000
0000
0001
0000
0001
0000
,  // measure 40
1001
1000
0100
0010
,  // measure 41
0001
1000
0001
1000
,  // measure 42
0001
0010
0100
1000
,  // measure 43
0010
1000
0010
0100
,  // measure 44
0002
0000
0103
0010
2000
0000
3010
0100
,  // measure 45
0002
0000
0103
0010
2000
0000
3100
0010
,  // measure 46
0002
0000
0013
0100
2000
0000
3001
0010
,  // measure 47
0100
1000
0100
0010
0001
0000
1000
0000
,  // measure 48
0110
0000
0010
0100
1000
0100
0010
1000
,  // measure 49
0000
0001
0100
0010
0100
0000
0010
0000
,  // measure 50
1010
0000
0100
0001
0100
0001
1000
0010
,  // measure 51
0100
0010
2000
3000
2001
3000
0020
0030
,  // measure 52
0120
0030
1000
0100
0010
0100
0001
0100
,  // measure 53
0000
1000
0100
1000
0001
0000
0101
0000
,  // measure 54
0100
0001
0010
0001
0100
0010
1000
0100
,  // measure 55
0000
1000
0100
1000
0200
0000
1300
0001
,  // measure 56
1000
0001
0100
0001
1000
0100
0000
1000
,  // measure 57
0100
0010
0100
0010
0001
0000
0101
0000
,  // measure 58
1000
0001
1000
0001
0100
0010
1000
0010
,  // measure 59
2000
3000
2001
3000
0020
0030
0120
0030
,  // measure 60
0100
0010
0001
0010
0100
0001
0000
1000
,  // measure 61
0100
0010
1000
0010
0100
0000
1001
0000
,  // measure 62
0001
0010
0100
1000
0001
0100
0000
0001
,  // measure 63
1000
0001
0000
0000
0000
0000
0000
0000
,  // measure 64
0000
0000
0000
0000
,  // measure 65
0000
0000
0000
0000
,  // measure 66
0000
0000
0000
0200
,  // measure 67
0320
0000
0000
0000
0130
0001
1000
0001
1000
0000
0001
0000
0020
0000
0000
0000
,  // measure 68
0032
0000
0000
0000
0013
0100
0010
0001
0010
0100
1000
0000
1001
0000
0000
0000
,  // measure 69
1000
0001
0010
0100
1000
0001
0000
0001
,  // measure 70
1000
0001
1000
0010
1000
0100
0010
0001
,  // measure 71
0010
0001
0010
0100
0010
0100
1000
0001
,  // measure 72
1000
0000
0001
0000
0100
0010
0100
0010
1000
0001
1000
0001
1000
0000
0000
0000
,  // measure 73
0000
0000
0000
1001
,  // measure 74
0000
0000
0000
0000
,  // measure 75
0000
0000
0000
0000
,  // measure 76
0000
0000
0000
0000
,  // measure 77
1001
0000
1010
0000
,  // measure 78
0101
0000
0110
0000
,  // measure 79
0010
0000
1000
0000
0001
0000
0010
0001
,  // measure 80
0100
0010
1000
0100
0010
0100
1000
0001
,  // measure 81
0010
0100
0010
0100
0010
0100
0010
0100
,  // measure 82
0010
0000
0100
0000
0101
0000
0000
0000
0001
0000
0000
0001
0000
0000
0001
0000
,  // measure 83
0100
0000
0201
0300
0010
0000
1020
0030
,  // measure 84
1000
0000
2100
3000
0100
1000
0001
1000
,  // measure 85
0100
0000
1200
0300
1000
0000
2001
3000
,  // measure 86
0100
0000
0210
0300
0010
0001
1000
0001
,  // measure 87
0010
0002
0103
0002
0103
0020
1030
0000
,  // measure 88
1000
0002
1003
0002
0203
0000
0320
0000
,  // measure 89
1030
0001
1000
0001
0100
0010
0100
0010
,  // measure 90
1000
0000
0000
0001
0000
0000
1000
0000
0000
0000
0000
0000
0001
0000
0000
0000
0100
0000
0000
0000
0010
0000
0000
0000
1000
0000
0000
0000
0000
0000
0000
0000
1001
0000
0000
0000
0000
0000
0000
0000
0001
0000
0000
0000
0000
0000
0000
0000
,  // measure 91
1001
0000
1001
0000
,  // measure 92
1001
0000
1001
0000
,  // measure 93
1000
0010
1000
0010
0100
0001
0100
0001
,  // measure 94
0010
0100
1000
0100
0010
0001
1000
0000
,  // measure 95
0110
0000
0010
0000
0010
0000
0100
0010
,  // measure 96
1000
0010
1000
0000
0010
0000
0100
0000
,  // measure 97
0001
1000
0001
1000
0001
1000
0001
0100
,  // measure 98
0010
0000
0100
0001
0100
0000
0000
0000
0010
0000
0000
0010
0000
0000
0010
0000
,  // measure 99
0100
0000
0001
0000
0000
0000
1001
0000
0000
0000
1000
0001
1000
0000
0010
0000
,  // measure 100
0100
0000
0001
1000
0001
0000
0100
0000
0010
0000
0000
0000
0200
0000
0000
0000
,  // measure 101
0301
0000
1000
0000
0000
0000
1001
0000
0000
0000
0001
0010
0100
0000
1000
0000
,  // measure 102
0001
0000
1000
0100
0010
0000
0001
0000
1000
0000
0000
0000
1000
0000
0000
0000
,  // measure 103
0010
0100
0000
0001
0010
0001
0000
1000
,  // measure 104
0100
1000
0000
0001
0100
0001
0000
1000
,  // measure 105
0010
0100
0010
0100
0001
1000
0001
1000
,  // measure 106
0001
0000
0010
0000
0100
0000
1000
0000
0100
0000
0010
0000
0001
1000
0001
1000
,  // measure 107
0001
0100
0000
0110
0000
0110
0000
0110
,  // measure 108
0000
0100
0001
0000
1000
0000
1000
0000
,  // measure 109
0001
0010
0000
1001
0000
1001
0000
1001
,  // measure 110
0000
0001
1000
0000
0010
0000
0010
0000
,  // measure 111
0100
0001
0000
1010
0000
1010
0000
1010
,  // measure 112
0000
0001
0100
0000
0010
0000
0010
0000
,  // measure 113
0100
0001
0000
1100
0000
1100
0000
1100
,  // measure 114
0000
1000
0010
0000
0100
0000
0100
0000
,  // measure 115
1001
0001
0010
0001
,  // measure 116
0010
0100
1000
0100
,  // measure 117
0010
0000
0100
1000
0001
1000
0100
0000
,  // measure 118
0010
0001
0010
0100
,  // measure 119
1000
0001
1000
0010
0100
0001
1000
0100
,  // measure 120
0010
0001
0100
0001
1000
0100
0001
0100
,  // measure 121
1000
0010
1000
0001
0100
0010
0001
0010
,  // measure 122
0100
0000
0001
1000
0001
0000
0100
0000
0010
0000
0000
0010
0000
0000
1000
0000
,  // measure 123
0002
0000
0000
0000
,  // measure 124
0000
0000
0000
0003
,  // measure 125
1001
0000
0000
0000
;

//---------------dance-single - ----------------
#NOTES:
     dance-single:
     :
     Medium:
     12:
     0.447650,0.676890,0.252706,0.043321,0.000000,434.000000,399.000000,35.000000,6.000000,0.000000,0.000000,0.447650,0.676890,0.252706,0.043321,0.000000,434.000000,399.000000,35.000000,6.000000,0.000000,0.000000:
// measure 0
0000
0000
0000
0000
,  // measure 1
0000
0000
0000
0000
,  // measure 2
0000
0000
0000
0000
,  // measure 3
0000
0000
0000
0000
,  // measure 4
0000
0000
0000
0000
,  // measure 5
0000
0000
0000
0000
,  // measure 6
0000
0000
0000
0000
,  // measure 7
0000
0000
0000
0000
,  // measure 8
0110
0000
0000
0000
,  // measure 9
0000
0000
0000
0000
,  // measure 10
1010
0000
0000
0000
,  // measure 11
0000
0000
0000
0000
,  // measure 12
0001
1000
0001
0000
,  // measure 13
0100
0010
0100
0000
,  // measure 14
0010
0010
1000
1000
,  // measure 15
0010
0100
0001
1000
,  // measure 16
0010
1000
0010
0000
0100
0000
0001
0000
,  // measure 17
1000
0010
0100
0001
,  // measure 18
0010
0001
0010
0000
0010
0000
0001
0000
,  // measure 19
0001
1000
0010
0100
,  // measure 20
0001
1000
0010
0000
0100
0000
0100
0000
,  // measure 21
0001
0100
0010
1000
,  // measure 22
1001
0000
0101
0000
,  // measure 23
0010
1000
0010
1000
,  // measure 24
0101
0000
0000
0000
,  // measure 25
0000
0000
1010
0000
,  // measure 26
1001
0000
0000
0000
,  // measure 27
0000
0000
0100
0000
,  // measure 28
0010
0000
1000
0000
0100
0000
0010
0001
,  // measure 29
0010
0100
1000
1000
,  // measure 30
0001
1000
0001
0000
0100
0010
0100
0000
,  // measure 31
0001
0000
1000
0000
0001
0100
0001
0100
,  // measure 32
0001
0000
0000
0100
0000
0100
0000
0100
,  // measure 33
0000
0000
0010
0010
,  // measure 34
1001
0000
0000
1000
0000
1000
0000
1000
,  // measure 35
0000
0000
1000
1000
,  // measure 36
1010
0000
0000
0001
0000
0001
0000
0001
,  // measure 37
0000
0000
1000
1000
,  // measure 38
0101
0000
0000
0010
0000
0010
0000
0010
,  // measure 39
0000
0000
0100
0100
,  // measure 40
1002
0000
0000
0000
,  // measure 41
0000
0000
0000
0000
,  // measure 42
0203
0000
0000
0000
,  // measure 43
0000
0000
0000
0000
,  // measure 44
0310
0000
0100
0000
1000
0000
0100
0001
,  // measure 45
1000
0000
0001
0000
0010
0000
0100
1000
,  // measure 46
0100
0000
0010
0000
0100
0000
0010
0001
,  // measure 47
1000
0010
1000
0000
0100
0000
0010
0000
,  // measure 48
1001
0010
0100
0010
,  // measure 49
1000
0000
0001
0100
0010
0100
0001
0000
,  // measure 50
1000
0010
0100
0010
,  // measure 51
1000
0001
0001
1000
,  // measure 52
1010
0100
0001
1000
,  // measure 53
1000
0000
0001
1000
0001
1000
0010
0000
,  // measure 54
0010
0100
0001
0010
,  // measure 55
0100
1000
0002
0103
,  // measure 56
0010
0000
1000
0000
0001
0010
0100
0000
,  // measure 57
1000
0001
1000
0001
0100
0000
0001
0000
,  // measure 58
0010
0000
0001
1000
0100
1000
0001
0000
,  // measure 59
0100
0010
1000
0101
,  // measure 60
1000
0000
0010
0100
0001
0000
0010
0000
,  // measure 61
0100
1000
0001
1000
0100
0000
0010
0000
,  // measure 62
0001
0000
0100
0001
0100
0000
0010
0000
,  // measure 63
0100
1001
0000
0000
,  // measure 64
0000
0000
0000
0000
,  // measure 65
0000
0000
0000
0000
,  // measure 66
0000
0000
0000
0010
,  // measure 67
0010
0000
0101
0001
1001
0000
0010
0000
,  // measure 68
0100
0000
1001
0010
0100
0010
1000
0000
,  // measure 69
0001
0100
0010
1000
,  // measure 70
0010
0000
0100
0000
0001
0000
1000
0010
,  // measure 71
1000
0000
0001
0100
0001
0000
1000
0000
,  // measure 72
0100
0000
0010
0001
0010
0001
1000
0000
,  // measure 73
0000
0000
0000
F00F
,  // measure 74
0000
0000
0000
0000
,  // measure 75
0000
0000
0000
0000
,  // measure 76
0000
0000
0000
0000
,  // measure 77
1001
0000
1010
0000
,  // measure 78
0101
0000
1001
0000
,  // measure 79
0100
0010
0001
1000
,  // measure 80
0100
0010
1000
0001
,  // measure 81
0010
0001
0010
0001
0100
0010
0100
0010
,  // measure 82
1000
0001
1001
0000
,  // measure 83
0100
0010
1000
0001
,  // measure 84
0100
0010
1000
0001
,  // measure 85
0100
0010
0001
0000
1000
0100
0010
0000
,  // measure 86
1000
0001
1000
0001
0100
0000
0010
0000
,  // measure 87
0100
0001
1000
1001
,  // measure 88
0010
0100
1000
0010
,  // measure 89
0100
0001
0100
0000
0001
1000
0001
0000
,  // measure 90
0010
1000
0010
0001
,  // measure 91
0101
0000
0100
0000
,  // measure 92
0100
0000
0100
0000
,  // measure 93
1000
0001
1000
0001
,  // measure 94
1000
0001
1000
0001
1000
0000
1001
0000
,  // measure 95
0010
0000
0100
0000
1000
0000
0001
1000
,  // measure 96
0010
0100
0001
1000
,  // measure 97
0010
0100
0010
0100
,  // measure 98
0010
0100
0010
0000
1001
0000
0000
0000
,  // measure 99
0101
0000
0000
0000
0000
0000
1000
0100
,  // measure 100
0010
0000
0100
0010
0001
0000
1000
0000
,  // measure 101
1001
0000
0000
0000
0000
0000
0001
1000
,  // measure 102
0001
0000
0100
0010
0100
0000
0001
0000
,  // measure 103
0001
0100
1000
0100
,  // measure 104
0001
1000
0100
0001
,  // measure 105
0100
1000
0010
0100
,  // measure 106
0010
0000
1000
0001
1000
0001
1000
0000
,  // measure 107
1001
0000
0000
0010
0000
0010
0000
0010
,  // measure 108
0000
0000
0100
0100
,  // measure 109
1001
0000
0000
0001
0000
0001
0000
0001
,  // measure 110
0000
0000
1000
1000
,  // measure 111
1010
0000
0000
0010
0000
0010
0000
0010
,  // measure 112
0000
0000
0001
0001
,  // measure 113
0011
0000
0000
1000
0000
1000
0000
1000
,  // measure 114
0000
0000
0010
0010
,  // measure 115
0120
0000
0000
0000
,  // measure 116
0000
0000
0000
0000
,  // measure 117
2030
0000
0000
0000
,  // measure 118
0000
0000
0000
0000
,  // measure 119
3001
0010
0100
0000
0100
0010
0001
0000
,  // measure 120
0001
1000
0001
0000
1000
0010
0100
0000
,  // measure 121
0001
1000
0001
0100
0010
0000
1000
0000
,  // measure 122
0110
0000
0000
0000
,  // measure 123
1002
0000
0000
0000
,  // measure 124
0000
0000
0000
0000
,  // measure 125
1003
0000
0000
0000
;

//---------------dance-single - ----------------
#NOTES:
     dance-single:
     :
     Easy:
     7:
     0.322844,0.496386,0.238265,0.093862,0.000000,313.000000,280.000000,33.000000,13.000000,0.000000,0.000000,0.322844,0.496386,0.238265,0.093862,0.000000,313.000000,280.000000,33.000000,13.000000,0.000000,0.000000:
// measure 0
0000
0000
0000
0000
,  // measure 1
0000
0000
0000
0000
,  // measure 2
0000
0000
0000
0000
,  // measure 3
0000
0000
0000
0000
,  // measure 4
0000
0000
0000
0000
,  // measure 5
0000
0000
0000
0000
,  // measure 6
0000
0000
0000
0000
,  // measure 7
0000
0000
0000
0000
,  // measure 8
1010
0000
1000
0000
,  // measure 9
0001
0000
0100
0000
,  // measure 10
1001
0000
0100
0000
,  // measure 11
0010
0000
1000
0000
,  // measure 12
0001
0001
0010
0010
,  // measure 13
0100
0100
1000
1000
,  // measure 14
0001
0100
0001
1000
,  // measure 15
0010
0001
0010
1000
,  // measure 16
0001
0000
0001
0000
,  // measure 17
1000
0100
0010
0001
,  // measure 18
1000
0000
0001
0000
,  // measure 19
0001
0010
1000
0010
,  // measure 20
0001
0000
1000
0000
,  // measure 21
0001
1000
0100
0010
,  // measure 22
0001
0000
0010
0000
,  // measure 23
0100
1000
0010
0100
,  // measure 24
1001
0000
1000
0000
,  // measure 25
0001
0000
0100
0010
,  // measure 26
0110
0000
1000
0000
,  // measure 27
0001
0000
0100
0010
,  // measure 28
1001
0000
0010
0000
,  // measure 29
0100
0000
0001
0100
,  // measure 30
1000
0100
0001
1000
,  // measure 31
0100
0010
0010
0001
,  // measure 32
1001
0000
0010
0000
,  // measure 33
0000
0000
1000
0000
,  // measure 34
0011
0000
0100
0000
,  // measure 35
0001
0000
1000
0000
,  // measure 36
0110
0000
0001
0000
,  // measure 37
0100
0000
0010
0000
,  // measure 38
1001
0000
0100
0000
,  // measure 39
0010
0000
1000
0000
,  // measure 40
0120
0000
0000
0000
,  // measure 41
0000
0000
0000
0000
,  // measure 42
2030
0000
0000
0000
,  // measure 43
0000
0000
0000
0000
,  // measure 44
3002
0003
0200
0300
,  // measure 45
0002
0003
2000
3000
,  // measure 46
0020
0030
2000
3000
,  // measure 47
0001
1000
0010
0000
,  // measure 48
1001
0000
0100
0000
,  // measure 49
0010
1000
0001
0100
,  // measure 50
0001
0000
0010
0000
,  // measure 51
1000
1000
0001
0001
,  // measure 52
0101
0000
0100
0000
,  // measure 53
0010
0100
0001
0100
,  // measure 54
0010
0000
0100
0000
,  // measure 55
0010
0100
0002
1003
,  // measure 56
0100
0010
0100
1000
,  // measure 57
0000
0001
0010
1000
,  // measure 58
0010
0001
0000
0100
,  // measure 59
0100
0001
0001
1000
,  // measure 60
0000
0010
1000
0001
,  // measure 61
0100
0001
0000
1000
,  // measure 62
0100
0010
0100
1000
,  // measure 63
0000
1001
0000
0000
,  // measure 64
0000
0000
0000
0000
,  // measure 65
0000
0000
0000
0000
,  // measure 66
0000
0000
0000
0020
,  // measure 67
0100
0130
1001
0200
,  // measure 68
0001
0301
1010
1000
,  // measure 69
0100
0010
0000
0100
,  // measure 70
0010
0001
0000
1000
,  // measure 71
0001
1000
0001
0100
,  // measure 72
0010
0100
0010
1001
,  // measure 73
0000
0000
0000
F00F
,  // measure 74
0000
0000
0000
0000
,  // measure 75
0000
0000
0000
0000
,  // measure 76
0000
0000
0000
0000
,  // measure 77
1001
0000
0000
0000
,  // measure 78
0110
0000
0000
0000
,  // measure 79
1000
0000
0010
0000
,  // measure 80
0100
0001
1000
0001
,  // measure 81
1000
0010
1000
0010
,  // measure 82
1000
0000
0000
0000
,  // measure 83
1001
0000
0100
0000
,  // measure 84
0010
1000
0001
0000
,  // measure 85
0001
0000
1000
0000
,  // measure 86
0010
0010
0100
0000
,  // measure 87
0001
1000
0001
0100
,  // measure 88
0010
1000
0010
0100
,  // measure 89
0001
0000
0001
0000
,  // measure 90
1000
0000
1000
0000
,  // measure 91
0010
0000
0010
0000
,  // measure 92
0100
0000
0100
0000
,  // measure 93
0001
0000
1000
0000
,  // measure 94
0010
0100
0001
0000
,  // measure 95
1001
0000
0010
0000
,  // measure 96
1000
0100
0001
0100
,  // measure 97
1000
0001
1000
0001
,  // measure 98
1000
0000
0010
0000
,  // measure 99
1001
0000
0000
0000
,  // measure 100
1001
0000
1001
0000
,  // measure 101
0110
0000
0000
0000
,  // measure 102
1001
0000
0101
0000
,  // measure 103
1000
0100
1000
0100
,  // measure 104
1000
0001
1000
0001
,  // measure 105
0010
0001
0010
0001
,  // measure 106
0010
0100
1000
1000
,  // measure 107
1001
0000
0010
0000
,  // measure 108
1000
0000
0001
0000
,  // measure 109
0110
0000
1000
0000
,  // measure 110
0001
0000
0100
0000
,  // measure 111
1010
0000
0010
0000
,  // measure 112
1000
0000
0001
0000
,  // measure 113
0101
0000
0010
0000
,  // measure 114
0100
0000
0010
0000
,  // measure 115
1002
0000
0000
0000
,  // measure 116
0000
0000
0000
0000
,  // measure 117
0203
0000
0000
0000
,  // measure 118
0000
0000
0000
0000
,  // measure 119
0310
1000
0001
0100
,  // measure 120
0001
0010
0100
1000
,  // measure 121
0100
0010
0001
1000
,  // measure 122
1010
0000
0100
0000
,  // measure 123
1001
0000
0000
0000
,  // measure 124
0000
0000
0000
0000
,  // measure 125
1010
0000
0000
0000
;

//---------------dance-single - ----------------
#NOTES:
     dance-single:
     :
     Beginner:
     4:
     0.144403,0.270756,0.129963,0.000000,0.000000,140.000000,122.000000,18.000000,0.000000,0.000000,0.000000,0.144403,0.270756,0.129963,0.000000,0.000000,140.000000,122.000000,18.000000,0.000000,0.000000,0.000000:
// measure 0
0000
0000
0000
0000
,  // measure 1
0000
0000
0000
0000
,  // measure 2
0000
0000
0000
0000
,  // measure 3
0000
0000
0000
0000
,  // measure 4
0000
0000
0000
0000
,  // measure 5
0000
0000
0000
0000
,  // measure 6
0000
0000
0000
0000
,  // measure 7
0000
0000
0000
0000
,  // measure 8
1001
0000
0000
0000
,  // measure 9
0000
0000
0000
0000
,  // measure 10
1010
0000
0000
0000
,  // measure 11
0000
0000
0000
0000
,  // measure 12
0001
0000
0000
0000
,  // measure 13
0001
0000
0000
0000
,  // measure 14
1000
0000
1000
0000
,  // measure 15
1000
0000
0000
0000
,  // measure 16
0010
0000
0000
0000
,  // measure 17
0000
0000
1000
0000
,  // measure 18
0100
0000
0000
0000
,  // measure 19
0000
0000
0001
0000
,  // measure 20
1000
0000
0000
0000
,  // measure 21
0001
0000
0000
0000
,  // measure 22
0100
0000
0010
0000
,  // measure 23
1000
0000
0000
0000
,  // measure 24
1001
0000
0000
0000
,  // measure 25
0000
0000
0000
0000
,  // measure 26
0110
0000
0000
0000
,  // measure 27
0000
0000
0000
0000
,  // measure 28
0001
0000
0000
0000
,  // measure 29
0001
0000
0000
0000
,  // measure 30
1000
0000
0100
0000
,  // measure 31
1000
0000
0010
0000
,  // measure 32
0100
0000
0000
0000
,  // measure 33
0000
0000
0000
0000
,  // measure 34
0001
0000
0000
0000
,  // measure 35
0000
0000
0000
0000
,  // measure 36
1000
0000
0000
0000
,  // measure 37
0000
0000
0000
0000
,  // measure 38
0001
0000
0000
0000
,  // measure 39
0000
0000
0000
0000
,  // measure 40
1000
0000
0000
0000
,  // measure 41
1000
0000
0000
0000
,  // measure 42
0001
0000
0010
0000
,  // measure 43
0001
0000
0000
0000
,  // measure 44
1000
0000
0100
0000
,  // measure 45
1000
0000
0100
0000
,  // measure 46
0010
0000
0100
0000
,  // measure 47
0010
0000
0001
0000
,  // measure 48
1000
0000
0000
0000
,  // measure 49
0001
0000
0000
0000
,  // measure 50
1000
0000
0100
0000
,  // measure 51
1000
0000
0000
0000
,  // measure 52
0010
0000
0000
0000
,  // measure 53
0100
0000
0000
0000
,  // measure 54
0001
0000
1000
0000
,  // measure 55
0001
0000
0000
0001
,  // measure 56
0000
0000
0000
1000
,  // measure 57
0000
0000
0000
0001
,  // measure 58
0000
0100
0000
0001
,  // measure 59
0000
0000
0000
1000
,  // measure 60
0000
0000
0000
0010
,  // measure 61
0000
0000
0000
1000
,  // measure 62
0000
0100
0000
1000
,  // measure 63
0000
0001
0000
0000
,  // measure 64
0000
0000
0000
0000
,  // measure 65
0000
0000
0000
0000
,  // measure 66
0000
0000
0000
0000
,  // measure 67
0000
0010
0000
0000
,  // measure 68
0000
1000
0000
0001
,  // measure 69
0000
0000
0000
1000
,  // measure 70
0000
0000
0000
0001
,  // measure 71
0000
0100
0000
0001
,  // measure 72
0000
0100
0000
0001
,  // measure 73
0000
0000
0000
1001
,  // measure 74
0000
0000
0000
0000
,  // measure 75
0000
0000
0000
0000
,  // measure 76
0000
0000
0000
0000
,  // measure 77
1001
0000
0000
0000
,  // measure 78
0000
0000
0000
0000
,  // measure 79
1010
0000
0000
0000
,  // measure 80
0001
0000
0000
0000
,  // measure 81
1000
0000
0100
0000
,  // measure 82
1000
0000
0000
0000
,  // measure 83
1001
0000
0000
0000
,  // measure 84
1000
0000
0000
0000
,  // measure 85
0001
0000
0010
0000
,  // measure 86
0001
0000
1000
0000
,  // measure 87
0010
0000
0000
0000
,  // measure 88
1000
0000
0000
0000
,  // measure 89
1001
0000
0000
0000
,  // measure 90
0110
0000
0000
0000
,  // measure 91
1001
0000
0000
0000
,  // measure 92
1000
0000
0000
0000
,  // measure 93
0100
0000
0100
0000
,  // measure 94
0100
0000
0010
0000
,  // measure 95
0001
0000
0000
0000
,  // measure 96
1000
0000
0000
0000
,  // measure 97
0001
0000
0100
0000
,  // measure 98
0001
0000
0000
0000
,  // measure 99
1010
0000
0000
0000
,  // measure 100
0000
0000
0000
0000
,  // measure 101
1001
0000
0000
0000
,  // measure 102
1000
0000
0000
0000
,  // measure 103
0001
0000
0000
0000
,  // measure 104
1000
0000
0000
0000
,  // measure 105
0001
0000
1000
0000
,  // measure 106
0001
0000
0100
0000
,  // measure 107
1010
0000
0000
0000
,  // measure 108
0000
0000
0000
0000
,  // measure 109
1001
0000
0000
0000
,  // measure 110
0000
0000
0000
0000
,  // measure 111
0011
0000
0000
0000
,  // measure 112
0000
0000
0000
0000
,  // measure 113
1001
0000
0000
0000
,  // measure 114
0000
0000
0000
0000
,  // measure 115
1010
0000
0000
0000
,  // measure 116
1000
0000
0000
0000
,  // measure 117
0001
0000
0000
0000
,  // measure 118
0001
0000
0000
0000
,  // measure 119
1000
0000
0010
0000
,  // measure 120
1000
0000
0010
0000
,  // measure 121
0100
0000
0001
0000
,  // measure 122
0100
0000
0000
0000
,  // measure 123
0000
0000
0000
0000
,  // measure 124
0000
0000
0000
0000
,  // measure 125
1001
0000
0000
0000
;
