#VERSION:0.83;
#TITLE:Tada kimi ni hare;
#SUBTITLE:;
#ARTIST:Covered by Kuramochi Kyoko;
#TITLETRANSLIT:;
#SUBTITLETRANSLIT:;
#ARTISTTRANSLIT:;
#GENRE:;
#ORIGIN:;
#CREDIT:;
#BANNER:AV.avi;
#BACKGROUND:bg.png;
#PREVIEWVID:;
#JACKET:jacket.png;
#CDIMAGE:;
#DISCIMAGE:;
#LYRICSPATH:;
#CDTITLE:;
#MUSIC:audio.ogg;
#OFFSET:-0.231000;
#SAMPLESTART:56.328999;
#SAMPLELENGTH:15.000000;
#SELECTABLE:YES;
#BPMS:0.000=139.989;
#STOPS:;
#DELAYS:;
#WARPS:;
#TIMESIGNATURES:0.000=4=4;
#TICKCOUNTS:0.000=4;
#COMBOS:0.000=1;
#SPEEDS:0.000=1.000=0.000=0;
#SCROLLS:0.000=1.000;
#FAKES:;
#LABELS:0.000=Song Start;
#BGCHANGES:0.000=MV.avi=1.200=1=0=1===CrossFade==,
3.000=MV.avi=1.000=0=0=1=====,
99999=-nosongbg-=1.000=0=0=0 // don't automatically add -songbackground-
;
#KEYSOUNDS:;
#ATTACKS:
;

//---------------dance-single - ----------------
#NOTEDATA:;
#CHARTNAME:;
#STEPSTYPE:dance-single;
#DESCRIPTION:;
#CHARTSTYLE:;
#DIFFICULTY:Hard;
#METER:12;
#RADARVALUES:0.608383,0.734013,0.140234,0.346894,0.147615,577.000000,558.000000,19.000000,47.000000,0.000000,0.000000,0.000000,0.000000,0.000000,0.608383,0.734013,0.140234,0.346894,0.147615,577.000000,558.000000,19.000000,47.000000,0.000000,0.000000,0.000000,0.000000,0.000000;
#CREDIT:Musey's Chart;
#NOTES:
// measure 0
0000
0000
0000
0000
0010
0100
0001
0010
,  // measure 1
0001
0000
0001
0100
0001
0100
0010
1000
,  // measure 2
0010
0000
1000
0001
1000
0001
0010
0001
,  // measure 3
0010
0000
0001
1000
0001
0100
0001
0010
,  // measure 4
0100
1000
0001
0000
1000
0001
1000
0100
,  // measure 5
1000
0000
0001
0100
0001
1000
0010
1000
,  // measure 6
0001
0000
1000
0001
1000
0010
0100
0010
,  // measure 7
1000
0000
0001
0100
0001
1000
0000
1000
,  // measure 8
0001
0000
1000
0000
0001
0000
0010
0000
0001
0000
0000
0000
0011
0000
0001
1000
,  // measure 9
0001
0000
1000
0000
0010
0000
1000
0010
1000
0000
0001
0000
1000
0000
0100
1000
,  // measure 10
0100
0000
1000
0000
0001
0000
1000
0000
0001
0000
0000
0000
1000
0000
0001
0010
,  // measure 11
0001
0000
1000
0000
0100
0000
1000
0100
1000
0000
0001
0000
1000
0000
0100
0000
,  // measure 12
0010
0000
0001
0000
0010
0000
0001
0000
0001
0000
0001
0000
1000
0000
0010
0100
,  // measure 13
0010
0000
1000
0000
0010
0000
1000
0001
1000
0000
0001
0000
1000
0000
0100
1000
,  // measure 14
0100
0000
1000
0000
0001
0000
0100
0000
0001
0000
1000
0010
1000
0000
1000
0100
,  // measure 15
0010
0001
0010
0001
0010
0100
1000
0000
0001
0000
1000
0000
0001
1000
0001
1000
,  // measure 16
0001
0100
0002
1000
1003
0100
2000
0000
,  // measure 17
3001
0010
0002
0000
0013
0100
1000
0001
,  // measure 18
0100
0010
0100
0001
1000
0100
0020
0000
,  // measure 19
0031
1000
0002
0000
0013
0100
1000
0001
,  // measure 20
0100
0010
1000
0001
0001
0010
0200
0000
,  // measure 21
1300
0010
0200
0000
0301
1000
0002
0000
,  // measure 22
0013
0100
2000
0000
3001
0000
0100
0010
,  // measure 23
1000
0002
0000
0013
0100
0010
0000
0010
,  // measure 24
0000
0010
0001
1000
0001
1000
0002
0000
,  // measure 25
0013
0100
0020
0000
0130
1000
0100
1000
,  // measure 26
0010
0000
1000
0000
0100
0010
0100
0000
1000
0000
0010
0000
2000
0000
0000
0000
,  // measure 27
3010
0100
0002
0000
0013
0001
0010
0001
,  // measure 28
0100
0010
1000
0010
0100
0010
2000
0000
,  // measure 29
3001
0010
0002
0000
1003
1000
0020
0030
,  // measure 30
2000
3000
0002
0003
0020
0030
0200
0300
,  // measure 31
2000
3000
0200
0300
0010
0001
0000
0001
,  // measure 32
0010
0001
0010
0000
0000
0000
1001
0010
,  // measure 33
0100
1000
0002
0000
0010
0013
0100
1000
,  // measure 34
0010
1000
0002
0000
0013
0000
1000
0010
,  // measure 35
1000
0100
0020
0000
0130
0100
1000
0010
,  // measure 36
1000
0010
2000
0001
3001
0010
0100
1000
,  // measure 37
0001
0010
0200
0000
0010
0310
0001
0010
,  // measure 38
0100
1000
0001
0100
0010
0000
1001
0001
,  // measure 39
0010
0011
0000
0001
0010
0110
0000
1001
,  // measure 40
1000
0001
1000
0000
1010
0000
0001
0001
,  // measure 41
0000
0000
1000
1000
0000
0000
0100
0100
,  // measure 42
0000
0000
1000
1000
0000
0000
0001
0001
,  // measure 43
0000
0000
0010
0010
0000
0000
0001
0001
,  // measure 44
0000
0000
1000
1000
0010
0000
0100
0100
,  // measure 45
0010
0000
0001
0001
0010
0000
1000
1000
,  // measure 46
0001
0000
0100
0100
0010
0000
1010
0000
,  // measure 47
0010
1000
0000
1000
0010
1010
0000
1000
,  // measure 48
0001
0000
1000
0001
1000
0000
0000
0000
0002
0000
2003
0000
3000
0000
2000
0000
,  // measure 49
3002
0000
0003
0000
0002
0000
2003
0000
3000
0000
2000
0000
3002
0000
0003
0100
,  // measure 50
0010
1000
0010
0000
1000
0000
1000
0000
0001
0010
0001
0010
0001
0000
0001
0000
,  // measure 51
1000
0010
1000
1000
0001
0010
0100
0100
,  // measure 52
1000
0001
1000
1000
0010
1000
0100
0100
,  // measure 53
1000
0001
0010
0010
0100
1000
0001
0001
,  // measure 54
1000
0000
0010
0000
1000
0000
0020
0030
0020
0030
1000
0000
0001
0000
0001
0000
,  // measure 55
0010
0100
0010
0010
0001
1000
0001
0001
,  // measure 56
1000
0010
1000
1000
1100
0000
1001
0001
,  // measure 57
0010
0011
0000
0001
0010
0002
0000
1000
,  // measure 58
1000
0000
1003
0000
1000
0000
1000
0000
2000
0000
3001
1000
0001
0000
0010
0000
,  // measure 59
0100
1000
0002
0000
1000
1003
0100
0010
,  // measure 60
0001
1000
0020
0000
1030
0000
1000
0100
,  // measure 61
1000
0100
0020
0000
0031
0010
0100
0010
,  // measure 62
0001
0010
0200
1000
1300
0001
1000
0010
,  // measure 63
1000
0001
0020
0000
0100
0130
1000
0001
,  // measure 64
1000
0010
1000
0001
1000
0000
0011
0001
,  // measure 65
0010
0101
0000
0100
1000
0002
0000
1000
,  // measure 66
1000
0000
1003
0000
1000
0000
0000
0000
1010
0000
0000
0000
0001
0000
0001
0100
,  // measure 67
0001
0000
0100
0000
0010
0000
0100
0010
0100
0000
0001
0000
0010
0000
0001
0000
,  // measure 68
0010
0000
0100
0000
2000
0000
0010
0000
3001
0000
0000
0000
1001
0000
0001
0010
,  // measure 69
0001
0000
0010
0000
0100
0000
1000
0100
1000
0000
0001
0000
0100
0000
0010
0100
,  // measure 70
0010
0000
1000
0000
0100
0000
1000
0000
0100
0000
0000
0000
0001
0000
0100
0001
,  // measure 71
0100
0000
0001
0000
1000
0000
0001
1000
0001
0000
0010
0000
0001
0000
1000
0001
,  // measure 72
1000
0000
0001
0000
0010
0000
0100
0000
0100
0000
0100
0000
1100
0000
1000
0100
,  // measure 73
1000
0000
0001
0000
1000
0000
0001
0010
0001
0000
0010
0000
0100
0000
1000
0100
,  // measure 74
1000
0000
0010
0000
0100
0000
0010
0000
1000
0000
0001
0010
0100
0000
1000
0100
,  // measure 75
0010
0100
1000
0100
0010
0100
1000
0000
1000
0000
1000
0000
1000
0001
1000
0001
,  // measure 76
1000
0010
1000
1001
1001
0000
0000
0000
;

//---------------dance-single - ----------------
#NOTEDATA:;
#CHARTNAME:;
#STEPSTYPE:dance-single;
#DESCRIPTION:;
#CHARTSTYLE:;
#DIFFICULTY:Medium;
#METER:8;
#RADARVALUES:0.455496,0.479932,0.110711,0.140234,0.000000,432.000000,417.000000,15.000000,19.000000,0.000000,0.000000,0.000000,0.000000,0.000000,0.455496,0.479932,0.110711,0.140234,0.000000,432.000000,417.000000,15.000000,19.000000,0.000000,0.000000,0.000000,0.000000,0.000000;
#CREDIT:Musey's Chart;
#NOTES:
// measure 0
0000
0000
0000
1000
,  // measure 1
0100
0000
1000
0000
0001
1000
0001
0000
,  // measure 2
0010
0100
1000
0010
,  // measure 3
1000
0000
0001
0000
0010
0000
0100
0010
,  // measure 4
0001
0010
0100
0000
1000
0000
0001
0000
,  // measure 5
1000
0000
0010
0000
1000
0100
1000
0000
,  // measure 6
0001
0010
0100
1000
,  // measure 7
0010
0000
1000
0000
0001
1000
0000
1000
,  // measure 8
0000
1000
0001
0000
1001
0000
0001
0010
,  // measure 9
0100
0010
0001
0010
0100
0010
0001
1000
,  // measure 10
0001
1000
0010
1000
1000
0000
0001
0010
,  // measure 11
0100
1000
0001
0010
0100
1000
0001
0100
,  // measure 12
0010
1000
0001
0010
0010
0000
0001
0010
,  // measure 13
0100
1000
0010
1000
0001
0010
0100
0010
,  // measure 14
0001
1000
0010
1000
0010
1000
0100
0010
,  // measure 15
0001
0010
0100
1000
0001
0100
0010
1000
,  // measure 16
0001
1000
0001
0010
0010
0100
0010
0000
,  // measure 17
0001
1000
0010
0000
1000
0001
1000
0000
,  // measure 18
0100
0000
1000
0000
0001
0010
0001
0000
,  // measure 19
0010
0100
0010
0000
1000
0001
1000
0010
,  // measure 20
1000
0001
1000
0000
0010
1000
0001
0000
,  // measure 21
0010
0000
0100
0000
1000
0001
1000
0000
,  // measure 22
0010
1000
0100
1000
,  // measure 23
0001
0010
0001
0010
,  // measure 24
0010
0000
0100
0000
1000
0100
1000
0000
,  // measure 25
0100
1000
0100
0000
0010
0001
0010
0000
,  // measure 26
0100
0010
0110
0001
,  // measure 27
0001
0000
0010
0000
0010
0000
0100
0010
,  // measure 28
0001
1000
0100
0000
1000
0000
0010
0000
,  // measure 29
1000
0000
0001
0000
0010
0001
0010
0000
,  // measure 30
0100
1000
0001
1000
,  // measure 31
0001
0000
1000
0000
0010
1000
0000
1000
,  // measure 32
0010
1000
0010
0000
0000
0000
0001
1000
,  // measure 33
0001
0010
0002
0000
0013
0100
0010
0001
,  // measure 34
1000
0010
2000
0000
3010
0000
0001
0010
,  // measure 35
0100
0010
0002
0000
0013
0100
1000
0001
,  // measure 36
1000
0010
2000
0000
3001
0000
0010
1000
,  // measure 37
0001
1000
0020
0000
1030
0000
0001
0010
,  // measure 38
0100
0010
0001
0000
1000
0000
0001
0000
,  // measure 39
0001
1000
0000
1000
0001
1000
0000
1000
,  // measure 40
0010
1000
0010
0000
1010
0000
0002
0000
,  // measure 41
0000
2003
0000
3002
,  // measure 42
0000
0023
0000
0230
,  // measure 43
0000
2300
0000
3002
,  // measure 44
0000
2003
0000
3001
,  // measure 45
0010
0100
0010
0100
,  // measure 46
0010
0001
0010
0100
,  // measure 47
1000
0010
1000
0001
,  // measure 48
0001
1000
1000
0010
,  // measure 49
0010
1000
1000
0001
,  // measure 50
1000
0000
0001
0000
1001
0000
0001
1000
,  // measure 51
0001
0000
1000
0001
1000
0000
1000
0100
,  // measure 52
1000
0000
1000
0010
1000
0000
0001
0010
,  // measure 53
0100
0000
0010
0100
0010
0000
0001
0000
,  // measure 54
1000
0000
0001
0000
1001
0000
0010
1000
,  // measure 55
0010
0000
1000
0010
1000
0000
0001
0010
,  // measure 56
0001
0000
0010
0001
0010
0000
0110
0000
,  // measure 57
0000
1001
0000
0000
0000
1010
0000
1000
,  // measure 58
0010
1000
0010
0000
1010
0000
1000
0001
,  // measure 59
1000
0001
2000
0000
3001
0000
0010
0100
,  // measure 60
0010
0001
0020
0000
0031
0000
0010
1000
,  // measure 61
0001
0010
0200
0000
0310
0000
0001
1000
,  // measure 62
0010
1000
0001
0000
1001
0000
0100
1000
,  // measure 63
0010
1000
0200
0000
1300
0000
0001
0010
,  // measure 64
0100
0010
0002
0000
1003
0000
1001
0000
,  // measure 65
0000
1001
0000
0000
0000
1001
0000
0001
,  // measure 66
1000
0001
1000
0000
1001
0000
0001
0000
,  // measure 67
0001
0000
0010
0000
0010
0000
0100
0010
,  // measure 68
0001
0010
0100
0000
0110
0000
0001
0010
,  // measure 69
0100
1000
0001
0100
0010
1000
0001
1000
,  // measure 70
0001
1000
0100
0010
0001
0000
0001
0010
,  // measure 71
0100
0010
0001
0010
0100
0010
0001
1000
,  // measure 72
0010
1000
0001
1000
1000
0000
0010
1000
,  // measure 73
0001
1000
0100
1000
0001
1000
0010
1000
,  // measure 74
0001
0010
0100
0010
0001
1000
0010
1000
,  // measure 75
0001
0010
0100
0010
0001
1000
0010
0100
,  // measure 76
0001
1000
0200
0010
0310
0000
0000
0000
;

//---------------dance-single - ----------------
#NOTEDATA:;
#CHARTNAME:;
#STEPSTYPE:dance-single;
#DESCRIPTION:;
#CHARTSTYLE:;
#DIFFICULTY:Easy;
#METER:4;
#RADARVALUES:0.270978,0.282313,0.014761,0.036904,0.000000,257.000000,255.000000,2.000000,5.000000,0.000000,0.000000,0.000000,0.000000,0.000000,0.270978,0.282313,0.014761,0.036904,0.000000,257.000000,255.000000,2.000000,5.000000,0.000000,0.000000,0.000000,0.000000,0.000000;
#CREDIT:Musey's Chart;
#NOTES:
// measure 0
0000
0000
0000
1000
,  // measure 1
0000
0001
0000
1000
,  // measure 2
0000
0100
0000
1000
,  // measure 3
0000
0001
0000
0010
,  // measure 4
0100
0010
0000
0001
,  // measure 5
0000
1000
0000
0010
,  // measure 6
0000
1000
0000
0001
,  // measure 7
0000
1000
0000
0100
,  // measure 8
0000
1000
0000
0010
,  // measure 9
1000
0010
1000
0001
,  // measure 10
0010
0002
0013
0100
,  // measure 11
0010
0001
1000
0010
,  // measure 12
1000
0002
0013
0100
,  // measure 13
0010
0001
1000
0010
,  // measure 14
1000
0001
0010
0100
,  // measure 15
0010
0100
0010
0001
,  // measure 16
1000
0020
1030
0001
,  // measure 17
0010
0100
1000
0001
,  // measure 18
0001
1000
1000
0010
,  // measure 19
1000
0001
0010
0100
,  // measure 20
1000
0001
1000
0000
0010
0000
1000
0000
,  // measure 21
0001
0010
0100
1000
,  // measure 22
1000
0001
0001
1000
,  // measure 23
0010
1000
0001
0010
,  // measure 24
0100
1000
0001
1000
,  // measure 25
1000
0010
0010
1000
,  // measure 26
1000
0001
0001
0010
,  // measure 27
0100
0000
0010
0000
0001
0000
1000
0001
,  // measure 28
1000
0001
0010
0100
,  // measure 29
1000
0001
1000
0010
,  // measure 30
0010
1000
1000
0001
,  // measure 31
0001
0010
0010
0100
,  // measure 32
1000
0001
0000
1001
,  // measure 33
0001
0010
0100
1000
,  // measure 34
1000
0001
0001
1000
,  // measure 35
0010
1000
0100
0010
,  // measure 36
0001
0010
0010
0001
,  // measure 37
1000
0010
0010
1000
,  // measure 38
0001
0010
0010
0100
,  // measure 39
0000
1000
0000
0000
0000
0001
0000
0000
,  // measure 40
0000
0001
0000
1000
,  // measure 41
0000
1000
0000
0100
,  // measure 42
0000
0100
0000
1000
,  // measure 43
0000
1000
0000
0001
,  // measure 44
0000
0001
0000
1000
,  // measure 45
0000
1000
0000
0010
,  // measure 46
0000
0010
0000
1000
,  // measure 47
0000
1000
0000
0001
,  // measure 48
0000
0001
0000
0010
,  // measure 49
0000
0010
0000
0001
,  // measure 50
0000
1000
0000
0100
,  // measure 51
1000
0100
0000
0100
,  // measure 52
1000
0100
0000
0001
,  // measure 53
0010
0100
0000
0001
,  // measure 54
0010
0100
1000
0001
,  // measure 55
0001
1000
0000
0010
,  // measure 56
1000
0010
0000
1000
,  // measure 57
0000
0001
0000
1000
,  // measure 58
0001
1000
1001
0001
,  // measure 59
0010
0100
0010
0001
,  // measure 60
0001
2000
3010
0001
,  // measure 61
0010
0100
0010
0001
,  // measure 62
1000
0010
0010
1000
,  // measure 63
0001
0010
0100
0010
,  // measure 64
0001
2000
3001
0010
,  // measure 65
0000
1000
0000
0000
0000
0010
0000
0000
,  // measure 66
0000
1000
0000
0010
,  // measure 67
1000
0010
1000
0001
,  // measure 68
0001
1000
0000
0010
,  // measure 69
1000
0100
1000
0010
,  // measure 70
1000
0001
0001
1000
,  // measure 71
0100
0010
0001
0010
,  // measure 72
0010
0100
0100
0001
,  // measure 73
0010
0100
1000
0001
,  // measure 74
0100
0010
1000
0001
,  // measure 75
0001
0010
0010
0001
,  // measure 76
0010
0000
0001
0010
0001
0000
0000
0000
;

//---------------dance-single - ----------------
#NOTEDATA:;
#CHARTNAME:;
#STEPSTYPE:dance-single;
#DESCRIPTION:;
#CHARTSTYLE:;
#DIFFICULTY:Beginner;
#METER:2;
#RADARVALUES:0.187681,0.225850,0.000000,0.000000,0.000000,178.000000,178.000000,0.000000,0.000000,0.000000,0.000000,0.000000,0.000000,0.000000,0.187681,0.225850,0.000000,0.000000,0.000000,178.000000,178.000000,0.000000,0.000000,0.000000,0.000000,0.000000,0.000000,0.000000;
#CREDIT:Musey's Chart;
#NOTES:
// measure 0
0000
0000
0000
1000
,  // measure 1
0000
0000
0000
1000
,  // measure 2
0000
0000
0000
0001
,  // measure 3
0000
0000
0000
0010
,  // measure 4
0000
0000
0000
1000
,  // measure 5
0000
0000
0000
0001
,  // measure 6
0000
0000
0000
0010
,  // measure 7
0000
0000
0000
0100
,  // measure 8
0000
0000
0000
1000
,  // measure 9
0000
0001
0000
1000
,  // measure 10
0001
1000
0000
0100
,  // measure 11
0000
1000
0000
0100
,  // measure 12
1000
0100
0000
0001
,  // measure 13
0000
0010
0000
0100
,  // measure 14
0010
0001
0000
1000
,  // measure 15
0001
1000
0000
0010
,  // measure 16
1000
0001
0000
0001
,  // measure 17
0000
0001
0000
1000
,  // measure 18
0000
1000
0000
0010
,  // measure 19
0000
0010
0000
1000
,  // measure 20
0010
1000
0000
0001
,  // measure 21
0000
0010
0000
0100
,  // measure 22
0000
1000
0000
0001
,  // measure 23
0000
1000
0000
0010
,  // measure 24
0000
1000
0000
0001
,  // measure 25
0000
0010
0000
0001
,  // measure 26
0010
0100
0000
1000
,  // measure 27
0000
0001
0000
1000
,  // measure 28
0010
1000
0000
0001
,  // measure 29
0000
0010
0000
0100
,  // measure 30
0010
0001
0000
1000
,  // measure 31
0000
0010
0000
1000
,  // measure 32
0001
1000
0000
0010
,  // measure 33
1000
0001
0000
0001
,  // measure 34
1000
0001
0000
0100
,  // measure 35
0010
0001
0000
0001
,  // measure 36
0010
0100
0000
0010
,  // measure 37
1000
0001
0000
0001
,  // measure 38
1000
0010
0000
1000
,  // measure 39
0000
0001
0000
1000
,  // measure 40
0000
0001
0000
1000
,  // measure 41
0000
0000
0000
1000
,  // measure 42
0000
0000
0000
0010
,  // measure 43
0000
0000
0000
0010
,  // measure 44
0000
0000
0000
1000
,  // measure 45
0000
1000
0000
0001
,  // measure 46
0000
0001
0000
0010
,  // measure 47
0000
0010
0000
0100
,  // measure 48
0000
0100
0000
1000
,  // measure 49
0000
0001
0000
1000
,  // measure 50
0000
0001
0000
1000
,  // measure 51
0010
1000
0000
0001
,  // measure 52
1000
0001
0000
0010
,  // measure 53
0001
0010
0000
0100
,  // measure 54
1000
0001
0000
0010
,  // measure 55
1000
0010
0000
1000
,  // measure 56
0001
1000
0000
0010
,  // measure 57
0000
0000
0000
0000
,  // measure 58
0000
0000
0000
1000
,  // measure 59
0010
1000
0000
0001
,  // measure 60
1000
0001
0000
0100
,  // measure 61
0010
0001
0000
0100
,  // measure 62
0010
0001
0000
0010
,  // measure 63
1000
0001
0000
0010
,  // measure 64
1000
0001
0000
1000
,  // measure 65
0000
1000
0000
1000
,  // measure 66
0000
1000
0000
0010
,  // measure 67
1000
0010
1000
0010
,  // measure 68
1000
0010
0000
0001
,  // measure 69
0010
0100
0000
0001
,  // measure 70
1000
0010
0000
0001
,  // measure 71
1000
0010
0000
0001
,  // measure 72
0010
0100
0000
0001
,  // measure 73
1000
0010
0000
0001
,  // measure 74
1000
0010
0000
1000
,  // measure 75
0100
0010
0001
0010
,  // measure 76
0100
1000
1000
0000
;
