#TITLE:-Sweet Dreams (11t dnb mix);
#SUBTITLE:;
#ARTIST:Kana Nishino;
#TITLETRANSLIT:;
#SUBTITLETRANSLIT:;
#ARTISTTRANSLIT:;
#GENRE:;
#CREDIT:;
#BANNER:AV.avi;
#BACKGROUND:sweet dreams-bg.png;
#LYRICSPATH:;
#CDTITLE:;
#MUSIC:sweet dreams.MP3;
#OFFSET:-0.263000;
#SAMPLESTART:100.836998;
#SAMPLELENGTH:25.000000;
#SELECTABLE:YES;
#DISPLAYBPM:*;
#BPMS:0.000000=175.000000
;
#STOPS:
;
#BGCHANGES:0.000=MV.avi=0.800=1=1=1=StretchRewind==CrossFade==,
7.000=MV.avi=1.000=0=0=1=====,
444.000=MV.avi=0.000=0=0=1=====,
99999=-nosongbg-=1.000=0=0=0 // don't automatically add -songbackground-
;
#KEYSOUNDS:;
#ATTACKS:;

//---------------dance-single - ----------------
#NOTES:
     dance-single:
     :
     Easy:
     5:
     0.306640,0.459450,0.181575,0.071333,0.019454,331.000000,303.000000,28.000000,11.000000,0.000000,0.000000,0.306640,0.459450,0.181575,0.071333,0.019454,331.000000,303.000000,28.000000,11.000000,0.000000,0.000000:
// measure 0
0000
0000
0000
0000
,  // measure 1
0000
0000
0000
0000
,  // measure 2
0000
0000
0000
0000
,  // measure 3
0000
0000
0000
0000
,  // measure 4
0000
0000
0000
0000
,  // measure 5
0000
0000
0000
0000
,  // measure 6
0000
0000
0000
0000
,  // measure 7
0000
0000
0000
0000
,  // measure 8
0010
0000
1000
0001
1000
0000
0010
0000
,  // measure 9
0000
0000
0100
0001
0100
0000
0010
0000
,  // measure 10
0000
0000
0001
1000
0001
0000
1000
0000
,  // measure 11
0000
0000
0100
0010
0100
0000
0010
0000
,  // measure 12
0000
0001
1000
0001
,  // measure 13
1000
0001
1000
0001
,  // measure 14
1000
1001
0000
1001
,  // measure 15
0000
1001
0110
0110
,  // measure 16
0110
1000
0001
0010
,  // measure 17
0001
0010
0100
1000
,  // measure 18
0000
0001
0010
0100
,  // measure 19
0001
1000
1000
0010
,  // measure 20
0100
0100
0001
1000
,  // measure 21
0010
1000
0010
0100
,  // measure 22
0001
0001
1000
0000
,  // measure 23
0000
0000
0000
0000
,  // measure 24
0000
0010
1000
0010
,  // measure 25
0100
0001
1000
0010
,  // measure 26
1000
0001
1000
0001
,  // measure 27
1000
1000
0100
0010
,  // measure 28
0001
1000
1000
0100
,  // measure 29
0100
0010
0010
0001
,  // measure 30
0100
0000
0101
0000
0000
1001
0000
0000
,  // measure 31
0000
1010
0000
0000
0000
0000
0000
0000
,  // measure 32
0000
0000
0001
0000
0000
0002
0000
0000
,  // measure 33
0003
0000
1000
0000
0000
2000
0000
0000
,  // measure 34
3000
0000
0010
0000
0000
0020
0000
0000
,  // measure 35
0030
0100
0001
0100
,  // measure 36
0001
0000
0000
0000
,  // measure 37
0000
0000
0000
0000
,  // measure 38
1001
0001
1000
0001
,  // measure 39
1000
0010
0100
0010
,  // measure 40
0100
0000
0000
0000
0001
0000
0000
0000
0001
0000
0000
0000
1000
0000
0000
1000
,  // measure 41
0000
1000
0000
0000
0000
0000
0000
0000
,  // measure 42
0000
0000
0000
0000
0010
0000
0000
0000
0010
0000
0000
0000
0100
0000
0000
0100
,  // measure 43
0000
0100
0000
0000
1001
0000
0000
0000
,  // measure 44
1001
0000
0000
0000
0001
0000
0000
0000
0001
0000
0000
0000
1000
0000
0000
1000
,  // measure 45
0000
1000
0000
0000
0010
0000
1000
0000
,  // measure 46
0001
0000
1001
0000
0000
1010
0000
0000
,  // measure 47
0000
0101
0000
0000
1000
0000
0001
0000
,  // measure 48
1000
0010
0010
0100
,  // measure 49
0100
0000
0000
0000
,  // measure 50
0000
0010
0010
0000
,  // measure 51
0000
0100
0100
0000
,  // measure 52
0000
0001
0001
0000
,  // measure 53
0000
1000
1000
0000
,  // measure 54
0000
0001
0001
0000
,  // measure 55
0000
0100
0100
0000
,  // measure 56
0000
0001
0001
0000
,  // measure 57
0000
0000
0000
0000
,  // measure 58
0020
1030
0001
1000
,  // measure 59
0001
0010
0100
0010
,  // measure 60
0001
1000
0001
1000
,  // measure 61
0100
0010
0100
1000
,  // measure 62
0010
0100
0002
1003
,  // measure 63
0002
0103
0002
1003
,  // measure 64
0002
1003
1000
0000
,  // measure 65
0000
0000
0000
0000
,  // measure 66
0000
1001
0001
1000
,  // measure 67
0010
1000
0001
0010
,  // measure 68
0001
1000
0100
1000
,  // measure 69
0001
0001
1000
0100
,  // measure 70
0010
0001
0001
0010
,  // measure 71
0010
0100
0100
1000
,  // measure 72
1000
0000
1001
0000
0000
0101
0000
0000
,  // measure 73
0000
1010
0000
0000
0000
0000
0000
0000
,  // measure 74
0000
0110
0000
0110
,  // measure 75
0000
0000
1000
0000
0000
2000
0000
0000
,  // measure 76
3000
0000
0001
0000
0000
0002
0000
0000
,  // measure 77
0003
0100
0010
0100
,  // measure 78
0010
0100
0000
0000
,  // measure 79
1001
0000
0000
0000
,  // measure 80
0110
0010
1000
0010
,  // measure 81
1000
0100
0010
0001
,  // measure 82
0100
0000
0000
0000
0001
0000
0000
0000
0001
0000
0000
0000
1000
0000
0000
1000
,  // measure 83
0000
1000
0000
0000
0000
0000
0000
0000
,  // measure 84
0000
0000
0000
0000
0010
0000
0000
0000
0010
0000
0000
0000
0100
0000
0000
0100
,  // measure 85
0000
0100
0000
0000
1001
0000
0000
0000
,  // measure 86
1001
0000
0000
0000
0001
0000
0000
0000
0001
0000
0000
0000
1000
0000
0000
1000
,  // measure 87
0000
1000
0000
0000
0001
0000
1000
0000
,  // measure 88
0010
0000
0110
0000
0000
1001
0000
0000
,  // measure 89
0000
0101
0000
0000
1000
0000
0001
0000
,  // measure 90
1000
0001
0001
0100
,  // measure 91
0100
0000
0000
0000
,  // measure 92
0000
0100
0100
0100
,  // measure 93
0000
0010
0000
0010
0000
0010
0000
0000
,  // measure 94
0000
1000
1000
1000
,  // measure 95
0000
0001
0000
0001
0000
0001
0000
0000
,  // measure 96
0000
0100
0100
0100
,  // measure 97
0000
0001
0000
0001
0000
0001
0000
0000
,  // measure 98
0000
1000
1000
1000
,  // measure 99
0000
0100
0010
0100
,  // measure 100
0010
1000
1000
1000
,  // measure 101
0000
0100
0000
0100
0000
0100
0000
0000
,  // measure 102
0000
1000
1000
1000
,  // measure 103
0000
0001
0000
0001
0000
0001
0000
0000
,  // measure 104
0000
0100
0100
0100
,  // measure 105
0000
0001
0000
0001
0000
0001
0000
0000
,  // measure 106
0000
1000
1000
1000
,  // measure 107
0010
1000
0100
0010
,  // measure 108
0001
2000
0000
0000
,  // measure 109
3000
0000
0000
0000
;

//---------------dance-single - ----------------
#NOTES:
     dance-single:
     :
     Medium:
     11:
     0.513228,0.530135,0.311272,0.447453,0.058363,554.000000,506.000000,48.000000,69.000000,0.000000,0.000000,0.513228,0.530135,0.311272,0.447453,0.058363,554.000000,506.000000,48.000000,69.000000,0.000000,0.000000:
// measure 0
0000
0000
1001
0000
1000
0000
0000
0010
,  // measure 1
0100
0000
0100
0000
0110
0000
0000
1000
,  // measure 2
0001
0100
0010
0000
0110
0000
0000
1000
,  // measure 3
0001
1000
0000
0001
1000
0001
0000
0001
,  // measure 4
0010
0100
1000
0000
1001
0000
0000
0100
,  // measure 5
0010
0000
0010
0000
0110
0000
0000
1000
,  // measure 6
0010
0100
0001
0000
1001
0000
0000
0010
,  // measure 7
0100
0010
0000
0100
0010
0100
0000
0001
,  // measure 8
1000
0001
0010
0100
1000
0000
1000
0100
,  // measure 9
0010
0100
0000
0100
0010
0001
0000
1000
,  // measure 10
0000
1000
0100
0010
0001
0000
0001
1000
,  // measure 11
0100
0010
0000
0010
0001
0100
0000
0001
,  // measure 12
0000
1000
1010
0000
0010
0000
0010
0000
,  // measure 13
0010
1010
1000
1000
,  // measure 14
1000
1001
0010
1001
,  // measure 15
0100
0000
1001
0000
2002
3003
2002
3003
,  // measure 16
2002
3003
0100
0010
0100
0002
0003
1000
,  // measure 17
0100
2000
3000
0010
0100
0002
0003
1000
,  // measure 18
0000
1000
0001
0100
0001
2000
3000
0010
,  // measure 19
0100
0020
0030
0100
0010
0200
0300
0001
,  // measure 20
0000
1000
0000
1000
0100
0010
0001
1000
,  // measure 21
0000
0001
0000
0001
0010
0100
1000
0000
,  // measure 22
0001
1000
0001
0000
0001
0000
0100
0010
,  // measure 23
0100
0010
0000
0000
0000
0000
0000
0000
,  // measure 24
0000
0000
0001
0010
0100
1000
0000
1000
,  // measure 25
0100
0010
0100
1000
0001
1000
0000
1000
,  // measure 26
0010
0100
0001
1000
0010
2000
3000
0010
,  // measure 27
0100
0020
0030
0100
0010
0200
0300
0001
,  // measure 28
1000
0001
0100
0000
0100
0000
0010
0000
,  // measure 29
0010
1000
1000
0001
,  // measure 30
0001
0000
1001
0000
0000
1010
0000
0000
,  // measure 31
0000
0101
0000
0001
1000
0001
1000
0001
,  // measure 32
1000
0000
0020
0030
0000
0020
0000
0000
,  // measure 33
0030
0000
2000
3000
0000
2000
0000
0000
,  // measure 34
3000
0000
0002
0003
0000
0002
0000
0000
,  // measure 35
0003
1010
0101
1010
,  // measure 36
0101
0000
0000
0000
0001
0000
0000
0001
0000
0000
0001
0000
1000
0000
0000
0000
,  // measure 37
1001
0000
0000
0000
0100
0000
0000
0100
0000
0000
0100
0000
0010
0000
0000
0000
,  // measure 38
1001
0100
0100
0010
,  // measure 39
0010
0000
1000
0001
1000
0001
1000
0010
,  // measure 40
0100
0000
0001
0000
1000
0000
0000
0000
0010
0000
0000
0000
0100
0000
0000
0100
,  // measure 41
0000
0000
0100
0000
0010
0000
0000
0000
0020
0000
0000
0000
1030
0000
0000
1000
,  // measure 42
0000
0000
1000
0000
0001
0000
0000
0000
0100
0000
0000
0000
0010
0000
0000
0010
,  // measure 43
0000
0010
0100
0000
2002
3003
0000
0000
,  // measure 44
2002
0000
3003
0000
0010
0000
0000
0000
0100
0000
0000
0000
0001
0000
0000
0001
,  // measure 45
0000
0001
1000
0000
1000
0000
0010
0100
,  // measure 46
0010
0000
1001
0000
0000
1010
0000
0000
,  // measure 47
0000
0101
0000
1000
0001
1000
0000
0010
,  // measure 48
0100
0010
1000
0000
1000
0000
0001
0000
,  // measure 49
0001
0000
0000
0000
,  // measure 50
0000
0000
0000
0000
0001
0000
0000
0000
0001
0000
0000
0000
0100
0000
0000
0100
,  // measure 51
0000
0000
0100
0000
0010
0000
0000
0000
0010
0000
0000
0000
1000
0000
0000
1000
,  // measure 52
0000
0000
1000
0000
0001
0000
0000
0000
0001
0000
0000
0000
0010
0000
0000
0010
,  // measure 53
0000
0000
0010
0000
0100
0000
0000
0000
0100
0000
0000
0000
1000
0000
0000
1000
,  // measure 54
0000
0000
1000
0000
0010
0000
0000
0000
0010
0000
0000
0000
0100
0000
0000
0100
,  // measure 55
0000
0000
0100
0000
0001
0000
0000
0000
0001
0000
0000
0000
1000
0000
0000
1000
,  // measure 56
0000
1000
0010
0000
0010
0000
0100
0001
,  // measure 57
0100
0001
0100
0000
0000
0000
0000
0000
,  // measure 58
0000
0000
0010
0100
0010
2000
3000
0001
,  // measure 59
0100
0002
0003
0100
0010
2000
3000
0001
,  // measure 60
0000
0001
1000
0010
1000
0002
0003
0100
,  // measure 61
0010
0200
0300
0010
0100
0020
0030
1000
,  // measure 62
0001
1000
0001
0000
2002
3003
0000
0000
,  // measure 63
0220
0330
0000
0000
2002
3003
0000
0000
,  // measure 64
0220
0330
0000
0000
0000
0000
1000
0001
,  // measure 65
1000
0001
1000
0000
0000
0000
0000
0000
,  // measure 66
0000
0000
0001
0010
0100
2000
3000
1000
,  // measure 67
0100
0010
0100
1000
0001
2000
3000
0001
,  // measure 68
0000
0001
0010
0001
1000
0001
1000
0010
,  // measure 69
0100
0020
0030
0100
0010
0200
0300
0001
,  // measure 70
1000
0001
1000
0000
1000
0000
0100
0000
,  // measure 71
0100
0010
0010
0001
,  // measure 72
0001
0000
1001
0000
0000
0101
0000
0000
,  // measure 73
0000
1010
0000
1000
0001
0100
0001
0000
,  // measure 74
0001
0000
0220
0330
0000
0000
0220
0330
,  // measure 75
0000
0000
0002
0003
0000
0002
0000
0000
,  // measure 76
0003
0000
2000
3000
0000
2000
0000
0000
,  // measure 77
3000
0101
1010
0101
,  // measure 78
1010
0000
0000
0000
1000
0000
0000
1000
0000
0000
1000
0000
0001
0000
0000
0000
,  // measure 79
2002
0000
3003
0000
0100
0000
0000
0100
0000
0000
0100
0000
0010
0000
0000
0000
,  // measure 80
2002
3003
0010
0000
0010
0000
0100
0000
,  // measure 81
0100
0000
0001
1000
0001
1000
0001
0100
,  // measure 82
0010
0000
1000
0000
0001
0000
0000
0000
0100
0000
0000
0000
0010
0000
0000
0010
,  // measure 83
0000
0000
0010
0000
0100
0000
0000
0000
0200
0000
0000
0000
0301
0000
0000
0001
,  // measure 84
0000
0000
0001
0000
1000
0000
0000
0000
0010
0000
0000
0000
0100
0000
0000
0100
,  // measure 85
0000
0100
0010
0000
2002
3003
0000
0000
,  // measure 86
2002
0000
3003
0000
0100
0000
0000
0000
0010
0000
0000
0000
1000
0000
0000
1000
,  // measure 87
0000
1000
0001
0000
0001
0000
0100
0010
,  // measure 88
0100
0000
1001
0000
0000
0101
0000
0000
,  // measure 89
0000
1010
0000
0001
1000
0001
0000
0100
,  // measure 90
0010
0100
0001
0000
0001
0000
1000
0000
,  // measure 91
1000
0000
0000
0000
1000
0001
1000
0001
,  // measure 92
1000
0001
1000
0000
0010
0000
0020
0000
,  // measure 93
0000
1030
0000
1000
0000
1000
0000
1000
,  // measure 94
0010
0100
0100
0200
,  // measure 95
0000
0301
0000
0001
0000
0001
0000
0001
,  // measure 96
1000
0010
0010
0020
,  // measure 97
0000
0130
0000
0100
0000
0100
0000
0100
,  // measure 98
0001
0010
0010
0020
,  // measure 99
0000
0031
1000
0001
1000
0001
0100
0010
,  // measure 100
0100
0010
0100
0000
0100
0000
0200
0000
,  // measure 101
0000
0310
0000
0010
0000
0010
0000
0010
,  // measure 102
1000
1000
1000
1000
,  // measure 103
0000
0010
0000
0010
0000
0010
0000
0010
,  // measure 104
0100
0100
0100
0200
,  // measure 105
0000
0310
0000
0010
0000
0010
0000
0010
,  // measure 106
1000
0001
0001
0002
,  // measure 107
0000
1003
0100
1000
0100
0010
0001
0010
,  // measure 108
0001
1000
0002
0000
0000
0000
0000
0000
,  // measure 109
0003
0000
0000
0000
;

//---------------dance-single - ----------------
#NOTES:
     dance-single:
     :
     Hard:
     16:
     0.680907,0.889638,0.518787,0.862483,0.233454,735.000000,655.000000,80.000000,133.000000,0.000000,0.000000,0.680907,0.889638,0.518787,0.862483,0.233454,735.000000,655.000000,80.000000,133.000000,0.000000,0.000000:
// measure 0
0000
0000
0000
0000
,  // measure 1
0000
0000
0000
0000
,  // measure 2
0000
0000
0000
0000
,  // measure 3
0000
0000
0000
0000
,  // measure 4
0000
0000
0000
0000
,  // measure 5
0000
0000
0000
0000
,  // measure 6
0000
0000
0000
0000
,  // measure 7
0000
0000
0000
0000
,  // measure 8
0000
0000
0001
1000
0100
0010
0001
1000
,  // measure 9
0010
0100
0001
0100
0010
1000
0000
0010
,  // measure 10
0000
0010
0100
0001
1000
0010
0100
0001
,  // measure 11
1000
0001
1000
0100
0010
0001
0000
1000
,  // measure 12
0000
0010
0110
0000
0110
0000
1001
0000
,  // measure 13
1001
1010
1010
0101
,  // measure 14
0101
0000
0100
0001
0100
0001
1000
0010
,  // measure 15
1000
0000
0010
0000
0100
0010
0100
0010
0100
0010
0100
0010
0100
0010
0100
0010
,  // measure 16
0100
0000
0001
1000
0001
0000
0100
0000
0001
0000
1000
0010
0100
0000
0001
0000
,  // measure 17
1000
0000
0001
0000
0100
0000
0010
0000
1000
0000
0001
0010
0001
0000
1000
0000
,  // measure 18
0100
0000
0010
0000
0100
0000
1000
0000
0001
0000
0100
0010
1000
0000
0001
0000
,  // measure 19
1000
0000
0010
0000
0100
0000
0001
0000
0100
0000
0010
1000
0010
0000
1000
0000
,  // measure 20
0001
0000
0010
0000
0001
0000
0010
0000
0100
0000
1000
0001
1000
0000
0100
0000
,  // measure 21
0010
0000
0100
0000
1000
0000
0001
0000
1000
0000
0001
0010
0001
0000
1000
0000
,  // measure 22
0010
0100
0101
0000
0101
0000
0001
1000
,  // measure 23
0001
1000
0000
0000
2000
0000
3002
0000
,  // measure 24
0203
0000
0000
0000
0310
0000
0100
0000
0010
0000
1000
0001
0100
0000
0010
0000
,  // measure 25
1000
0000
0001
0000
0100
0000
0010
0000
0100
0000
0001
1000
0010
0000
0100
0000
,  // measure 26
0010
0000
1000
0000
0001
0000
1000
0000
0001
0000
0100
0010
1000
0000
0001
0000
,  // measure 27
0010
0000
0100
0000
0010
0000
0001
0000
1000
0000
0001
0100
0001
0000
1000
0000
,  // measure 28
0010
0100
0101
0002
1003
0020
0130
0002
,  // measure 29
1003
0000
0020
0000
0130
0000
0002
0000
0013
0000
0200
0000
1300
0000
0001
0010
,  // measure 30
0001
1000
2002
3003
0010
0220
0330
0001
,  // measure 31
1000
2002
3003
0001
0010
0001
0010
0100
,  // measure 32
1100
0000
0000
0000
0200
0000
0000
2300
0000
0000
3002
0000
2003
0000
0000
3020
,  // measure 33
0000
0000
0230
0000
0320
0000
0000
0230
0000
0000
0302
0000
2003
0000
3200
0000
,  // measure 34
0320
0000
0032
0000
2003
0000
0000
3020
0000
0000
2030
0000
3200
0000
0000
0320
,  // measure 35
0000
0000
0032
0000
2003
0000
0000
3020
0000
0000
0230
0000
0302
0000
0000
0000
,  // measure 36
2003
0000
3000
0000
0010
0000
0000
0100
0000
0000
0001
0000
0100
0000
0000
0000
,  // measure 37
0202
0000
0303
0000
0001
0000
0000
1000
0000
0000
1000
0000
0001
0000
0000
0000
,  // measure 38
2002
3003
1000
0010
1000
0010
1000
0001
,  // measure 39
1000
0000
0001
0000
0100
0000
0001
0000
1000
0000
0100
0000
0010
0000
0001
1000
,  // measure 40
0001
0000
1000
0000
1001
0000
0000
0000
0101
0000
0000
0000
1001
0000
0000
1010
,  // measure 41
0000
0000
0110
0000
0100
0000
0000
0000
0200
0000
0000
0000
0301
0000
0000
1000
,  // measure 42
0000
0000
0001
0000
1001
0000
0000
0000
1010
0000
0000
0000
0110
0000
0000
0101
,  // measure 43
0000
1010
1000
0000
2002
3003
0010
0000
,  // measure 44
2002
0000
3003
0000
0101
0000
0000
0000
1001
0000
0000
0000
1010
0000
0000
0110
,  // measure 45
0000
0000
0101
0000
0000
0000
1000
0000
0010
0000
0100
0001
0100
0000
0010
1000
,  // measure 46
0010
1000
2002
3003
0010
0220
0330
0000
,  // measure 47
0000
0000
2002
0000
3003
0000
0100
0000
0010
0000
0100
0000
0001
1000
0001
1000
,  // measure 48
0001
0100
0020
0000
0230
0000
0320
0000
,  // measure 49
1030
0000
0000
0000
,  // measure 50
0000
0000
0000
0000
0110
0000
0000
0000
0110
0000
0000
0000
0100
0000
0000
0001
,  // measure 51
0000
0000
1000
0000
1010
0000
0000
0000
1010
0000
0000
0000
0010
0000
0000
1000
,  // measure 52
0000
0000
0001
0000
0011
0000
0000
0000
0011
0000
0000
0000
0010
0000
0000
0001
,  // measure 53
0000
0000
1000
0000
1010
0000
0000
0000
1010
0000
0000
0000
0010
0000
0000
1000
,  // measure 54
0000
0000
0010
0000
0110
0000
0000
0000
0110
0000
0000
0000
0100
0000
0000
0001
,  // measure 55
0000
0000
1000
0000
1001
0000
0000
0000
1001
0000
0000
0000
0001
0000
0000
0100
,  // measure 56
0000
0001
0101
0000
0101
0000
1000
0001
,  // measure 57
1000
0001
0100
0000
0010
0000
0100
0000
,  // measure 58
0002
0000
0000
0000
1003
0000
0010
0000
0100
0000
0001
1000
0010
0000
0100
0000
,  // measure 59
0001
0000
0100
0000
0010
0000
1000
0000
0001
0000
0100
0001
0100
0000
0010
0000
,  // measure 60
0100
0000
0001
0000
1000
0000
0100
0000
1000
0000
0001
1000
0001
0000
0100
0000
,  // measure 61
0010
0000
2000
0000
3001
0000
2000
0000
3010
0000
2000
0000
3001
0000
0100
0010
,  // measure 62
0100
0001
1000
0000
2200
3300
0001
0000
,  // measure 63
0202
0303
1000
0000
2020
3030
0001
0000
,  // measure 64
2002
3003
1000
0100
0010
0100
1000
0001
,  // measure 65
1000
0001
1000
0000
2000
0000
3200
0000
,  // measure 66
0320
0000
0000
0000
0031
0000
1000
0000
0001
0000
0100
0001
1000
0000
0100
0000
,  // measure 67
0010
0000
0100
0000
1000
0000
0001
0000
1000
0000
0010
0100
0001
0000
0100
0000
,  // measure 68
0010
0000
1000
0000
0001
0000
0010
0000
0001
0000
1000
0100
1000
0000
0100
0000
,  // measure 69
0010
0000
0001
0000
0010
0000
0100
0000
0010
0000
0001
1000
0001
0000
0100
0000
,  // measure 70
0010
1000
0001
0200
0310
0200
0310
2000
,  // measure 71
3001
0000
2000
0000
3001
0000
0200
0000
0310
0000
0200
0000
0310
0000
1000
0001
,  // measure 72
1000
0010
2020
3030
0100
0220
0330
0010
,  // measure 73
0100
0202
0303
0020
0230
0320
2030
3000
,  // measure 74
0200
0000
0300
0000
2000
0000
0000
3200
0000
0000
0320
0000
0032
0000
0000
0023
,  // measure 75
0000
0000
0230
0000
2300
0000
0000
3020
0000
0030
0200
0000
0302
0000
0023
0000
,  // measure 76
0230
0000
2300
0000
3002
0000
0000
0203
0000
0000
0302
0000
0023
0000
0000
0230
,  // measure 77
0000
0000
2300
0000
3002
0000
0000
0203
0000
0000
0320
0000
2030
0000
0000
0000
,  // measure 78
3002
0000
0003
0000
0100
0000
0000
0010
0000
0000
1000
0000
0010
0000
0000
0000
,  // measure 79
0220
0000
0330
0000
0100
0000
0000
0010
0000
0000
0100
0000
0001
0000
0000
0000
,  // measure 80
2002
3003
1000
0010
1000
0010
0100
0001
,  // measure 81
0100
0000
0001
0000
1000
0000
0001
0000
0010
0000
0100
0000
0010
0000
0001
1000
,  // measure 82
0001
0000
1000
0000
1001
0000
0000
0000
0101
0000
0000
0000
1010
0000
0000
0110
,  // measure 83
0000
0000
0101
0000
0001
0000
0000
0000
0002
0000
0000
0000
1003
0000
0000
0010
,  // measure 84
0000
0000
0100
0000
0110
0000
0000
0000
1010
0000
0000
0000
1001
0000
0000
0101
,  // measure 85
0000
0110
0010
0000
2002
3003
0100
0000
,  // measure 86
2002
0000
3003
0000
0110
0000
0000
0000
1010
0000
0000
0000
0110
0000
0000
0101
,  // measure 87
0000
0000
1001
0000
0000
0000
1000
0000
0010
0000
0100
0001
0100
0000
0010
1000
,  // measure 88
0010
1000
2002
3003
0010
0220
0330
0000
,  // measure 89
0000
0000
2002
0000
3003
0000
0010
0000
0100
0000
0010
0000
1000
0001
1000
0001
,  // measure 90
1000
0010
0200
0000
0302
0000
0203
0000
,  // measure 91
0310
0000
0000
0000
0000
0000
0000
0000
0010
0000
0100
0000
0010
0000
1000
0001
,  // measure 92
1000
0001
0020
0000
0031
0000
1000
0100
,  // measure 93
0010
0001
0000
0001
0000
0001
0000
1000
,  // measure 94
0001
1000
0010
0000
0010
0000
0010
1000
,  // measure 95
0001
1000
0000
1000
0000
1000
0000
0010
,  // measure 96
0100
0010
1000
0000
1000
0000
1000
0010
,  // measure 97
0100
0010
0000
0010
0000
0010
0000
0010
,  // measure 98
1000
0001
1000
0000
1000
0000
1000
0100
,  // measure 99
0010
0001
1000
0001
1000
0001
1000
0010
,  // measure 100
0100
0001
0100
0001
1000
0000
0000
0000
1000
0000
0000
0000
1000
0000
0010
0000
,  // measure 101
1000
0010
0000
0010
0000
0010
0000
0100
,  // measure 102
0010
0100
0001
0000
0001
0000
0001
1000
,  // measure 103
0010
0100
0000
0100
0000
0100
0000
0100
,  // measure 104
0001
1000
0010
0000
0010
0000
0010
0100
,  // measure 105
0001
1000
0000
1000
0000
1000
0000
1000
,  // measure 106
0010
0100
0001
0000
0001
0000
0001
1000
,  // measure 107
0010
0100
0010
0100
0010
0100
0010
0100
,  // measure 108
0001
1000
0001
1000
0020
0000
0000
0000
0000
0000
0000
0000
0000
0000
0000
0000
,  // measure 109
0000
0000
0000
0030
;
