#TITLE:Summer Comes;
#SUBTITLE:;
#ARTIST:OH MY GIRL;
#TITLETRANSLIT:;
#SUBTITLETRANSLIT:;
#ARTISTTRANSLIT:;
#GENRE:;
#CREDIT:;
#BANNER:AV.avi;
#BACKGROUND:bg.png;
#LYRICSPATH:;
#CDTITLE:;
#MUSIC:audio.ogg;
#OFFSET:-0.449000;
#SAMPLESTART:56.031097;
#SAMPLELENGTH:15.000004;
#SELECTABLE:YES;
#BPMS:0.000000=123.000000
;
#STOPS:
;
#BGCHANGES:0.000=MV.avi=0.800=1=0=1===CrossFade==,
2.000=MV.avi=1.000=0=0=1=====,
99999=-nosongbg-=1.000=0=0=0 // don't automatically add -songbackground-
;
#KEYSOUNDS:;
#ATTACKS:;

//---------------dance-single - ----------------
#NOTES:
     dance-single:
     :
     Hard:
     11:
     0.474770,0.596798,0.123089,0.543038,0.293240,459.000000,442.000000,17.000000,75.000000,0.000000,0.000000,0.474770,0.596798,0.123089,0.543038,0.293240,459.000000,442.000000,17.000000,75.000000,0.000000,0.000000:
// measure 0
0000
0000
0000
0000
,  // measure 1
0000
0000
0000
0000
,  // measure 2
0000
0000
0000
0000
,  // measure 3
0000
0000
0000
0000
,  // measure 4
0000
0000
0000
0000
,  // measure 5
1000
0010
0001
0000
0001
0010
1000
0000
,  // measure 6
1000
0001
0010
0000
0100
0000
1000
0000
,  // measure 7
0020
2030
3002
0013
,  // measure 8
1000
0002
0203
0301
,  // measure 9
0110
0000
1000
0000
0100
0010
0001
0000
,  // measure 10
1000
0000
0020
0000
1030
0100
0010
0100
,  // measure 11
1000
0000
0001
0000
0100
0010
0001
0010
,  // measure 12
1000
0000
0002
0000
0103
0001
0010
0100
,  // measure 13
1000
0000
0001
0000
0100
0001
0020
0000
,  // measure 14
0130
2000
3002
0203
,  // measure 15
0310
0100
0010
1000
0100
0010
0001
1000
,  // measure 16
0010
0000
2000
0000
3000
0000
0002
0000
0003
0000
0100
0000
0001
0010
0001
0000
,  // measure 17
0010
0001
0200
0010
0310
0000
0101
0000
,  // measure 18
0100
0010
2000
0100
3100
0000
1010
0000
,  // measure 19
0010
0010
1000
0100
0010
0010
0001
1000
,  // measure 20
0100
0100
1000
0010
2000
0000
3001
0000
,  // measure 21
0002
0000
0000
0203
0000
0000
0320
0000
0000
0032
0000
0000
0013
1000
0010
0000
,  // measure 22
0200
0000
0000
0302
0000
0000
0023
0000
0000
0032
0000
0000
0013
0100
0010
0000
,  // measure 23
0001
0000
1000
0000
0002
0000
0000
0000
1003
0000
0000
0000
0010
1000
0100
1000
,  // measure 24
0001
0010
0200
0000
1300
0000
2010
0000
,  // measure 25
3001
0100
0001
0100
0001
0100
0002
0000
,  // measure 26
0013
0001
0010
0001
0010
0001
0020
0000
,  // measure 27
0130
0010
0100
1000
0001
0100
0010
2000
,  // measure 28
0000
0000
3000
0000
0000
0000
0000
0000
0001
0000
0100
0001
0000
0001
1000
0000
,  // measure 29
0100
1000
0002
0000
0103
0001
0100
0020
,  // measure 30
1000
0000
0000
0000
0130
0000
0000
0000
0100
0000
0001
0100
0000
0100
0010
0000
,  // measure 31
2000
0000
3002
0000
1003
0010
0100
0001
,  // measure 32
0010
0000
0001
0010
0001
0000
1000
0100
1000
0000
0010
0100
0010
0000
0100
0000
,  // measure 33
0001
0000
0100
0000
0000
1000
0000
0000
0100
0000
0000
0001
0000
0000
0010
0000
,  // measure 34
0100
0000
0010
0000
0000
1000
0000
0000
0010
0000
0001
0000
0010
0000
0100
0000
,  // measure 35
0020
0000
0031
1000
0100
0010
0100
2000
,  // measure 36
3001
0000
0200
0000
0301
0000
2000
0000
3001
0010
0000
0000
0100
1000
0000
0001
,  // measure 37
0000
0001
1000
0000
0010
0000
0010
0100
0000
0100
0001
0000
1000
0000
1000
0100
,  // measure 38
0000
0100
0010
0000
0001
0000
0010
0001
0010
0000
0000
0000
0002
0000
0000
0103
,  // measure 39
0000
0001
0100
0000
0100
0000
0001
1000
0000
1000
0100
0000
0010
0000
0100
0010
,  // measure 40
0200
0000
0000
0000
2300
0000
0000
0000
3100
0010
0000
0000
0100
1000
0000
0001
,  // measure 41
0000
0001
0100
0000
0001
0000
0010
0100
0000
0100
1000
0000
0001
0000
0100
0010
,  // measure 42
0000
0010
1000
0000
0001
0000
0010
0001
0010
0000
0000
0000
0001
0000
0100
0000
,  // measure 43
0010
0000
0000
1000
0000
0000
0200
0000
0000
0300
0000
0000
0001
0000
0200
0000
,  // measure 44
0301
0200
0310
0200
1300
0000
0110
0000
,  // measure 45
0100
0000
0000
0000
0010
0000
0000
0000
1000
0000
0000
1000
0000
0000
0010
0000
,  // measure 46
0100
0000
0000
0000
0001
0000
0000
0000
0010
0000
0000
0010
0000
0000
0001
0000
,  // measure 47
1000
0000
0000
0000
0100
0000
0000
0000
1000
0000
0000
1000
0000
0000
0010
0000
,  // measure 48
0100
0010
0100
0000
,  // measure 49
1000
0001
1000
0001
0100
0100
0001
0000
,  // measure 50
0001
1000
0001
1000
0100
0100
1000
0000
,  // measure 51
0200
0000
2300
0000
3020
0000
1030
0020
,  // measure 52
0000
0000
0000
0000
1030
0000
0020
0000
0100
0000
0000
0000
0100
0000
0000
0030
,  // measure 53
0110
0000
0002
0000
0023
0000
0230
0000
2300
0000
3200
0000
0320
0000
0031
1000
,  // measure 54
0001
0000
1000
0100
0010
0000
0100
0000
0010
0000
0001
0000
0020
0000
2030
0000
,  // measure 55
3020
0000
0032
0000
2003
0000
3010
0100
0000
0100
0010
1000
0010
0000
1000
0010
,  // measure 56
0100
0000
0001
0000
2000
0000
3000
0000
0010
0000
1000
0100
1000
0000
0001
1000
,  // measure 57
0001
0000
1000
0000
0200
0000
0000
0000
1300
0000
0001
0010
0100
0000
0010
0001
,  // measure 58
0010
0000
0100
0000
2000
0000
0000
0000
3010
0000
0001
0010
0100
0000
1000
0000
,  // measure 59
0010
0100
0001
0010
0100
0010
0001
0200
,  // measure 60
0010
0000
0000
0000
0010
0000
0300
0000
0010
0100
0000
0000
0100
0010
0000
1000
,  // measure 61
0000
1000
0010
0000
1010
0000
0001
0010
0000
0010
0100
0000
0110
0000
0010
0100
,  // measure 62
0000
0100
1000
0000
1010
0000
1000
0100
2000
0000
0000
3000
0010
0000
0100
0001
,  // measure 63
0000
0001
0010
0000
0110
0000
0100
1000
0000
1000
0010
0000
0110
0000
0100
0010
,  // measure 64
2000
0000
0000
0000
3020
0000
0000
0000
0031
0010
0000
0000
0100
0010
0000
1000
,  // measure 65
0000
1000
0100
0000
1100
0000
0100
0010
0000
0010
0100
0000
0110
0000
0001
0010
,  // measure 66
0000
0010
0001
0000
0101
0000
0001
0010
0100
0000
0000
0000
1000
0000
0100
0000
,  // measure 67
0010
0000
0000
0100
0000
0000
2000
0000
0000
0000
0000
0000
3010
0000
0220
0000
,  // measure 68
0330
0000
0202
0000
0303
0000
0220
0000
0000
0000
0000
0330
0000
0000
0000
0000
;

//---------------dance-single - ----------------
#NOTES:
     dance-single:
     :
     Medium:
     7:
     0.342372,0.422347,0.217215,0.622683,0.000000,331.000000,301.000000,30.000000,86.000000,0.000000,0.000000,0.342372,0.422347,0.217215,0.622683,0.000000,331.000000,301.000000,30.000000,86.000000,0.000000,0.000000:
// measure 0
0000
0000
0000
0000
,  // measure 1
0000
0000
0000
0000
,  // measure 2
0000
0000
0000
0000
,  // measure 3
0000
0000
0000
0000
,  // measure 4
0000
0000
2000
3002
,  // measure 5
0103
0100
0001
0001
,  // measure 6
0010
0010
0001
1000
,  // measure 7
0200
0000
2300
0000
,  // measure 8
3010
0200
0302
0023
,  // measure 9
0031
0000
0011
0000
0001
1000
0002
0000
,  // measure 10
1003
0200
2300
3020
,  // measure 11
1030
0100
1000
0000
0001
0100
0001
0000
,  // measure 12
0020
0230
2300
3020
,  // measure 13
2030
0000
3002
0000
1003
0001
1000
0000
,  // measure 14
0100
0020
0032
0023
,  // measure 15
0031
0010
0200
0000
1300
0010
2000
0000
,  // measure 16
3010
0010
0010
1010
,  // measure 17
0001
0100
0001
0000
0020
0000
0031
0000
,  // measure 18
1000
0100
2000
0000
3010
0000
1000
0000
,  // measure 19
0001
1000
0100
0000
0100
1000
0001
0000
,  // measure 20
0010
0100
0010
0000
0002
0000
1003
0000
,  // measure 21
2100
0100
0100
0010
,  // measure 22
3002
0010
0100
1000
,  // measure 23
0023
0000
0230
0000
,  // measure 24
2300
0000
3002
0000
,  // measure 25
1003
1000
0020
0000
1030
1000
0002
0000
,  // measure 26
0013
0010
0200
0000
1300
1000
0002
0000
,  // measure 27
0203
0320
2030
3002
,  // measure 28
0000
0003
0000
0000
0100
0000
0100
0000
,  // measure 29
0120
0000
2030
0000
3001
1000
0001
0000
,  // measure 30
0020
0000
0130
0000
0001
0010
0100
0000
,  // measure 31
2000
0000
3002
0000
0103
0010
0100
0000
,  // measure 32
0010
0110
0110
0110
,  // measure 33
2000
3002
0013
0011
,  // measure 34
0200
2300
3100
1100
,  // measure 35
0002
2003
3002
0013
,  // measure 36
0011
1001
0010
0100
,  // measure 37
1000
0001
2000
0000
3100
1000
0200
0000
,  // measure 38
0310
0001
0020
0000
0031
0000
0012
0000
,  // measure 39
0013
0100
0020
0000
0130
0010
0200
0000
,  // measure 40
1300
0000
1001
0000
0010
1000
0010
0000
,  // measure 41
1000
0100
0020
0000
0031
0010
0002
0000
,  // measure 42
0103
0001
0200
0000
0310
0000
0110
0000
,  // measure 43
2001
3100
0012
0013
,  // measure 44
0001
0001
0002
1003
,  // measure 45
2000
3100
0020
0130
,  // measure 46
2000
3001
0002
0013
,  // measure 47
2000
3001
0002
1003
,  // measure 48
0200
0000
0310
0000
,  // measure 49
0110
0110
1001
1001
,  // measure 50
0011
0011
1100
1100
,  // measure 51
0001
1000
0001
0100
,  // measure 52
0002
0000
0023
0000
,  // measure 53
0031
0010
0001
0010
0100
0010
0001
1000
,  // measure 54
0020
1030
2000
3001
,  // measure 55
0100
1000
0100
1000
0010
1000
0100
1000
,  // measure 56
0002
0013
0011
1100
,  // measure 57
0020
0130
0110
1001
,  // measure 58
0200
0310
1100
0011
,  // measure 59
0001
0010
0100
1000
0100
0010
0001
2000
,  // measure 60
0001
0000
0001
3000
0001
0100
0001
0000
,  // measure 61
0010
0001
0010
0001
0100
0001
0010
0001
,  // measure 62
0100
0001
0010
0100
2000
0000
3010
0000
,  // measure 63
1000
0100
0010
0100
1000
0100
0010
0100
,  // measure 64
2000
3002
0203
0320
,  // measure 65
1030
0100
1000
0010
1000
0100
0010
0001
,  // measure 66
0010
0100
1000
0010
1000
0000
0001
0000
,  // measure 67
0020
0000
0130
0000
2000
0000
3001
0100
,  // measure 68
0000
0100
0000
0200
0000
0300
0000
0000
;

//---------------dance-single - ----------------
#NOTES:
     dance-single:
     :
     Easy:
     4:
     0.224456,0.297585,0.094127,0.333063,0.000000,217.000000,204.000000,13.000000,46.000000,0.000000,0.000000,0.224456,0.297585,0.094127,0.333063,0.000000,217.000000,204.000000,13.000000,46.000000,0.000000,0.000000:
// measure 0
0000
0000
0000
0000
,  // measure 1
0000
0000
0000
0000
,  // measure 2
0000
0000
0000
0000
,  // measure 3
0000
0000
0000
0000
,  // measure 4
0000
0000
0000
0000
,  // measure 5
1000
0000
0001
0000
,  // measure 6
0100
0000
0001
0000
,  // measure 7
0200
0000
0302
0000
,  // measure 8
0103
0100
0010
0010
,  // measure 9
2000
0000
3001
0000
,  // measure 10
0002
0000
0103
0000
,  // measure 11
0200
0000
0310
0000
,  // measure 12
0010
0100
0010
1000
,  // measure 13
0020
0000
1030
0000
,  // measure 14
2000
0000
3001
0000
,  // measure 15
0001
0100
0001
1000
,  // measure 16
0002
0000
0013
0000
,  // measure 17
0010
0100
0010
0010
,  // measure 18
0001
1000
0001
0001
,  // measure 19
1000
0010
0100
0100
,  // measure 20
0010
1000
0001
0001
,  // measure 21
0020
0000
0032
0000
,  // measure 22
0203
0000
0302
0000
,  // measure 23
2003
0000
3010
0000
,  // measure 24
2000
0000
3010
0000
,  // measure 25
0100
0001
0200
0301
,  // measure 26
0001
0010
0002
0013
,  // measure 27
1000
1000
0010
1000
,  // measure 28
0001
0000
0100
0100
,  // measure 29
0002
0013
2000
3100
,  // measure 30
0020
0000
1000
1030
,  // measure 31
0001
0010
0100
1000
,  // measure 32
0002
0000
1000
1003
,  // measure 33
0010
1000
0200
0310
,  // measure 34
0001
0010
0200
1300
,  // measure 35
0010
1000
0001
1000
,  // measure 36
0020
0000
0100
0130
,  // measure 37
0010
0010
0110
0110
,  // measure 38
1000
1000
2010
0000
,  // measure 39
3010
0010
1010
1010
,  // measure 40
0002
0000
0013
0100
,  // measure 41
0010
0010
0110
0110
,  // measure 42
1000
1000
0020
0000
,  // measure 43
2030
0000
3002
0000
,  // measure 44
0103
0100
0200
0000
,  // measure 45
0310
0000
0010
0000
,  // measure 46
1000
0000
1000
0000
,  // measure 47
0001
0000
0001
0000
,  // measure 48
0200
0000
0310
0000
,  // measure 49
1000
0001
1000
1000
,  // measure 50
0001
1000
0001
0001
,  // measure 51
0010
0001
0100
0001
,  // measure 52
2000
0000
3020
0000
,  // measure 53
1030
0001
0010
0100
,  // measure 54
1000
0001
2000
3010
,  // measure 55
0100
0001
0100
0010
,  // measure 56
1000
0200
1300
1000
,  // measure 57
0010
1000
0002
0013
,  // measure 58
1000
0001
0200
0310
,  // measure 59
1000
1000
0001
0001
,  // measure 60
0200
0000
0001
0301
,  // measure 61
0010
0011
0001
1000
,  // measure 62
0100
1000
0020
1030
,  // measure 63
0001
0011
0100
1000
,  // measure 64
2002
3003
0001
0001
,  // measure 65
1000
0010
1000
0100
,  // measure 66
0010
0001
0022
0033
,  // measure 67
2200
3300
2020
3030
,  // measure 68
1000
1000
1000
0000
;

//---------------dance-single - ----------------
#NOTES:
     dance-single:
     :
     Beginner:
     3:
     0.159291,0.198390,0.043443,0.289620,0.000000,154.000000,148.000000,6.000000,40.000000,0.000000,0.000000,0.159291,0.198390,0.043443,0.289620,0.000000,154.000000,148.000000,6.000000,40.000000,0.000000,0.000000:
// measure 0
0000
0000
0000
0000
,  // measure 1
0000
0000
0000
0000
,  // measure 2
0000
0000
0000
0000
,  // measure 3
0000
0000
0000
0000
,  // measure 4
0000
0000
0000
0000
,  // measure 5
1000
0000
1000
0000
,  // measure 6
0001
0000
0001
0000
,  // measure 7
0200
0000
0000
0000
,  // measure 8
0310
0000
0010
0000
,  // measure 9
1000
0010
1000
0000
,  // measure 10
0001
0010
0001
0000
,  // measure 11
0100
0010
0100
0000
,  // measure 12
1000
0000
1000
0000
,  // measure 13
0001
1000
0001
0000
,  // measure 14
0100
0001
0100
0000
,  // measure 15
0001
0010
0001
0000
,  // measure 16
2002
0000
3003
0000
,  // measure 17
0010
0100
0010
0000
,  // measure 18
1000
0100
1000
0000
,  // measure 19
0002
0000
1003
0000
,  // measure 20
2000
0000
3001
0000
,  // measure 21
0220
0000
0330
0000
,  // measure 22
2200
0000
3300
0000
,  // measure 23
2002
0000
3003
0000
,  // measure 24
0022
0000
0033
0000
,  // measure 25
0100
0001
0100
0000
,  // measure 26
0010
1000
0010
0000
,  // measure 27
2000
0000
3001
0000
,  // measure 28
0001
0000
0100
0100
,  // measure 29
0002
0000
0023
0000
,  // measure 30
0032
0000
1003
1000
,  // measure 31
0020
0000
2030
0000
,  // measure 32
3002
0000
0103
0000
,  // measure 33
0100
0001
0100
0000
,  // measure 34
0001
0100
0001
0000
,  // measure 35
0020
0000
0031
0000
,  // measure 36
2000
0000
3100
0000
,  // measure 37
0010
0010
2000
0000
,  // measure 38
3002
0000
0103
0000
,  // measure 39
0001
0001
2000
0000
,  // measure 40
3020
0000
0130
0000
,  // measure 41
1000
1000
0002
0000
,  // measure 42
0023
0000
0130
0000
,  // measure 43
0002
0000
1003
0000
,  // measure 44
2000
0000
3010
0000
,  // measure 45
0001
0000
1000
0000
,  // measure 46
0001
0000
0100
0000
,  // measure 47
0010
0000
0100
0000
,  // measure 48
0002
0000
1003
0000
,  // measure 49
1000
0000
1000
0000
,  // measure 50
0010
0000
0010
0000
,  // measure 51
0100
0000
0100
0000
,  // measure 52
2000
0000
3001
0000
,  // measure 53
0001
1000
0001
0000
,  // measure 54
2000
0000
3001
0000
,  // measure 55
0100
0010
0100
0000
,  // measure 56
0002
0000
1003
0000
,  // measure 57
1000
0010
1000
0000
,  // measure 58
0100
0001
0100
0000
,  // measure 59
0002
0000
0013
0000
,  // measure 60
2000
0000
3010
0000
,  // measure 61
0100
0001
0010
0000
,  // measure 62
0001
0010
0100
0000
,  // measure 63
1000
0001
1000
0000
,  // measure 64
0020
0000
0130
0000
,  // measure 65
0100
0001
0010
0010
,  // measure 66
0001
0100
0010
0000
,  // measure 67
2000
0000
3001
0000
,  // measure 68
2002
0000
3003
0000
;
