#VERSION:0.83;
#TITLE:Shining Bright;
#SUBTITLE:;
#ARTIST:CSR;
#TITLETRANSLIT:;
#SUBTITLETRANSLIT:;
#ARTISTTRANSLIT:;
#GENRE:;
#ORIGIN:;
#CREDIT:;
#BANNER:AV.avi;
#BACKGROUND:bg.png;
#PREVIEWVID:;
#JACKET:jacket.png;
#CDIMAGE:;
#DISCIMAGE:;
#LYRICSPATH:;
#CDTITLE:;
#MUSIC:audio.ogg;
#OFFSET:-0.295000;
#SAMPLESTART:44.210205;
#SAMPLELENGTH:15.000002;
#SELECTABLE:YES;
#BPMS:0.000=175.978;
#STOPS:;
#DELAYS:;
#WARPS:;
#TIMESIGNATURES:0.000=4=4;
#TICKCOUNTS:0.000=4;
#COMBOS:0.000=1;
#SPEEDS:0.000=1.000=0.000=0;
#SCROLLS:0.000=1.000;
#FAKES:;
#LABELS:0.000=Song Start;
#BGCHANGES:0.000=MV.avi=1.000=1=0=1===CrossFade==,
99999=-nosongbg-=1.000=0=0=0 // don't automatically add -songbackground-
;
#KEYSOUNDS:;
#ATTACKS:
;

//---------------dance-single - ----------------
#NOTEDATA:;
#CHARTNAME:;
#STEPSTYPE:dance-single;
#DESCRIPTION:;
#CHARTSTYLE:;
#DIFFICULTY:Hard;
#METER:13;
#RADARVALUES:0.572028,0.672717,0.478533,0.598166,0.038705,569.000000,501.000000,68.000000,85.000000,4.000000,0.000000,0.000000,0.000000,0.000000,0.572028,0.672717,0.478533,0.598166,0.038705,569.000000,501.000000,68.000000,85.000000,4.000000,0.000000,0.000000,0.000000,0.000000;
#CREDIT:Rajeious's Chart;
#NOTES:
// measure 0
0000
0000
0000
0000
,  // measure 1
0000
0000
0000
0000
,  // measure 2
0000
0000
0000
0000
,  // measure 3
0000
0000
0000
0000
,  // measure 4
0000
0000
0000
0000
,  // measure 5
0001
0000
0001
0000
0001
0000
0001
1000
,  // measure 6
0100
0000
0100
0000
0100
1000
0001
0020
,  // measure 7
0000
0000
0000
0000
,  // measure 8
0000
0000
0000
0030
,  // measure 9
1000
0000
1000
0001
0000
0200
0000
0300
,  // measure 10
0001
0000
0010
0001
0000
2000
0000
3000
,  // measure 11
0010
0000
0100
0001
0000
1000
0002
0000
,  // measure 12
0013
0100
2000
0000
3100
0010
0002
0000
,  // measure 13
1003
0000
1000
0001
0000
0200
0000
0300
,  // measure 14
0001
0000
0001
1000
0000
0020
0000
0030
,  // measure 15
1000
0001
0100
0001
0010
0100
1000
0001
,  // measure 16
0100
0000
0001
1000
0001
0000
0010
0000
0001
0000
1000
0000
0010
0000
0110
0000
,  // measure 17
0000
1000
0100
0001
0100
1000
0001
0010
,  // measure 18
0002
0000
1003
0200
1000
0000
1300
0000
,  // measure 19
1000
0100
0001
0100
0010
0001
1000
0001
,  // measure 20
0200
0000
0310
2000
3010
0200
0301
2000
,  // measure 21
0001
3000
0010
1000
0100
1000
0010
0100
,  // measure 22
0001
0000
0100
0001
0010
0001
0100
0020
,  // measure 23
1000
0030
1000
0001
0100
0000
0001
0100
,  // measure 24
1000
0100
0001
1000
0010
1000
0010
0000
,  // measure 25
1001
0010
0100
0010
,  // measure 26
1000
0010
1000
0000
0001
0100
0000
0100
,  // measure 27
0001
1000
0010
0100
,  // measure 28
0001
1000
0100
0000
1000
0001
0000
0001
,  // measure 29
0010
0200
0000
2300
0000
3002
0000
0103
,  // measure 30
0010
2000
0000
3002
0000
0203
0000
0300
,  // measure 31
1001
1000
0100
0011
0000
1100
0000
0011
,  // measure 32
0000
0000
0000
0000
1000
0001
1000
0001
,  // measure 33
1000
0000
0110
0000
0001
1000
0010
0000
,  // measure 34
1010
0000
0001
0010
0000
0010
0001
0100
,  // measure 35
0010
0000
0100
0010
1000
0100
1000
0000
,  // measure 36
1010
0000
0001
0100
1010
0000
1000
0100
,  // measure 37
0011
0000
1000
0001
1000
0100
0010
0001
,  // measure 38
1001
0000
0100
0001
1000
0001
0100
0020
,  // measure 39
0000
2030
0000
3002
0000
1003
0100
0020
,  // measure 40
0000
0000
0230
0000
0000
0000
1300
0000
0010
0000
1000
0000
0001
0100
0001
0000
,  // measure 41
1000
0000
1001
0000
0010
0100
0001
0000
,  // measure 42
1010
0000
1000
0001
0000
0001
1000
0010
,  // measure 43
0100
0000
0101
0000
0001
1000
0100
0000
,  // measure 44
1100
0000
1000
1010
0000
0010
1000
0001
,  // measure 45
1000
0020
0000
0130
0000
0100
0001
1000
,  // measure 46
0100
0010
0000
0110
0000
0001
1000
0001
,  // measure 47
1000
0020
0000
0230
0000
0320
0000
2030
,  // measure 48
0000
3002
0000
1003
0100
1000
0010
0100
,  // measure 49
0002
0000
0000
0000
0013
0100
1000
0100
,  // measure 50
0020
0001
0031
1000
,  // measure 51
0200
0000
0000
0000
1300
0100
0010
0100
,  // measure 52
2000
3010
0200
0301
,  // measure 53
0020
0000
0000
0000
0000
0000
0000
0000
0031
0000
0000
0001
0000
0000
0001
0000
,  // measure 54
1000
0000
0000
1000
0000
0000
1000
0000
0100
0000
0000
0100
0000
0000
0100
0000
,  // measure 55
0020
0000
0032
0003
,  // measure 56
0200
0320
0230
0302
,  // measure 57
1003
0100
0010
0001
,  // measure 58
0100
0010
1000
0020
0000
0230
0000
0300
,  // measure 59
0001
0100
0100
0001
,  // measure 60
1000
0010
0100
0002
0000
2003
0000
3000
,  // measure 61
1000
0001
1000
0001
0100
0010
0100
0010
,  // measure 62
1000
0010
1000
0010
0100
0001
0100
0001
,  // measure 63
1001
0000
0000
1001
0000
0000
1001
0000
,  // measure 64
0000
0000
0000
0000
0000
0000
0000
0000
1000
0001
1000
0001
1000
0001
1000
0001
,  // measure 65
1000
0000
0110
0000
0100
0001
1000
0000
,  // measure 66
1001
0000
0001
0101
0000
0100
0010
1000
,  // measure 67
2002
3003
0000
2200
3300
0000
0022
0033
,  // measure 68
0000
1010
1010
0000
0001
0010
0100
2000
,  // measure 69
0000
3000
1010
M0M0
0001
0100
0010
2000
,  // measure 70
0001
3000
0011
00MM
0100
0001
0100
0020
,  // measure 71
0000
2030
0000
3020
0000
0130
0001
0200
,  // measure 72
0000
0000
0301
0000
1000
0000
0001
0000
1000
0000
0100
0000
0010
0100
0010
0000
,  // measure 73
0001
0000
0101
0000
0001
1000
0010
0000
,  // measure 74
1001
0000
0001
0101
0000
0100
0001
1000
,  // measure 75
0010
0000
1001
0000
1000
0100
0001
0100
,  // measure 76
0220
0330
0220
0330
0022
0033
0022
0033
,  // measure 77
1100
0000
1001
0000
1000
0001
0100
0001
,  // measure 78
0010
0100
0000
1001
0000
0010
0100
0001
,  // measure 79
0100
0020
0000
2030
0000
3020
0000
0230
,  // measure 80
0000
0000
0310
0000
1000
0000
0010
0000
1000
0000
0001
0000
0100
0010
0100
0000
,  // measure 81
0002
0000
1000
0000
0103
0010
1000
0000
,  // measure 82
1020
0000
0100
0000
1030
0001
1000
0001
,  // measure 83
2001
0000
0100
0000
3100
0010
0001
0000
,  // measure 84
0012
0000
0013
0100
2100
0000
3001
0100
,  // measure 85
0001
0000
1100
0000
0010
1000
0001
0000
,  // measure 86
0012
0000
1003
2010
0000
3001
0100
0001
,  // measure 87
1000
0000
1001
0000
0001
0010
0100
1000
,  // measure 88
0010
0100
0001
1000
0001
1000
0010
0100
,  // measure 89
0101
0000
0101
0000
0010
1000
0010
1000
,  // measure 90
1001
0000
1001
0000
0100
0010
0100
0010
,  // measure 91
0110
0000
0110
0000
1000
0010
1000
0010
,  // measure 92
0110
0000
0010
1000
1001
0000
0110
0000
,  // measure 93
1010
0000
1010
0000
0100
0001
1000
0001
,  // measure 94
0011
0000
0011
0000
1000
0010
0100
0010
,  // measure 95
1002
0003
0210
0300
,  // measure 96
2010
3000
0102
0003
,  // measure 97
2100
0000
0000
0000
,  // measure 98
3000
0000
0000
0000
0100
0010
0000
0002
,  // measure 99
0000
0000
0000
0000
,  // measure 100
0000
0000
0000
0000
0000
0003
0000
0000
;

//---------------dance-single - ----------------
#NOTEDATA:;
#CHARTNAME:;
#STEPSTYPE:dance-single;
#DESCRIPTION:;
#CHARTSTYLE:;
#DIFFICULTY:Medium;
#METER:9;
#RADARVALUES:0.412182,0.567202,0.225192,0.527794,0.000000,410.000000,378.000000,32.000000,75.000000,0.000000,0.000000,0.000000,0.000000,0.000000,0.412182,0.567202,0.225192,0.527794,0.000000,410.000000,378.000000,32.000000,75.000000,0.000000,0.000000,0.000000,0.000000,0.000000;
#CREDIT:Rajeious's Chart;
#NOTES:
// measure 0
0000
0000
0000
0000
,  // measure 1
0000
0000
0000
0000
,  // measure 2
0000
0000
0000
0000
,  // measure 3
0000
0000
0000
0000
,  // measure 4
0000
0000
0000
0000
,  // measure 5
0011
0001
0010
0100
,  // measure 6
1100
0000
1000
0000
0010
0000
1000
2000
,  // measure 7
0000
0000
0000
0000
,  // measure 8
0000
0000
0000
0000
,  // measure 9
3002
0000
0023
0000
,  // measure 10
0230
0000
2300
0000
,  // measure 11
3020
0000
2030
0000
,  // measure 12
3200
0000
0320
0000
,  // measure 13
0032
2003
3002
0000
,  // measure 14
0023
0230
2300
0000
,  // measure 15
3010
1000
0001
0100
,  // measure 16
0001
0010
0100
0110
,  // measure 17
1000
0100
1000
0000
0001
0010
0001
0000
,  // measure 18
0010
0100
1000
0000
0200
0000
1300
0000
,  // measure 19
0010
1000
0010
0000
0001
0010
0100
0000
,  // measure 20
0020
1030
2000
3100
,  // measure 21
1100
0000
1100
0000
0100
0010
0100
0000
,  // measure 22
0110
0000
0110
0000
0001
0010
0001
0000
,  // measure 23
0012
0013
2100
3100
,  // measure 24
1000
0010
0100
0001
1000
0100
0010
0001
,  // measure 25
2000
0000
3100
0000
,  // measure 26
0020
0000
0130
0000
,  // measure 27
2000
0000
3100
0000
,  // measure 28
0002
0000
0013
0000
,  // measure 29
1000
0010
2000
3100
,  // measure 30
0001
0010
0200
1300
,  // measure 31
1001
0000
0000
1001
0000
1001
0000
0110
,  // measure 32
0000
1000
0100
1000
,  // measure 33
1100
0000
0010
0000
0100
0010
0100
0000
,  // measure 34
1000
0000
0100
0000
1000
0100
1000
0000
,  // measure 35
0002
0013
2000
3100
,  // measure 36
1200
0000
1300
0000
0010
1000
0010
2000
,  // measure 37
0010
0000
3010
0100
0001
0010
0100
0010
,  // measure 38
0002
0000
0013
0000
0100
1000
0010
0000
,  // measure 39
1200
1300
0012
0013
,  // measure 40
0100
0010
0001
1000
0010
0100
0001
0000
,  // measure 41
1200
0000
1300
0000
0010
1000
0010
0000
,  // measure 42
0010
0000
0001
0000
0100
1000
0001
0000
,  // measure 43
2000
3010
0200
0310
,  // measure 44
2100
0100
3100
0001
,  // measure 45
0100
0010
0001
0000
1001
0000
1001
0000
,  // measure 46
0010
1000
0100
0000
1100
0000
1100
0000
,  // measure 47
0020
0230
0300
0200
0300
0020
0030
2000
,  // measure 48
3000
0200
0300
0010
0001
1000
0001
0000
,  // measure 49
0020
0000
0130
0000
,  // measure 50
2000
0000
3100
0000
,  // measure 51
0002
0000
0013
0000
,  // measure 52
2000
0000
3100
0000
,  // measure 53
0020
0100
2030
0000
,  // measure 54
3002
0010
2003
0000
,  // measure 55
3020
0100
2030
0000
,  // measure 56
3100
1000
0100
0010
,  // measure 57
0001
0010
0200
1300
,  // measure 58
0010
1000
0002
0013
,  // measure 59
0100
1000
0020
1030
,  // measure 60
0001
0100
0020
0130
,  // measure 61
1100
0001
0010
0100
,  // measure 62
1000
0010
1000
0002
,  // measure 63
1000
0000
0000
1000
0000
0000
1000
0000
,  // measure 64
0003
0100
0001
0010
,  // measure 65
0100
0000
1100
0000
0001
1000
0001
0000
,  // measure 66
0010
0000
0100
0000
1000
0100
1000
0000
,  // measure 67
1010
0000
0000
1010
0000
0000
0101
0000
,  // measure 68
0000
0101
0000
0000
0001
0010
0100
0000
,  // measure 69
1000
0000
1100
0000
0010
1000
0010
0000
,  // measure 70
1000
0000
1100
0000
0001
0010
0100
0000
,  // measure 71
1000
0001
1000
0000
0010
0000
1000
0000
,  // measure 72
0001
0000
0010
0000
0100
0010
0001
0000
,  // measure 73
0020
0130
2000
3010
,  // measure 74
0001
1000
0100
0000
0001
0000
0100
0000
,  // measure 75
0001
0000
0010
0000
0100
1000
0010
0000
,  // measure 76
1000
0000
1000
0000
0010
1000
0010
0000
,  // measure 77
0010
0000
0001
0000
0001
1000
0001
0000
,  // measure 78
1000
0100
0010
0001
,  // measure 79
2000
3020
0030
0020
0030
2000
3000
0100
,  // measure 80
0010
0001
0000
1000
0010
1000
0000
0001
,  // measure 81
0020
0100
0001
0100
,  // measure 82
0032
0010
1000
0100
,  // measure 83
2003
0100
0010
0001
,  // measure 84
3200
0010
1000
0301
,  // measure 85
1001
0000
0100
0000
1000
0100
1000
0000
,  // measure 86
0010
0000
1000
0000
0001
1000
0001
0000
,  // measure 87
0010
0000
0100
0000
0010
0100
0010
0000
,  // measure 88
0001
0000
1000
0000
0001
1000
0001
0000
,  // measure 89
0001
0000
0001
0000
0001
0010
0001
0000
,  // measure 90
0010
0000
0010
0000
0010
0100
0010
0000
,  // measure 91
0100
0000
0100
0000
0100
1000
0100
0000
,  // measure 92
1000
0000
1000
0000
1000
0010
1000
0000
,  // measure 93
0001
0000
0001
0000
0001
1000
0001
0000
,  // measure 94
1000
0000
1000
0000
1000
0001
1000
0000
,  // measure 95
0002
0000
0023
0000
,  // measure 96
0230
0000
2300
0000
,  // measure 97
3020
0000
0000
0000
,  // measure 98
0030
0000
2000
0000
,  // measure 99
3200
0000
0000
0000
,  // measure 100
0000
0000
0000
0300
;

//---------------dance-single - ----------------
#NOTEDATA:;
#CHARTNAME:;
#STEPSTYPE:dance-single;
#DESCRIPTION:;
#CHARTSTYLE:;
#DIFFICULTY:Easy;
#METER:5;
#RADARVALUES:0.256357,0.354501,0.014074,0.443347,0.000000,255.000000,253.000000,2.000000,63.000000,0.000000,0.000000,0.000000,0.000000,0.000000,0.256357,0.354501,0.014074,0.443347,0.000000,255.000000,253.000000,2.000000,63.000000,0.000000,0.000000,0.000000,0.000000,0.000000;
#CREDIT:Rajeious's Chart;
#NOTES:
// measure 0
0000
0000
0000
0000
,  // measure 1
0000
0000
0000
0000
,  // measure 2
0000
0000
0000
0000
,  // measure 3
0000
0000
0000
0000
,  // measure 4
0000
0000
0000
0000
,  // measure 5
1000
1000
0010
0010
,  // measure 6
1000
1000
0100
0100
,  // measure 7
2000
0000
0000
0000
,  // measure 8
0000
0000
0000
0000
,  // measure 9
3002
0000
0000
0000
,  // measure 10
0203
0000
0000
0000
,  // measure 11
0320
0000
0000
0000
,  // measure 12
0230
0000
0000
0000
,  // measure 13
0302
0000
0000
0000
,  // measure 14
0023
0000
0000
0000
,  // measure 15
0230
0000
0000
0000
,  // measure 16
1300
0000
1000
0000
,  // measure 17
1000
0001
1000
0010
,  // measure 18
2000
0000
3200
0000
,  // measure 19
0310
0001
1000
0001
,  // measure 20
2000
0000
3200
0000
,  // measure 21
2300
0000
3020
0000
,  // measure 22
2030
0000
3002
0000
,  // measure 23
0013
0010
0200
0000
,  // measure 24
1300
1000
0020
0000
,  // measure 25
2030
0000
0000
0000
,  // measure 26
3002
0000
0000
0000
,  // measure 27
0023
0000
0000
0000
,  // measure 28
0032
0000
0000
0000
,  // measure 29
0103
0001
0200
0000
,  // measure 30
0310
0100
0020
0000
,  // measure 31
1030
0000
1000
0000
,  // measure 32
1001
0000
0000
0000
,  // measure 33
1000
0100
1000
0010
,  // measure 34
1000
0001
0010
0100
,  // measure 35
1000
1000
0002
0000
,  // measure 36
0013
0010
0200
0000
,  // measure 37
1300
1000
0020
0000
,  // measure 38
1030
0000
1000
0000
0002
0000
0000
0003
,  // measure 39
0100
0001
0010
0100
,  // measure 40
1000
1000
0010
1000
,  // measure 41
0100
0100
0010
0001
,  // measure 42
1000
0010
0100
0001
,  // measure 43
0010
0010
0100
1000
,  // measure 44
0002
0000
1003
0010
,  // measure 45
1000
0100
0020
0000
,  // measure 46
0031
1000
0200
0000
,  // measure 47
1300
1000
0010
0010
,  // measure 48
1000
0001
0010
0100
,  // measure 49
2000
0000
3001
0000
,  // measure 50
0020
0000
0130
0000
,  // measure 51
2000
0000
3100
0000
,  // measure 52
0002
0000
0013
0000
,  // measure 53
0200
0000
0310
0000
,  // measure 54
2000
0000
3001
0000
,  // measure 55
0002
0000
0013
0000
,  // measure 56
0100
1000
0100
0010
,  // measure 57
0001
1000
0010
1000
,  // measure 58
0100
0010
0001
1000
,  // measure 59
0010
1000
0100
0010
,  // measure 60
0100
1000
0010
1000
,  // measure 61
0001
0001
0010
0010
,  // measure 62
0001
1000
0010
0100
,  // measure 63
0002
0000
0000
0000
,  // measure 64
0000
0003
0000
0000
0000
0000
0000
0000
,  // measure 65
1001
1000
0100
0100
,  // measure 66
0010
0001
1000
0010
,  // measure 67
2000
0000
0000
0000
,  // measure 68
0000
0000
3100
0001
,  // measure 69
0100
0001
0010
0100
,  // measure 70
0010
0100
1000
0001
,  // measure 71
0100
0010
1000
0100
,  // measure 72
0010
0001
1000
1000
,  // measure 73
0010
1000
0100
0010
,  // measure 74
0001
0100
0010
1000
,  // measure 75
0001
1000
0100
0010
,  // measure 76
0002
0000
1003
0010
,  // measure 77
1000
0100
2000
0000
,  // measure 78
3010
0000
1000
0000
0002
0000
0000
0003
,  // measure 79
0010
0010
0100
0100
,  // measure 80
0010
0100
0010
1000
,  // measure 81
0002
0000
0010
0000
,  // measure 82
2003
0000
0100
0000
,  // measure 83
3020
0000
0100
0000
,  // measure 84
2030
0000
0100
0000
,  // measure 85
3001
0010
0200
0000
,  // measure 86
1300
0010
2000
0000
,  // measure 87
3001
0100
0020
0000
,  // measure 88
1030
0000
0001
0000
0020
0000
0000
0030
,  // measure 89
0100
0100
0200
0000
,  // measure 90
1300
1000
2000
0000
,  // measure 91
3001
0001
0002
0000
,  // measure 92
0013
0010
0020
0000
,  // measure 93
0130
1000
0200
0000
,  // measure 94
1300
0001
2000
0000
,  // measure 95
3002
0000
0203
0000
,  // measure 96
0320
0000
0230
0000
,  // measure 97
0302
0000
0000
0000
,  // measure 98
0003
0000
0000
0000
,  // measure 99
0200
0000
0000
0000
,  // measure 100
0000
0000
0000
0300
;

//---------------dance-single - ----------------
#NOTEDATA:;
#CHARTNAME:;
#STEPSTYPE:dance-single;
#DESCRIPTION:;
#CHARTSTYLE:;
#DIFFICULTY:Beginner;
#METER:3;
#RADARVALUES:0.183974,0.248151,0.056298,0.443347,0.000000,183.000000,175.000000,8.000000,63.000000,0.000000,0.000000,0.000000,0.000000,0.000000,0.183974,0.248151,0.056298,0.443347,0.000000,183.000000,175.000000,8.000000,63.000000,0.000000,0.000000,0.000000,0.000000,0.000000;
#CREDIT:Rajeious's Chart;
#NOTES:
// measure 0
0000
0000
0000
0000
,  // measure 1
0000
0000
0000
0000
,  // measure 2
0000
0000
0000
0000
,  // measure 3
0000
0000
0000
0000
,  // measure 4
0000
0000
0000
0000
,  // measure 5
1000
0000
0001
0000
,  // measure 6
0100
0000
0010
0000
,  // measure 7
2000
0000
0000
0000
,  // measure 8
3000
0000
0000
0000
,  // measure 9
0002
0000
0000
0000
,  // measure 10
2003
0000
0000
0000
,  // measure 11
3200
0000
0000
0000
,  // measure 12
2300
0000
0000
0000
,  // measure 13
3002
0000
0000
0000
,  // measure 14
0203
0000
0000
0000
,  // measure 15
0320
0000
0000
0000
,  // measure 16
0130
0000
0000
0000
,  // measure 17
1000
1000
0100
0000
,  // measure 18
1000
0001
1000
0000
,  // measure 19
0010
0100
0001
0000
,  // measure 20
0010
0100
1000
0000
,  // measure 21
0001
0001
1000
0000
,  // measure 22
1000
0100
1000
0000
,  // measure 23
0010
0000
0010
0000
,  // measure 24
0100
0000
0100
0000
,  // measure 25
0002
0000
0000
0000
,  // measure 26
2003
0000
0000
0000
,  // measure 27
3200
0000
0000
0000
,  // measure 28
0320
0000
0000
0000
,  // measure 29
0032
0000
0000
0000
,  // measure 30
2003
0000
0000
0000
,  // measure 31
3200
0000
0000
0000
,  // measure 32
0300
0000
0000
0000
,  // measure 33
1100
0000
0100
0000
,  // measure 34
1000
0100
1000
0000
,  // measure 35
0001
0000
0010
0000
,  // measure 36
0100
1000
0010
0000
,  // measure 37
1000
0001
1000
0000
,  // measure 38
0001
0100
0001
0000
,  // measure 39
0010
0100
1000
0000
,  // measure 40
0002
0000
1003
0000
,  // measure 41
2000
0000
3001
0000
,  // measure 42
0020
0000
0130
0000
,  // measure 43
1000
0100
1000
0000
,  // measure 44
0002
0000
0013
0000
,  // measure 45
0001
0000
1001
0000
,  // measure 46
1000
0000
1100
0000
,  // measure 47
0020
0000
0130
0000
,  // measure 48
0200
0000
0310
0000
,  // measure 49
0220
0000
0000
0000
,  // measure 50
0330
0000
0000
0000
,  // measure 51
2200
0000
0000
0000
,  // measure 52
3300
0000
0000
0000
,  // measure 53
2002
0000
0000
0000
,  // measure 54
3003
0000
0000
0000
,  // measure 55
0022
0000
0000
0000
,  // measure 56
0033
0000
0000
0000
,  // measure 57
0100
0001
0200
0000
,  // measure 58
0301
0100
0002
0000
,  // measure 59
0013
0001
0020
0000
,  // measure 60
0031
0010
0002
0000
,  // measure 61
1003
0000
1000
0000
,  // measure 62
1000
0000
1000
0000
,  // measure 63
0020
0000
0000
0000
,  // measure 64
0030
0000
0000
0000
,  // measure 65
0100
0001
0010
0000
,  // measure 66
0100
1000
0010
0000
,  // measure 67
2000
0000
0000
0000
,  // measure 68
0000
0000
3001
1000
,  // measure 69
0001
0000
0010
0100
,  // measure 70
1000
0000
0001
1000
,  // measure 71
0020
0000
2030
0000
,  // measure 72
3200
0000
1300
0001
,  // measure 73
2000
0000
3002
0000
,  // measure 74
0023
0000
0230
0000
,  // measure 75
1300
0001
1000
0000
,  // measure 76
0010
0100
0010
0000
,  // measure 77
2000
0000
3100
0000
,  // measure 78
0002
0000
0103
0000
,  // measure 79
0020
0000
0031
0000
,  // measure 80
2000
0000
3100
0000
,  // measure 81
0020
0000
0000
0000
,  // measure 82
2030
0000
0000
0000
,  // measure 83
3002
0000
0000
0000
,  // measure 84
0023
0000
0000
0000
,  // measure 85
0130
1000
0200
0000
,  // measure 86
1300
0010
2000
0000
,  // measure 87
3001
0000
0100
0000
,  // measure 88
0001
0000
0010
0000
,  // measure 89
0100
0100
2000
0000
,  // measure 90
3001
0001
0002
0000
,  // measure 91
0013
0010
0020
0000
,  // measure 92
0130
0100
0200
0000
,  // measure 93
1300
0001
2000
0000
,  // measure 94
3001
1000
0002
0000
,  // measure 95
0023
0000
0000
0000
,  // measure 96
0230
0000
0000
0000
,  // measure 97
2300
0000
0000
0000
,  // measure 98
3000
0000
0000
0000
,  // measure 99
2002
0000
0000
0000
,  // measure 100
0000
0000
0000
3003
;
