#VERSION:0.83;
#TITLE:Shark;
#SUBTITLE:;
#ARTIST:OH MY GIRL;
#TITLETRANSLIT:;
#SUBTITLETRANSLIT:;
#ARTISTTRANSLIT:;
#GENRE:;
#ORIGIN:;
#CREDIT:;
#BANNER:AV.avi;
#BACKGROUND:BG.png;
#PREVIEWVID:;
#JACKET:cover.jpg;
#CDIMAGE:;
#DISCIMAGE:;
#LYRICSPATH:;
#CDTITLE:;
#MUSIC:audio.ogg;
#OFFSET:-0.406000;
#SAMPLESTART:83.793999;
#SAMPLELENGTH:15.000000;
#SELECTABLE:YES;
#BPMS:0.000=115.000;
#STOPS:;
#DELAYS:;
#WARPS:;
#TIMESIGNATURES:0.000=4=4;
#TICKCOUNTS:0.000=4;
#COMBOS:0.000=1;
#SPEEDS:0.000=1.000=0.000=0;
#SCROLLS:0.000=1.000;
#FAKES:;
#LABELS:0.000=Song Start;
#BGCHANGES:0.000=MV.avi=1.200=1=1=1=StretchRewind==CrossFade==,
4.000=MV.avi=1.000=0=0=1=====,
99999=-nosongbg-=1.000=0=0=0 // don't automatically add -songbackground-
;
#KEYSOUNDS:;
#ATTACKS:
;

//---------------dance-single - ----------------
#NOTEDATA:;
#CHARTNAME:;
#STEPSTYPE:dance-single;
#DESCRIPTION:;
#CHARTSTYLE:;
#DIFFICULTY:Hard;
#METER:11;
#RADARVALUES:0.443292,0.585480,0.182963,0.519614,0.223214,424.000000,399.000000,25.000000,71.000000,0.000000,0.000000,0.000000,0.000000,0.000000,0.443292,0.585480,0.182963,0.519614,0.223214,424.000000,399.000000,25.000000,71.000000,0.000000,0.000000,0.000000,0.000000,0.000000;
#CREDIT:Musey's Chart;
#NOTES:
// measure 0
0000
0000
0000
0000
,  // measure 1
0000
0000
0000
0000
,  // measure 2
0000
0000
0000
0000
,  // measure 3
0000
0000
0000
0000
,  // measure 4
0000
0000
0000
0000
,  // measure 5
0000
0000
0000
0000
,  // measure 6
0000
0000
0000
0000
,  // measure 7
0000
0000
0000
0000
,  // measure 8
0100
1000
0001
1000
0020
0000
0130
0000
,  // measure 9
0001
0010
0100
0010
0001
1000
0010
0100
,  // measure 10
0002
0013
0200
1300
,  // measure 11
1100
0110
1001
0011
,  // measure 12
0100
0010
0001
1000
0020
0000
0130
0000
,  // measure 13
0001
0010
0100
0010
0001
1000
0010
0100
,  // measure 14
0002
0013
2000
3100
,  // measure 15
1100
0110
1001
0110
,  // measure 16
0001
0010
0001
0010
0200
0000
1300
0000
,  // measure 17
0010
1000
0001
0100
0020
0000
1030
0000
,  // measure 18
0001
0010
0100
0010
0002
0000
1003
0000
,  // measure 19
2010
3010
1002
1003
,  // measure 20
0200
0300
0020
0030
0001
1000
0001
0000
,  // measure 21
1000
0100
1000
0001
0020
0000
0130
0000
,  // measure 22
1200
1300
1200
1300
,  // measure 23
0010
1000
0001
0000
0100
0001
0010
0100
,  // measure 24
2000
3001
0200
0310
,  // measure 25
0002
1003
0020
0130
,  // measure 26
0001
1000
0100
1000
0002
0000
0013
0000
,  // measure 27
1100
1001
0020
1030
,  // measure 28
0200
0310
0002
0013
,  // measure 29
2000
3100
0002
1003
,  // measure 30
0010
0100
0001
0010
0200
0000
1300
0000
,  // measure 31
0010
1000
0001
1000
0100
1000
0001
0000
,  // measure 32
1001
0000
0001
0000
0100
0000
0001
0000
0010
0001
0000
0001
0010
0000
0001
0000
,  // measure 33
1000
0000
0100
0000
1000
0000
0010
0000
0100
0001
0000
0001
0100
0000
0001
0000
,  // measure 34
0010
0000
0100
0000
1000
0000
0001
0000
1000
0001
0000
0001
1000
0000
0010
0100
,  // measure 35
0001
0110
1001
0110
,  // measure 36
0100
0000
1000
0000
0100
0000
1000
0000
0001
1000
0000
1000
0001
0000
1000
0000
,  // measure 37
0010
0000
0100
0000
0001
0000
0010
0000
0100
0010
0000
0100
0010
0000
0100
0000
,  // measure 38
1000
0000
0001
0000
0100
0000
0010
0000
1000
0001
0000
1000
0001
0000
1000
0000
,  // measure 39
0010
0011
0100
0110
,  // measure 40
1001
0000
1000
0001
1000
0001
1000
0000
0001
1000
0001
1000
0002
0000
0023
0000
,  // measure 41
0030
0000
0100
1000
0100
1000
0100
0000
1000
0100
1000
0100
2000
0000
3200
0000
,  // measure 42
0300
0000
0010
0100
0010
0100
0010
0000
0100
0010
0100
0010
0200
0000
0320
0000
,  // measure 43
1030
0011
1100
1001
,  // measure 44
0110
0000
0010
0100
0010
0100
0010
0000
0100
0010
0100
0010
0200
0000
0320
0000
,  // measure 45
0030
0000
0001
0010
0001
0010
0001
0000
0010
0001
0010
0001
0020
0000
0032
0000
,  // measure 46
0003
0000
1000
0100
0010
0100
1000
0000
0010
0100
1000
0100
0020
0000
0230
0000
,  // measure 47
0301
0010
0100
0010
0001
1000
0020
0000
,  // measure 48
1030
0000
0002
0000
0013
0000
0100
1000
,  // measure 49
0002
0000
0103
0000
0020
0000
1030
0100
,  // measure 50
0020
0031
2000
3010
,  // measure 51
0001
0100
0010
0100
0001
0100
0010
0100
,  // measure 52
0000
0001
0001
1000
0200
0000
1300
0001
,  // measure 53
1000
1000
0010
0100
0002
0000
0013
0100
,  // measure 54
0010
0010
0001
1000
0020
0000
1030
0001
,  // measure 55
0100
0010
2000
0000
3001
0000
0002
0000
,  // measure 56
1003
0000
0001
0010
0001
0010
0001
0000
0010
0001
0010
0001
0020
0000
0230
0000
,  // measure 57
0300
0000
1000
0100
0010
0001
0010
0000
0001
0010
0100
1000
0200
0000
0320
0000
,  // measure 58
0030
0000
0010
0100
0001
0010
0100
0000
0100
0010
0001
0100
0020
0000
0230
0000
,  // measure 59
0301
0010
0100
1000
0001
0100
0020
0000
,  // measure 60
1030
0000
1000
0001
0100
0010
0100
0000
0001
1000
0010
0100
0020
0000
0230
0000
,  // measure 61
0300
0000
0010
0100
0010
0100
0001
0000
0100
0010
0100
0010
2000
0000
3020
0000
,  // measure 62
0030
0000
0001
1000
0100
1000
0010
0000
1000
0001
0010
0001
0200
0000
0320
0000
,  // measure 63
2030
3200
0320
0032
0023
0230
2300
3200
,  // measure 64
0300
0000
0000
0000
;

//---------------dance-single - ----------------
#NOTEDATA:;
#CHARTNAME:;
#STEPSTYPE:dance-single;
#DESCRIPTION:;
#CHARTSTYLE:;
#DIFFICULTY:Medium;
#METER:6;
#RADARVALUES:0.320969,0.373975,0.219555,0.190281,0.000000,307.000000,277.000000,30.000000,26.000000,0.000000,0.000000,0.000000,0.000000,0.000000,0.320969,0.373975,0.219555,0.190281,0.000000,307.000000,277.000000,30.000000,26.000000,0.000000,0.000000,0.000000,0.000000,0.000000;
#CREDIT:Musey's Chart;
#NOTES:
// measure 0
0000
0000
0000
0000
,  // measure 1
0000
0000
0000
0000
,  // measure 2
0000
0000
0000
0000
,  // measure 3
0000
0000
0000
0000
,  // measure 4
0000
0000
0000
0000
,  // measure 5
0000
0000
0000
0000
,  // measure 6
0000
0000
0000
0000
,  // measure 7
0000
0000
0000
0000
,  // measure 8
0100
0000
1000
0000
0100
1000
0100
0000
,  // measure 9
0001
0010
0100
0000
0010
0000
0001
0000
,  // measure 10
2000
3001
0002
1003
,  // measure 11
1100
1001
0001
0001
,  // measure 12
1000
0100
1000
0000
0010
1000
0010
0000
,  // measure 13
0001
0010
0100
0010
0001
0000
1000
0000
,  // measure 14
0020
0130
0002
1003
,  // measure 15
2001
3001
1002
1003
,  // measure 16
0100
1000
0100
1000
0002
0000
0013
0000
,  // measure 17
0200
0310
0002
1003
,  // measure 18
0010
1000
0001
0000
0100
1000
0001
0000
,  // measure 19
0020
0130
0200
0310
,  // measure 20
0110
0110
0001
1000
,  // measure 21
0010
1000
0001
0000
0100
0010
0001
0000
,  // measure 22
2000
3010
0002
0013
,  // measure 23
0100
1000
0001
1000
,  // measure 24
0020
0000
1030
0000
,  // measure 25
0002
0000
0013
0000
,  // measure 26
1100
1100
0001
0001
,  // measure 27
1000
0010
2000
0000
,  // measure 28
3002
0000
0023
0000
,  // measure 29
0230
0000
2300
0000
,  // measure 30
3001
0101
0001
0011
,  // measure 31
0100
0100
0010
0010
,  // measure 32
0001
1000
0001
0000
1000
0000
1001
0000
,  // measure 33
0001
1000
0001
0000
1000
0000
1001
0000
,  // measure 34
1000
0001
1000
0000
0001
0000
1001
0000
,  // measure 35
0010
1000
0100
0000
0010
1000
0100
0000
,  // measure 36
0001
0010
0100
0000
0100
0000
0110
0000
,  // measure 37
0100
0010
0001
0000
0001
0000
0011
0000
,  // measure 38
0100
1000
0001
0000
0001
0000
1010
0000
,  // measure 39
0001
1000
0010
0000
0001
0000
0110
0000
,  // measure 40
0001
1000
0001
0000
0001
0000
1001
0000
,  // measure 41
1000
0001
1000
0000
1000
0000
1001
0000
,  // measure 42
0010
0100
0010
0000
0010
0000
0110
0000
,  // measure 43
0010
0100
0010
0000
0100
0000
0110
0000
,  // measure 44
0001
0010
0100
0010
0001
0000
0011
0000
,  // measure 45
0001
0010
0100
0010
0001
0000
0011
0000
,  // measure 46
0001
0010
0100
0010
0001
0000
0011
0000
,  // measure 47
0100
1000
0001
0000
0010
0000
0010
0000
,  // measure 48
2000
3000
0002
0000
1003
0000
0010
0000
,  // measure 49
1000
0001
0020
0000
0130
0000
0001
0000
,  // measure 50
1000
0010
2000
0000
3001
0000
0100
0000
,  // measure 51
0010
0001
0010
0000
0100
1000
0001
0000
,  // measure 52
0010
0100
0001
0000
0100
1000
0001
0000
,  // measure 53
0100
0010
0001
0000
1000
0010
1000
0000
,  // measure 54
0001
0010
0100
0000
0001
1000
0010
0000
,  // measure 55
0001
0010
0200
0000
1300
0000
0002
0000
,  // measure 56
1003
0010
1000
0001
1000
0000
1100
0000
,  // measure 57
0001
1000
0010
1000
0001
0000
1001
0000
,  // measure 58
0100
0010
0001
0010
0100
0000
0011
0000
,  // measure 59
0100
1000
0001
1000
0010
0100
0001
0000
,  // measure 60
1000
0100
1000
0001
1000
0000
1100
0000
,  // measure 61
0001
0010
0100
0010
0001
0000
1001
0000
,  // measure 62
0010
0100
0001
0010
0100
0000
1001
0000
,  // measure 63
0010
1000
0001
1000
0100
1000
0001
1000
;

//---------------dance-single - ----------------
#NOTEDATA:;
#CHARTNAME:;
#STEPSTYPE:dance-single;
#DESCRIPTION:;
#CHARTSTYLE:;
#DIFFICULTY:Easy;
#METER:3;
#RADARVALUES:0.212237,0.256605,0.000000,0.190281,0.000000,203.000000,203.000000,0.000000,26.000000,0.000000,0.000000,0.000000,0.000000,0.000000,0.212237,0.256605,0.000000,0.190281,0.000000,203.000000,203.000000,0.000000,26.000000,0.000000,0.000000,0.000000,0.000000,0.000000;
#CREDIT:Musey's Chart;
#NOTES:
// measure 0
0000
0000
0000
0000
,  // measure 1
0000
0000
0000
0000
,  // measure 2
0000
0000
0000
0000
,  // measure 3
0000
0000
0000
0000
,  // measure 4
0000
0000
0000
0000
,  // measure 5
0000
0000
0000
0000
,  // measure 6
0000
0000
0000
0000
,  // measure 7
0000
0000
0000
0000
,  // measure 8
0100
0000
1000
0000
0100
1000
0100
0000
,  // measure 9
0001
0000
0010
0000
0001
0010
0001
0000
,  // measure 10
0100
1000
0001
0010
,  // measure 11
1000
1000
0001
0001
,  // measure 12
1000
0000
0100
0000
0010
0100
0010
0000
,  // measure 13
0001
0000
1000
0000
0010
1000
0010
0000
,  // measure 14
1000
1000
0100
0100
,  // measure 15
0001
0001
1000
1000
,  // measure 16
0001
0001
0010
0010
,  // measure 17
0100
0010
0100
0000
1000
0000
1000
0000
,  // measure 18
0001
1000
0001
0010
,  // measure 19
0100
0100
0010
0010
,  // measure 20
0001
0000
1000
0000
0001
1000
0001
0000
,  // measure 21
1000
0100
0010
0001
,  // measure 22
1000
1000
0010
0010
,  // measure 23
0001
0001
0100
0100
,  // measure 24
2000
0000
3100
0000
,  // measure 25
0002
0000
0013
0000
,  // measure 26
0100
0100
1000
1000
,  // measure 27
0020
0000
1030
0000
,  // measure 28
0002
0000
0013
0000
,  // measure 29
0200
0000
1300
0000
,  // measure 30
2000
0000
3100
0000
,  // measure 31
0001
1000
0001
1000
,  // measure 32
0010
0010
2000
3010
,  // measure 33
0001
0001
0020
0031
,  // measure 34
0100
0100
2000
3100
,  // measure 35
0002
1003
2000
3001
,  // measure 36
0010
0010
2000
3010
,  // measure 37
0001
0001
0020
0031
,  // measure 38
0100
0100
2000
3001
,  // measure 39
0002
1003
0002
1003
,  // measure 40
0001
0001
1000
1000
,  // measure 41
0001
0001
1000
1000
,  // measure 42
0001
0001
1000
1000
,  // measure 43
0100
0010
0200
0310
,  // measure 44
0001
0001
0010
0010
,  // measure 45
0001
0001
0010
0010
,  // measure 46
0001
0001
0010
0010
,  // measure 47
0001
0010
0002
0013
,  // measure 48
0200
0000
1300
0000
,  // measure 49
0002
0000
1003
0000
,  // measure 50
0020
0000
1030
0000
,  // measure 51
0200
0000
0310
0000
,  // measure 52
0002
0000
0000
0000
1000
0003
0000
0000
,  // measure 53
2000
0000
3001
0000
,  // measure 54
0020
0000
0130
0000
,  // measure 55
0002
0000
1003
0000
,  // measure 56
1000
0001
1000
0001
,  // measure 57
0010
0010
0001
0001
,  // measure 58
0010
0100
0010
0010
,  // measure 59
0001
1000
0010
1000
,  // measure 60
0100
0100
1000
1000
,  // measure 61
0100
0100
1000
1000
,  // measure 62
0100
0100
1000
1000
,  // measure 63
0001
0000
1000
0000
0001
1000
0001
0000
;

//---------------dance-single - ----------------
#NOTEDATA:;
#CHARTNAME:;
#STEPSTYPE:dance-single;
#DESCRIPTION:;
#CHARTSTYLE:;
#DIFFICULTY:Beginner;
#METER:1;
#RADARVALUES:0.122324,0.162654,0.000000,0.014637,0.000000,117.000000,117.000000,0.000000,2.000000,0.000000,0.000000,0.000000,0.000000,0.000000,0.122324,0.162654,0.000000,0.014637,0.000000,117.000000,117.000000,0.000000,2.000000,0.000000,0.000000,0.000000,0.000000,0.000000;
#CREDIT:Musey's Chart;
#NOTES:
// measure 0
0000
0000
0000
0000
,  // measure 1
0000
0000
0000
0000
,  // measure 2
0000
0000
0000
0000
,  // measure 3
0000
0000
0000
0000
,  // measure 4
0000
0000
0000
0000
,  // measure 5
0000
0000
0000
0000
,  // measure 6
0000
0000
0000
0000
,  // measure 7
0000
0000
0000
0000
,  // measure 8
1000
0000
0010
0000
,  // measure 9
0100
0000
1000
0000
,  // measure 10
0002
0000
0000
0000
,  // measure 11
1003
0000
0000
0000
,  // measure 12
0010
0000
1000
0000
,  // measure 13
0100
0000
1000
0000
,  // measure 14
0002
0000
0000
0000
,  // measure 15
1003
0000
0000
0000
,  // measure 16
0100
0000
0100
0000
,  // measure 17
0100
0000
0000
0000
,  // measure 18
1000
0000
1000
0000
,  // measure 19
1000
0000
0000
0000
,  // measure 20
0001
0000
0010
0000
,  // measure 21
0001
0000
0000
0000
,  // measure 22
0100
0000
1000
0000
,  // measure 23
0100
0000
0000
0000
,  // measure 24
0001
0000
0000
0000
,  // measure 25
0010
0000
0000
0000
,  // measure 26
1000
0000
1000
0000
,  // measure 27
0100
0000
0000
0000
,  // measure 28
1000
0000
0000
0000
,  // measure 29
0010
0000
0000
0000
,  // measure 30
0001
0000
0001
0000
,  // measure 31
0100
0000
0100
0000
,  // measure 32
1000
1000
0010
0000
,  // measure 33
0100
0010
0100
0000
,  // measure 34
0001
1000
0001
0000
,  // measure 35
0010
0000
0100
0000
,  // measure 36
0001
1000
0001
0000
,  // measure 37
0010
0001
0010
0000
,  // measure 38
0100
1000
0100
0000
,  // measure 39
0001
0000
0010
0000
,  // measure 40
0100
0100
1000
0000
,  // measure 41
0100
0100
0010
0000
,  // measure 42
0100
0100
0001
0000
,  // measure 43
1000
0000
0001
0000
,  // measure 44
0010
0010
0100
0000
,  // measure 45
0001
1000
0001
0000
,  // measure 46
0010
1000
0010
0000
,  // measure 47
0100
0000
0100
0000
,  // measure 48
1000
0000
1000
0000
,  // measure 49
0001
0000
0001
0000
,  // measure 50
0010
0000
0010
0000
,  // measure 51
1000
0000
1000
0000
,  // measure 52
0100
0000
1000
0000
,  // measure 53
0010
0000
0001
0000
,  // measure 54
0100
0000
1000
0000
,  // measure 55
1000
0000
0010
0000
,  // measure 56
1000
1000
0010
0000
,  // measure 57
0100
1000
0100
0000
,  // measure 58
0001
0100
0001
0000
,  // measure 59
1000
0000
1000
0000
,  // measure 60
0010
1000
0010
0000
,  // measure 61
0100
0001
0100
0000
,  // measure 62
0001
1000
0010
0000
,  // measure 63
0100
0000
0100
0000
;
