#VERSION:0.83;
#TITLE:Sayonara Heaven;
#SUBTITLE:;
#ARTIST:Nekomata Master;
#TITLETRANSLIT:;
#SUBTITLETRANSLIT:;
#ARTISTTRANSLIT:;
#GENRE:;
#ORIGIN:;
#CREDIT:;
#BANNER:AV.avi;
#BACKGROUND:BG.png;
#PREVIEWVID:;
#JACKET:jacket.png;
#CDIMAGE:;
#DISCIMAGE:;
#LYRICSPATH:;
#CDTITLE:;
#MUSIC:audio.mp3;
#OFFSET:-0.400000;
#SAMPLESTART:69.239998;
#SAMPLELENGTH:15.000000;
#SELECTABLE:YES;
#DISPLAYBPM:111.000000;
#BPMS:0.000=55.500,
8.500=111.000,
19.500=55.500,
20.000=111.000,
118.000=55.500,
119.000=111.000;
#STOPS:;
#DELAYS:;
#WARPS:;
#TIMESIGNATURES:0.000=4=4;
#TICKCOUNTS:0.000=4;
#COMBOS:0.000=1;
#SPEEDS:0.000=1.000=0.000=0;
#SCROLLS:0.000=1.000;
#FAKES:;
#LABELS:0.000=Song Start;
#BGCHANGES:1.000=Sayonara Heaven.avi=1.000=1=1=1=StretchRewind==CrossFade==,
99999=-nosongbg-=1.000=0=0=0 // don't automatically add -songbackground-
;
#KEYSOUNDS:;
#ATTACKS:
;

//---------------dance-single - Copied from----------------
#NOTEDATA:;
#CHARTNAME:Copied from;
#STEPSTYPE:dance-single;
#DESCRIPTION:Copied from;
#CHARTSTYLE:;
#DIFFICULTY:Hard;
#METER:11;
#RADARVALUES:0.479563,0.529542,0.128495,0.530044,0.289115,418.000000,402.000000,16.000000,66.000000,0.000000,0.000000,0.000000,0.000000,0.000000,0.479563,0.529542,0.128495,0.530044,0.289115,418.000000,402.000000,16.000000,66.000000,0.000000,0.000000,0.000000,0.000000,0.000000;
#CREDIT:Copied from;
#DISPLAYBPM:111.000000;
#NOTES:
0000
0000
0000
0000
,
0000
0000
0000
0000
,
0000
0000
0000
0000
,
0000
0000
0000
0000
,
0000
0000
0000
0000
,
0110
0000
0000
0001
0100
0000
0001
0000
0010
0000
0000
0010
0001
0000
0010
0000
,
0100
0000
0000
0100
1000
0000
0100
0000
0010
0000
0100
0000
1000
0000
0001
0000
,
0010
0000
0000
0100
0010
0000
0001
0000
0001
0000
0000
0000
0010
0000
0100
0000
,
2000
3020
0230
0302
2003
3200
0320
0032
,
1003
0000
0000
0001
0100
0000
0010
0100
0010
0000
0000
0010
0100
0000
0010
0000
,
0100
0000
0000
1000
0010
0000
1000
0000
0010
0000
0000
0100
0010
0000
0100
0000
,
0001
0000
0000
0010
1000
0000
1000
0000
0100
0000
0000
0100
1000
0000
1000
0001
,
0020
0000
0032
0000
0023
0000
0230
0000
0310
0000
0000
0001
1000
0000
0001
0000
,
1001
1000
0010
1000
0001
0010
0200
0320
,
0032
0203
0320
2030
3002
1003
0010
0100
,
0001
0000
0000
0010
1000
0000
0010
0000
0100
0000
1000
0000
0100
0000
0010
0000
,
0100
0000
0010
0000
0010
0000
0100
0000
0001
0000
0000
0000
0001
0000
0100
0010
,
0100
0000
0000
0010
0000
0000
1000
0000
0001
0000
1000
0000
2000
0000
3002
0000
,
0023
0230
0320
0230
2300
3001
1000
0010
,
0010
0000
0000
0000
1001
0000
0010
0000
0100
0000
0000
0010
0000
0000
1000
0000
,
0100
0000
0010
0000
0010
0000
0001
0000
1000
0000
0000
1000
0100
0000
0000
0000
,
1001
0001
0100
0010
0100
1000
0001
1000
,
0100
0000
0010
0000
1000
0000
0001
0000
0010
0000
0001
0000
0001
0000
1000
0001
,
2000
0000
0000
0000
0000
0000
3020
0000
0000
0000
0000
0000
0230
0000
0000
0000
0302
0000
0000
0000
0000
0003
0010
0000
0200
0000
0000
0000
2300
0000
0000
0000
,
3002
0000
0000
0000
0100
0000
0000
0000
1003
0000
0000
0000
0001
0000
1000
0100
,
2000
0000
0000
3200
0000
0000
0320
0000
0032
0000
1003
0000
1001
0000
0001
1000
,
0002
0000
0000
0203
0000
0000
0310
0000
2000
0000
3010
0000
1010
0000
0100
0001
,
0100
0000
0000
0100
0000
0000
0010
0000
1000
0000
0000
1000
0001
0000
0010
0000
,
0002
0000
0100
0000
1000
0000
0100
0103
,
0010
0000
0000
0000
0000
0000
0000
0000
0000
0000
0000
0000
0000
0000
0000
0000
0100
0000
0000
0000
0000
0000
0000
0000
0000
0000
0000
0000
0000
0000
0000
0000
0010
0000
0000
0000
0000
0000
0000
0000
0000
0000
0000
0000
0000
0000
0000
0000
0000
0000
0000
0000
0000
0000
0000
0000
0000
0000
0000
0000
0000
0000
0000
0000
0100
0000
0000
0000
0000
0000
0000
0000
0000
0000
0000
0000
0000
0000
0000
0000
0010
0000
0000
0000
0000
0000
0000
0000
0000
0000
0000
0000
0000
0000
0000
0000
0100
0000
0000
0000
0000
0000
0000
0000
0000
0000
0000
0000
0000
0000
0000
0000
0000
0000
0001
0000
0000
0000
0000
0000
1000
0000
0000
0000
0000
0000
0000
0000
0000
0000
0000
0000
0001
0000
0000
0000
0000
0000
0000
0000
0000
0000
0000
0000
1001
0000
0000
0000
0000
0000
0000
0000
0000
0000
0000
0000
0000
0000
0000
0000
0000
0000
0000
0000
0000
0000
0000
0000
0000
0000
0000
0000
0000
0000
0000
0000
0000
0000
0000
0000
0100
0000
0000
0000
0000
0000
0000
0000
0000
0000
0000
0000
,
0010
0000
0100
0000
0001
0000
1000
0001
1000
0000
0010
0000
0100
0000
0010
0100
,
0010
0000
1000
0000
0001
0000
0000
0100
0001
0000
1000
0000
0001
0000
0010
0001
,
0010
0100
1000
0002
2003
3020
2030
3200
,
0320
0000
0032
0000
2003
0000
3000
0010
0100
0000
0100
0000
0001
0000
1000
0100
,
1000
0000
0001
0000
0100
0000
0001
0100
0010
0000
1000
0000
0001
0000
1000
0001
,
1000
0000
0100
0000
0010
0000
0001
0000
0010
0000
0100
0000
0010
0000
0001
1000
,
0001
0100
0010
2000
3002
2003
3200
2300
,
3002
0000
2003
0000
3200
0000
0300
1000
0001
0000
0100
0000
0110
0000
0000
1000
,
0001
0000
0010
0000
0100
0000
0010
0001
1000
0000
0010
0000
0100
0000
0001
1000
,
0001
0000
0100
0000
0001
0000
0000
0100
0010
0000
1000
0000
0001
0000
0010
0100
,
1000
0100
1000
0002
2003
3020
2030
3200
,
0320
0000
0032
0000
2003
0000
3000
0000
0001
0000
0100
0000
0110
0000
0000
0010
,
1000
0000
0001
0000
0101
0000
0000
0100
0010
0000
1000
0000
1001
0000
0000
0001
,
1000
0010
0110
1000
0010
0100
0001
1000
,
0001
0000
0100
0000
0101
0000
0001
0000
1001
0000
1000
0000
1001
0000
0001
0100
,
0010
0000
0100
0000
0010
0000
1000
0001
1000
0000
0001
0000
0100
0000
0010
1000
,
0010
0000
1000
0000
0010
0000
0100
0000
1000
0000
0100
0000
0010
0000
1000
0001
,
0010
0000
0001
0000
1000
0000
0010
0100
0010
0000
1000
0001
1000
0000
0001
0000
,
0010
0000
0100
0000
1000
0000
0100
1000
0100
0000
1000
0000
0001
0000
0100
0010
,
0100
0000
0010
0100
0010
0000
1000
0001
0100
0000
0001
0000
1000
0000
0010
0100
,
0001
0000
0100
0000
0001
0000
1000
0001
0100
0000
0001
0010
0001
0000
0001
1000
,
0100
0000
1000
0000
0001
0000
0100
0001
1000
0000
0001
0010
0001
0010
0100
1000
,
0100
0000
1000
0000
1100
0000
0000
0001
0200
0000
0000
0000
0300
0000
0000
0000
;

//---------------dance-single - Copied from Copied f----------------
#NOTEDATA:;
#CHARTNAME:Copied from Copied f;
#STEPSTYPE:dance-single;
#DESCRIPTION:Copied from Copied f;
#CHARTSTYLE:;
#DIFFICULTY:Medium;
#METER:6;
#RADARVALUES:0.359099,0.338907,0.088341,0.080310,0.044170,313.000000,302.000000,11.000000,10.000000,0.000000,0.000000,0.000000,0.000000,0.000000,0.359099,0.338907,0.088341,0.080310,0.044170,313.000000,302.000000,11.000000,10.000000,0.000000,0.000000,0.000000,0.000000,0.000000;
#CREDIT:Copied from Copied f;
#DISPLAYBPM:111.000000;
#NOTES:
// measure 0
0000
0000
0000
0000
,  // measure 1
0000
0000
0000
0000
,  // measure 2
0000
0000
0000
0000
,  // measure 3
0000
0000
0000
0000
,  // measure 4
0000
0000
0000
0000
,  // measure 5
0110
0000
0100
0001
1000
0000
1000
0001
,  // measure 6
0010
0000
0010
0001
0010
0100
1000
0100
,  // measure 7
0010
0000
0010
0001
0100
0000
0100
0001
,  // measure 8
1000
0000
1000
0001
0010
0100
1000
0100
,  // measure 9
0010
0000
0010
0001
1000
0000
1000
0010
,  // measure 10
0100
0000
0100
0001
1000
0000
1000
0001
,  // measure 11
0100
0000
0100
0010
1000
0000
1000
0100
,  // measure 12
1000
0100
0010
0001
1000
0000
0001
1000
,  // measure 13
0001
0000
1000
0001
0100
0001
1000
0001
,  // measure 14
1000
0010
0100
1000
0100
0010
1000
0000
,  // measure 15
1001
0000
0001
0100
0010
0000
0010
0000
,  // measure 16
0100
0000
0010
0100
0001
0000
1000
0100
,  // measure 17
0010
0000
0001
0000
1000
0010
0100
1000
,  // measure 18
0100
0010
1000
0001
1000
0100
0010
0001
,  // measure 19
1000
0000
1001
0000
0100
0000
0100
0010
,  // measure 20
0100
0000
0010
1000
0001
0000
1000
0001
,  // measure 21
1001
0000
0000
1000
0000
0000
0010
0000
0100
0000
0001
0000
0001
0000
0000
0000
,  // measure 22
0100
0000
0000
0100
0000
0000
0010
0000
0100
0000
0001
0000
1000
0000
0100
0000
,  // measure 23
0010
0000
0000
0010
0000
0000
0001
0000
1000
0000
0000
0000
0200
0000
0320
0000
,  // measure 24
0230
0000
0001
0000
0301
0000
0100
0010
,  // measure 25
1010
0000
0000
1000
0000
0000
0001
0000
1000
0000
0010
0000
0010
0000
0100
0000
,  // measure 26
0001
0000
0000
0001
0000
0000
1000
0000
0010
0000
0100
0000
0100
0000
0010
0000
,  // measure 27
1000
0000
0000
1000
0000
0000
0001
0000
0010
0000
0000
0000
0100
0000
0010
0000
,  // measure 28
0002
0000
0100
0000
0100
0000
0103
0100
,  // measure 29
1001
0000
0000
0000
0110
0000
0000
0000
0000
1001
0000
0000
,  // measure 30
0100
0001
1000
0000
1000
0010
0100
0000
,  // measure 31
0100
0010
1000
0010
0100
0001
1000
0000
,  // measure 32
0100
1000
0100
0010
0001
0010
0100
1000
,  // measure 33
0100
0010
0001
0000
0100
0010
0100
0000
,  // measure 34
0001
0010
0100
0000
1000
0100
0010
0001
,  // measure 35
0010
0100
1000
0000
0001
0010
0001
0000
,  // measure 36
1000
0100
0010
0001
0010
0100
0010
0001
,  // measure 37
1000
0001
0100
0000
1001
0000
1001
0000
,  // measure 38
0100
0010
0100
0000
0001
0100
0010
0100
,  // measure 39
1000
0100
0010
0000
0010
1000
0001
0000
,  // measure 40
1000
0100
0010
0001
1000
0100
0010
0100
,  // measure 41
1000
0000
0001
0000
0010
0000
0000
0000
0001
0000
1000
0000
1010
0000
0000
0010
,  // measure 42
0000
0000
0010
0000
0100
0000
0000
0100
0000
0000
0100
0000
0001
0000
0000
0001
,  // measure 43
0000
0001
0200
0000
0320
0000
2030
0000
,  // measure 44
3100
0010
0100
1000
0100
0010
0001
0000
,  // measure 45
0001
1000
0010
0000
0010
0100
0001
0000
,  // measure 46
0001
1000
0100
0010
0001
1000
0010
0000
,  // measure 47
0010
0100
0001
0000
0001
1000
0010
1000
,  // measure 48
0010
0100
1000
0100
0010
1000
0001
0000
,  // measure 49
1000
0100
0010
0000
0001
0100
0010
0000
,  // measure 50
0100
0001
0100
0010
1000
0010
1000
0000
,  // measure 51
0010
1000
0020
0000
2030
0000
3001
1000
,  // measure 52
0010
0000
0100
0000
0010
0000
0000
0100
0020
0000
0000
0000
0030
0000
0000
0000
;

//---------------dance-single - Copied from Copied f----------------
#NOTEDATA:;
#CHARTNAME:Copied from Copied f;
#STEPSTYPE:dance-single;
#DESCRIPTION:Copied from Copied f;
#CHARTSTYLE:;
#DIFFICULTY:Easy;
#METER:4;
#RADARVALUES:0.156030,0.210813,0.000000,0.024093,0.000000,136.000000,136.000000,0.000000,3.000000,0.000000,0.000000,0.000000,0.000000,0.000000,0.156030,0.210813,0.000000,0.024093,0.000000,136.000000,136.000000,0.000000,3.000000,0.000000,0.000000,0.000000,0.000000,0.000000;
#CREDIT:Copied from Copied f;
#DISPLAYBPM:111.000000;
#NOTES:
0000
1000
0000
0000
0000
1000
0000
0000
,
0000
0100
0000
0000
0000
0001
0000
0000
,
0000
1000
0000
0000
0000
0100
0000
0000
,
0000
0010
0000
0000
0000
0001
0000
0000
,
0000
0100
0000
0000
0000
1000
0000
0000
,
1000
0000
0100
0000
,
0001
0000
0010
0000
,
0100
0000
1000
0000
,
0001
0001
0001
0000
,
0100
0000
1000
0000
,
0001
0000
0100
0000
,
0010
0000
1000
0000
,
0001
0000
0000
0000
,
0001
0000
0001
0000
,
1000
1000
1000
0000
,
0100
0000
0010
0000
,
0100
0100
0100
0000
,
0001
0000
1000
0000
,
0100
0000
0100
0000
,
0010
0000
0001
0000
,
1000
1000
1000
0000
,
0100
0100
0100
0000
,
0010
0010
0010
0000
,
0001
0001
0001
0000
,
2000
0000
0002
3003
,
0100
0100
0100
0000
,
0010
0010
0010
0000
,
0001
0000
1000
0000
,
0100
0000
0010
0000
,
1000
1000
2000
3001
,
0000
0001
0000
0100
,
0000
0100
0000
0010
,
0000
0010
0000
1000
,
0100
0010
0000
0001
,
0000
1000
0000
0100
,
0000
0010
0000
0001
,
0000
1000
0000
0100
,
0010
0100
0000
1000
,
1000
1000
0000
0100
,
0100
0100
0000
0010
,
0010
0010
0000
0001
,
1000
0001
0000
0100
,
0100
0100
0000
0010
,
0010
0010
0000
1000
,
1000
1000
0000
0001
,
0100
0001
0000
1000
,
0001
1000
0000
0100
,
0010
0100
0000
0001
,
1000
0001
0000
0100
,
1000
0100
0000
0010
,
0001
0010
0000
0100
,
1000
0000
0010
0000
0001
0000
0100
1000
,
0010
0001
0100
0000
0100
0000
0000
0000
;

//---------------dance-single - Copied from Copied f----------------
#NOTEDATA:;
#CHARTNAME:Copied from Copied f;
#STEPSTYPE:dance-single;
#DESCRIPTION:Copied from Copied f;
#CHARTSTYLE:;
#DIFFICULTY:Beginner;
#METER:2;
#RADARVALUES:0.114728,0.168650,0.000000,0.008031,0.000000,100.000000,100.000000,0.000000,1.000000,0.000000,0.000000,0.000000,0.000000,0.000000,0.114728,0.168650,0.000000,0.008031,0.000000,100.000000,100.000000,0.000000,1.000000,0.000000,0.000000,0.000000,0.000000,0.000000;
#CREDIT:Copied from Copied f;
#DISPLAYBPM:111.000000;
#NOTES:
0000
1000
0000
0000
0000
1000
0000
0000
,
0000
0100
0000
0000
0000
0001
0000
0000
,
0000
1000
0000
0000
0000
0100
0000
0000
,
0000
0010
0000
0000
0000
0001
0000
0000
,
0000
0100
0000
0000
0000
1000
0000
0000
,
1000
0000
0000
0000
,
0001
0000
0000
0000
,
0100
0000
1000
0000
,
0001
0000
0001
0000
,
0100
0000
0000
0000
,
0001
0000
0100
0000
,
0000
0000
1000
0000
,
0001
0000
0000
0000
,
0000
0000
0001
0000
,
1000
0000
1000
0000
,
0100
0000
0010
0000
,
0100
0000
0100
0000
,
0001
0000
1000
0000
,
0000
0000
0100
0000
,
0010
0000
0001
0000
,
1000
0000
1000
0000
,
0100
0000
0100
0000
,
0010
0000
0010
0000
,
0001
0000
0001
0000
,
1000
0000
0001
0000
,
0100
0000
0100
0000
,
0010
0000
0010
0000
,
0001
0000
0000
0000
,
0100
0000
0000
0000
,
1000
0000
2000
3000
,
0000
0001
0000
0100
,
0000
0100
0000
0010
,
0000
0010
0000
1000
,
0000
0010
0000
0001
,
0000
1000
0000
0100
,
0000
0010
0000
0001
,
0000
1000
0000
0100
,
0000
0100
0000
1000
,
0000
1000
0000
0100
,
0000
0100
0000
0010
,
0000
0010
0000
0001
,
0000
0001
0000
0100
,
0000
0100
0000
0010
,
0000
0010
0000
1000
,
0000
1000
0000
0001
,
0000
0001
0000
1000
,
0000
1000
0000
0100
,
0000
0100
0000
0001
,
0000
0001
0000
0100
,
0000
0100
0000
0010
,
0000
0010
0000
0100
,
1000
0010
0001
0100
,
0010
0100
0100
0000
;
