#TITLE:SMILEY;
#SUBTITLE:;
#ARTIST:Yena, Bibi;
#TITLETRANSLIT:;
#SUBTITLETRANSLIT:;
#ARTISTTRANSLIT:;
#GENRE:;
#CREDIT:;
#BANNER:AV.avi;
#BACKGROUND:bg.png;
#LYRICSPATH:;
#CDTITLE:;
#MUSIC:audio.ogg;
#OFFSET:-0.118000;
#SAMPLESTART:36.801971;
#SAMPLELENGTH:14.999999;
#SELECTABLE:YES;
#BPMS:0.000000=156.000000
;
#STOPS:
;
#BGCHANGES:0.000=MV.avi=1.000=1=0=1===CrossFade==,
99999=-nosongbg-=1.000=0=0=0 // don't automatically add -songbackground-
;
#KEYSOUNDS:;
#ATTACKS:;

//---------------dance-single - ----------------
#NOTES:
     dance-single:
     :
     Hard:
     12:
     0.516928,0.567564,0.287044,1.226460,0.026095,416.000000,383.000000,33.000000,141.000000,0.000000,0.000000,0.516928,0.567564,0.287044,1.226460,0.026095,416.000000,383.000000,33.000000,141.000000,0.000000,0.000000:
// measure 0
0000
0000
0000
0000
,  // measure 1
0000
0000
0000
0000
,  // measure 2
0000
0000
0000
0000
,  // measure 3
0000
0000
0000
0000
,  // measure 4
0000
0000
0000
0000
1000
0100
2000
0000
,  // measure 5
3001
0010
0002
0000
1003
0001
2000
0000
,  // measure 6
3001
0010
0200
0000
1300
0100
0010
0001
,  // measure 7
2000
0000
3001
0010
0100
1000
0010
0000
,  // measure 8
0002
0000
1003
0000
1000
0100
0020
0030
,  // measure 9
0001
0010
0200
0300
1000
0010
1000
0001
,  // measure 10
0010
0100
0020
0000
0031
0000
0001
1000
,  // measure 11
0002
0000
1003
0010
0000
0010
1000
0000
,  // measure 12
0002
0000
0013
0000
0001
0010
0012
0000
,  // measure 13
0013
0100
2100
0000
3100
0010
0001
1000
,  // measure 14
0001
0010
0002
0003
1000
0100
0010
0100
,  // measure 15
2000
0000
3001
0010
0100
0010
0001
0000
,  // measure 16
0010
0000
0001
0000
0020
0000
0000
0030
0010
0000
0002
0000
0000
0003
0001
0000
,  // measure 17
0020
0000
0000
0030
0010
0000
0200
0000
0000
0300
0100
0000
1000
0000
0010
0000
,  // measure 18
2000
3000
0010
0100
1000
0010
1000
0001
,  // measure 19
1000
0010
0200
0000
0301
0000
1000
0010
,  // measure 20
1000
0000
0002
0003
2000
3000
0200
0300
,  // measure 21
0020
0030
0002
0003
2000
3000
0020
0030
,  // measure 22
0200
0300
0002
0003
2000
3000
0020
0030
,  // measure 23
2000
3000
0002
0000
0000
0000
0013
0000
,  // measure 24
1000
0000
2100
0000
3100
0010
0001
1000
,  // measure 25
0100
0010
0022
0033
0022
0033
0022
0033
,  // measure 26
2000
3000
1002
0000
0013
0100
1000
0010
,  // measure 27
1000
0100
0020
0030
0020
0030
0200
0300
,  // measure 28
1000
0010
2000
0000
3100
1000
0001
1000
,  // measure 29
0200
0000
0310
0001
0010
0001
2000
3000
,  // measure 30
2002
3003
0010
0100
1000
0001
1000
0010
,  // measure 31
0100
0010
2000
0000
3100
0000
0101
0000
,  // measure 32
0002
0003
2002
3003
0010
1000
0100
1000
,  // measure 33
0001
0010
0220
0330
0220
0330
0220
0330
,  // measure 34
0002
0003
2020
3030
1000
0100
0010
0001
,  // measure 35
1000
0010
2000
0000
3200
0000
0310
0001
,  // measure 36
1000
0010
2000
0000
3100
1000
0100
0010
,  // measure 37
0002
0000
0013
0001
0010
0100
2000
3000
,  // measure 38
2200
3300
1000
0010
1000
0100
0010
0001
,  // measure 39
1000
0010
2000
0000
3100
0000
0002
0000
,  // measure 40
0013
0000
0000
0000
0011
0000
0002
0000
0000
0003
0001
0000
0020
0000
0000
0030
,  // measure 41
0010
0000
0200
0000
0000
0300
0100
0000
0100
0000
1000
0000
0010
0000
0100
0000
,  // measure 42
0002
0000
0003
0000
1000
0000
0200
0000
0000
0300
0100
0000
2000
0000
0000
3000
,  // measure 43
1000
0000
0020
0000
0000
0030
0010
0000
0010
0000
1000
0000
0001
0000
0010
0000
,  // measure 44
0002
0000
0003
0000
1000
0000
0000
0000
0010
2000
0000
3000
1000
0200
0000
0300
,  // measure 45
0100
0020
0000
0030
0001
0000
1000
0000
2000
0000
0000
0000
3200
0000
0000
0000
,  // measure 46
0320
0000
0000
0000
0031
0000
0000
0000
1000
0002
0000
0003
0010
0002
0000
0003
,  // measure 47
0100
0002
0000
0003
1000
0000
0100
0000
0100
0000
0000
0000
1000
0000
0000
0000
,  // measure 48
0010
0000
1010
0000
0001
0010
0002
0000
,  // measure 49
0013
0001
0020
0000
0130
1000
0010
0000
,  // measure 50
2010
0000
3010
0000
0010
0001
2000
0000
,  // measure 51
3100
1000
0002
0000
0013
0001
2000
3000
,  // measure 52
1010
0000
0200
0000
0300
0100
1000
0010
,  // measure 53
0000
0000
1000
0000
0000
1000
0001
0010
,  // measure 54
0000
0002
0000
0203
,  // measure 55
0000
0302
0000
0023
,  // measure 56
0230
0000
0320
0000
0030
0001
0010
0100
,  // measure 57
1000
0010
2000
3000
2000
3000
2000
3000
,  // measure 58
0010
0000
2010
0000
3001
0010
0100
0001
,  // measure 59
0010
0100
0002
0000
2003
0000
3020
0000
,  // measure 60
2030
3000
2010
3000
1000
0001
1000
0010
,  // measure 61
2000
0000
3100
0010
0100
1000
0002
0003
,  // measure 62
2002
3003
0001
1000
0100
1000
0010
0100
,  // measure 63
0001
1000
0002
0000
0013
0000
0100
0000
,  // measure 64
2002
3003
2001
0000
3001
1000
0010
0100
,  // measure 65
0001
0010
0220
0330
0220
0330
0220
0330
,  // measure 66
2000
3000
1020
0000
1030
0001
1000
0100
,  // measure 67
1000
0010
0200
0000
0302
0000
0013
0001
,  // measure 68
1000
0010
2000
0000
3100
0010
0001
0010
,  // measure 69
0022
0033
0011
0100
1000
0010
2020
3030
,  // measure 70
2020
3030
1000
0100
1000
0010
1000
0001
,  // measure 71
0010
0100
2000
0000
3010
0000
0002
0000
,  // measure 72
0013
2002
3003
0000
;

//---------------dance-single - ----------------
#NOTES:
     dance-single:
     :
     Medium:
     7:
     0.360358,0.409907,0.078285,0.608881,0.000000,290.000000,281.000000,9.000000,70.000000,0.000000,0.000000,0.360358,0.409907,0.078285,0.608881,0.000000,290.000000,281.000000,9.000000,70.000000,0.000000,0.000000:
// measure 0
0000
0000
0000
0000
,  // measure 1
0000
0000
0000
0000
,  // measure 2
0000
0000
0000
0000
,  // measure 3
0000
0000
0000
0000
,  // measure 4
0000
0000
0000
0000
1000
0010
1000
0000
,  // measure 5
0001
1000
0001
0000
0010
0001
0010
0000
,  // measure 6
0001
0000
1000
0000
0010
1000
0010
0000
,  // measure 7
2000
3010
0010
1000
,  // measure 8
2000
0000
3010
0000
1000
0100
1000
0000
,  // measure 9
0100
1000
0100
0000
1000
0000
0010
0000
,  // measure 10
1000
0001
1000
0020
,  // measure 11
1030
0001
0010
0200
,  // measure 12
1300
0000
0010
0000
1000
0001
1000
0000
,  // measure 13
0010
1000
0010
0000
1000
0001
1000
0000
,  // measure 14
0100
0010
1000
0001
,  // measure 15
2000
3001
0010
0001
,  // measure 16
1000
0001
1000
0001
,  // measure 17
0010
0001
1000
0001
,  // measure 18
0100
0000
0010
0000
1000
0000
0100
1000
,  // measure 19
0100
0020
0031
0002
,  // measure 20
1003
0000
2000
0000
0000
3000
0020
0000
,  // measure 21
0000
2030
0000
3002
,  // measure 22
0000
0013
0001
0010
,  // measure 23
0100
2000
0000
3000
,  // measure 24
0010
2000
3001
0010
,  // measure 25
0100
0000
0002
0003
0002
0003
0002
0003
,  // measure 26
1000
0020
1030
0100
,  // measure 27
1000
0000
0001
0000
0010
0000
0100
0010
,  // measure 28
0100
2000
3001
0020
,  // measure 29
0130
0002
0013
0001
,  // measure 30
1001
0000
1000
0100
2000
0000
3010
1000
,  // measure 31
0020
1030
0001
0010
,  // measure 32
0001
0002
1003
0100
,  // measure 33
1000
0000
0020
0030
0020
0030
0020
0030
,  // measure 34
0100
0000
0002
0000
1003
0000
0010
1000
,  // measure 35
0010
1000
0100
0010
,  // measure 36
0001
2000
3001
0001
,  // measure 37
0102
0103
0010
1010
,  // measure 38
0020
1030
0001
0010
,  // measure 39
0100
0000
1000
0100
2000
0000
3001
1000
,  // measure 40
0002
0023
0000
0230
,  // measure 41
0000
1300
1000
0020
,  // measure 42
0000
2030
0000
3002
,  // measure 43
0000
0013
0010
0200
,  // measure 44
0000
1300
1000
0020
,  // measure 45
1030
0001
0010
0200
,  // measure 46
1300
0010
1000
0002
,  // measure 47
0013
1000
0001
0002
,  // measure 48
0000
0000
0013
0000
0001
0010
0002
0000
,  // measure 49
0013
0001
0020
0000
0031
0000
1000
0000
,  // measure 50
0010
0000
1000
0000
0100
1000
0020
0000
,  // measure 51
1030
0010
2000
0000
3010
0000
1000
0000
,  // measure 52
0001
0020
0000
0032
,  // measure 53
0000
2003
0000
3020
,  // measure 54
0000
0230
0000
0302
,  // measure 55
0000
0023
0000
0031
,  // measure 56
1000
0002
0003
0010
,  // measure 57
0100
0000
2000
3000
2000
3000
2000
3000
,  // measure 58
0010
2010
3001
0010
,  // measure 59
0100
0000
1000
0001
1000
0000
0010
1000
,  // measure 60
0010
2000
3001
0010
,  // measure 61
0012
0013
0100
1100
,  // measure 62
1100
0000
0010
0000
1000
0000
0001
1000
,  // measure 63
0001
0010
0100
1000
,  // measure 64
0010
0000
1020
0000
1030
0000
0001
0010
,  // measure 65
0001
0000
0020
0030
0020
0030
0020
0030
,  // measure 66
1000
0000
0002
0000
0013
0000
0100
1000
,  // measure 67
0100
0000
1000
0000
0010
0000
1000
0001
,  // measure 68
1000
0000
0002
0000
0013
0000
0100
0010
,  // measure 69
0200
1300
0010
1000
,  // measure 70
2020
3030
1000
0001
1000
0000
0001
0010
,  // measure 71
0100
0000
0010
0001
1000
0000
0010
0000
,  // measure 72
1000
0002
0003
0000
;

//---------------dance-single - ----------------
#NOTES:
     dance-single:
     :
     Easy:
     4:
     0.214972,0.251381,0.000000,0.313139,0.000000,173.000000,173.000000,0.000000,36.000000,0.000000,0.000000,0.214972,0.251381,0.000000,0.313139,0.000000,173.000000,173.000000,0.000000,36.000000,0.000000,0.000000:
// measure 0
0000
0000
0000
0000
,  // measure 1
0000
0000
0000
0000
,  // measure 2
0000
0000
0000
0000
,  // measure 3
0000
0000
0000
0000
,  // measure 4
0000
1000
0100
1000
,  // measure 5
0000
0010
1000
0001
,  // measure 6
0000
0010
0100
0010
,  // measure 7
0010
0001
0010
0001
,  // measure 8
0000
1000
0010
1000
,  // measure 9
0000
0001
1000
0001
,  // measure 10
0000
0010
0100
1000
,  // measure 11
1000
0010
1000
0010
,  // measure 12
0000
0001
0010
0100
,  // measure 13
0000
0100
0010
0001
,  // measure 14
0000
1000
0001
1000
,  // measure 15
1000
0001
1000
0001
,  // measure 16
0000
0010
0100
1000
,  // measure 17
0000
0010
1000
0010
,  // measure 18
0000
1000
0001
1000
,  // measure 19
0001
0010
0000
0100
,  // measure 20
0000
2000
0000
3010
,  // measure 21
0000
0002
0000
0013
,  // measure 22
0000
0200
0000
1300
,  // measure 23
0000
2000
0000
0000
,  // measure 24
0000
3010
0000
0001
,  // measure 25
0000
1000
1000
1000
,  // measure 26
0000
0020
0000
1030
,  // measure 27
0000
0001
0010
0100
,  // measure 28
0000
0002
0000
1003
,  // measure 29
0000
2000
0000
3001
,  // measure 30
0000
0010
0100
0010
,  // measure 31
1000
0020
0000
1030
,  // measure 32
0000
0002
0000
0013
,  // measure 33
0000
0100
0100
0100
,  // measure 34
0000
2000
0000
3001
,  // measure 35
0000
0010
1000
0010
,  // measure 36
0000
0002
0000
0013
,  // measure 37
0000
2000
0000
3100
,  // measure 38
0000
0010
1000
0010
,  // measure 39
0000
0001
0010
0200
,  // measure 40
0000
1300
0000
1000
,  // measure 41
0000
0001
0000
0002
,  // measure 42
0000
1003
0000
1000
,  // measure 43
0000
0010
0000
0020
,  // measure 44
0000
1030
0000
1000
,  // measure 45
0000
0001
0010
0002
,  // measure 46
0000
0013
0000
0010
,  // measure 47
0000
0010
0100
0020
,  // measure 48
0000
0031
0000
0001
,  // measure 49
0000
1000
0100
2000
,  // measure 50
0000
3010
0000
0010
,  // measure 51
0000
1000
0010
2000
,  // measure 52
0000
3002
0000
0000
,  // measure 53
0000
0023
0000
0000
,  // measure 54
0000
0230
0000
0000
,  // measure 55
0000
2300
0000
0000
,  // measure 56
0000
3001
0000
0001
,  // measure 57
0000
0100
0100
0100
,  // measure 58
0000
0020
0000
1030
,  // measure 59
0000
0001
1000
0001
,  // measure 60
0100
0001
0010
0002
,  // measure 61
0000
0013
0100
2000
,  // measure 62
0000
3010
1000
0002
,  // measure 63
0000
2003
0000
3020
,  // measure 64
0000
1030
0100
0020
,  // measure 65
0000
0031
0001
0001
,  // measure 66
0000
2000
0000
3100
,  // measure 67
0000
0010
1000
0001
,  // measure 68
0000
0020
0000
1030
,  // measure 69
0000
0200
0000
1300
,  // measure 70
0000
0001
0010
0200
,  // measure 71
0000
2300
0000
3020
,  // measure 72
0000
1030
0000
0000
;

//---------------dance-single - ----------------
#NOTES:
     dance-single:
     :
     Beginner:
     2:
     0.146628,0.219958,0.060888,0.078285,0.000000,118.000000,111.000000,7.000000,9.000000,0.000000,0.000000,0.146628,0.219958,0.060888,0.078285,0.000000,118.000000,111.000000,7.000000,9.000000,0.000000,0.000000:
// measure 0
0000
0000
0000
0000
,  // measure 1
0000
0000
0000
0000
,  // measure 2
0000
0000
0000
0000
,  // measure 3
0000
0000
0000
0000
,  // measure 4
0000
1000
0000
0000
,  // measure 5
0000
0001
0000
0000
,  // measure 6
0000
1000
0000
1000
,  // measure 7
0000
0001
0000
0001
,  // measure 8
0000
0010
0000
0000
,  // measure 9
0000
1000
0000
0000
,  // measure 10
0000
0010
0000
0010
,  // measure 11
0000
1000
0000
1000
,  // measure 12
0000
0100
0000
0000
,  // measure 13
0000
0001
0000
0000
,  // measure 14
0000
1000
0000
1000
,  // measure 15
0000
0010
0000
0010
,  // measure 16
0000
1000
0000
0000
,  // measure 17
0000
0100
0000
0000
,  // measure 18
0000
0001
0000
0001
,  // measure 19
0000
0020
0000
0130
,  // measure 20
0000
0001
0000
0010
,  // measure 21
0000
0100
0000
1000
,  // measure 22
0000
0001
0000
1000
,  // measure 23
0000
0010
0000
0000
,  // measure 24
0000
0200
0000
1300
,  // measure 25
0000
1001
0000
1001
,  // measure 26
0000
0010
0000
0100
,  // measure 27
0000
1000
0000
0010
,  // measure 28
0000
2000
0000
3001
,  // measure 29
0000
0002
0000
1003
,  // measure 30
0000
0100
0000
0010
,  // measure 31
0000
0001
0000
1000
,  // measure 32
0000
0010
0000
1000
,  // measure 33
0000
1010
0000
1010
,  // measure 34
0000
0001
0000
1000
,  // measure 35
0000
0010
0000
0100
,  // measure 36
0000
0002
0000
0013
,  // measure 37
0000
2000
0000
3100
,  // measure 38
0000
0010
0000
1000
,  // measure 39
0000
0001
0000
0010
,  // measure 40
0000
0100
0000
0100
,  // measure 41
0000
0100
0000
0000
,  // measure 42
0000
0010
0000
0010
,  // measure 43
0000
0010
0000
0000
,  // measure 44
0000
1000
0000
0001
,  // measure 45
0000
1000
0000
0000
,  // measure 46
0000
0010
0000
1000
,  // measure 47
0000
0100
0000
0000
,  // measure 48
0000
0010
0000
0001
,  // measure 49
0000
0010
0000
0100
,  // measure 50
0000
1000
0000
0001
,  // measure 51
0000
1000
0000
0010
,  // measure 52
0000
2000
0000
0000
,  // measure 53
0000
3002
0000
0000
,  // measure 54
0000
0023
0000
0000
,  // measure 55
0000
0000
0000
0000
,  // measure 56
0000
1030
0000
0000
,  // measure 57
0000
0001
0000
0000
,  // measure 58
0000
1000
0000
0000
,  // measure 59
0000
0100
0000
1000
,  // measure 60
0000
0010
0000
0000
,  // measure 61
0000
1000
0000
0001
,  // measure 62
0000
0010
0000
0001
,  // measure 63
0000
1000
0000
1000
,  // measure 64
0000
0010
0000
0000
,  // measure 65
0000
1001
0000
1001
,  // measure 66
0000
0001
0000
0000
,  // measure 67
0000
0010
0000
0100
,  // measure 68
0000
1000
0000
0000
,  // measure 69
0000
0001
0000
1000
,  // measure 70
0000
0010
0000
0000
,  // measure 71
0000
0010
0000
1000
,  // measure 72
0000
1001
0000
0000
;
