#VERSION:0.83;
#TITLE:Rubik;
#SUBTITLE:;
#ARTIST:Dere;
#TITLETRANSLIT:;
#SUBTITLETRANSLIT:;
#ARTISTTRANSLIT:;
#GENRE:;
#ORIGIN:;
#CREDIT:;
#BANNER:bn.png;
#BACKGROUND:bg.png;
#PREVIEWVID:;
#JACKET:jacket.png;
#CDIMAGE:;
#DISCIMAGE:;
#LYRICSPATH:;
#CDTITLE:;
#MUSIC:Rubik.mp3;
#OFFSET:-0.079000;
#SAMPLESTART:44.059101;
#SAMPLELENGTH:14.999996;
#SELECTABLE:YES;
#BPMS:0.000=120.000;
#STOPS:;
#DELAYS:;
#WARPS:;
#TIMESIGNATURES:0.000=4=4;
#TICKCOUNTS:0.000=4;
#COMBOS:0.000=1;
#SPEEDS:0.000=1.000=0.000=0;
#SCROLLS:0.000=1.000;
#FAKES:;
#LABELS:0.000=Song Start;
#BGCHANGES:;
#KEYSOUNDS:;
#ATTACKS:
;

//---------------dance-single - ----------------
#NOTEDATA:;
#CHARTNAME:;
#STEPSTYPE:dance-single;
#DESCRIPTION:;
#CHARTSTYLE:;
#DIFFICULTY:Hard;
#METER:10;
#RADARVALUES:0.432707,0.441473,0.037302,0.238735,0.026112,406.000000,401.000000,5.000000,32.000000,0.000000,0.000000,0.000000,0.000000,0.000000,0.432707,0.441473,0.037302,0.238735,0.026112,406.000000,401.000000,5.000000,32.000000,0.000000,0.000000,0.000000,0.000000,0.000000;
#CREDIT:Rajeious's Chart;
#NOTES:
// measure 0
0000
0000
0000
0000
,  // measure 1
0000
0000
0000
0000
,  // measure 2
0000
0000
0000
0000
,  // measure 3
0000
0000
0000
0000
,  // measure 4
0000
0000
0000
0000
,  // measure 5
0000
0000
0000
0000
,  // measure 6
0000
0001
1000
0100
0010
0001
1000
0000
,  // measure 7
0000
0001
0100
0010
2000
0000
3001
0000
,  // measure 8
0000
0001
1000
0100
1000
0010
0100
0001
,  // measure 9
0010
0000
0001
0000
1000
0001
0010
0000
,  // measure 10
0100
1000
0001
0010
0002
0000
0013
0000
,  // measure 11
1000
0001
0010
0001
1000
0010
0100
1000
,  // measure 12
0100
0010
1000
0100
1000
0001
0000
0001
,  // measure 13
0000
0000
1000
0000
1000
0100
1000
0000
,  // measure 14
0010
0100
0100
0010
1000
0001
0010
0000
,  // measure 15
1000
0100
0001
1000
0001
0100
1000
0000
,  // measure 16
0001
0010
0001
1000
0010
0100
1000
0100
,  // measure 17
0001
0010
0100
1000
0000
1000
0010
0100
,  // measure 18
0001
0010
0001
1000
0100
0010
0001
0000
,  // measure 19
1000
0100
0010
0100
1000
0001
1000
0100
,  // measure 20
0020
0000
0031
1000
0010
0200
0300
0002
,  // measure 21
0013
1000
0100
1001
,  // measure 22
0001
0100
0010
1000
0001
1000
0100
0001
,  // measure 23
0100
2000
0000
3100
0000
1000
0001
0200
,  // measure 24
0000
0310
1000
0002
0000
0013
0100
0010
,  // measure 25
0100
2000
0000
3100
0000
1000
0010
0200
,  // measure 26
0000
0301
0010
0100
1000
0100
0010
0001
,  // measure 27
1000
0020
0000
0130
0000
0001
1000
0001
,  // measure 28
2000
0000
0000
0000
3001
0100
0001
0000
1000
0000
0000
0000
1001
0000
0000
0000
,  // measure 29
0100
0010
0000
0010
1000
0001
0010
0000
,  // measure 30
0002
0000
1003
0200
1000
0300
1001
0000
,  // measure 31
0200
0001
0300
0002
0000
0013
0100
0000
,  // measure 32
0100
1000
0000
0001
0000
0000
0000
0000
,  // measure 33
0010
0100
0000
0001
0000
0000
0000
0000
,  // measure 34
1000
0001
0100
0001
0000
0000
0100
0000
,  // measure 35
0001
1000
0001
0100
0000
0000
1001
0000
,  // measure 36
1000
1000
0001
0100
0001
0010
0100
0000
,  // measure 37
1000
0100
0001
0100
1000
0001
0010
0000
,  // measure 38
0010
0001
1000
0100
0010
0100
0001
0100
,  // measure 39
1000
0000
0001
0100
0001
1000
0010
0000
,  // measure 40
1000
0001
0100
0010
0001
0010
0100
0001
,  // measure 41
1000
0001
1000
0100
0000
0001
1000
0010
,  // measure 42
0100
0010
1000
0100
0010
0001
1000
0001
,  // measure 43
0010
0100
1000
0100
0000
1000
0001
0100
,  // measure 44
0001
0010
0100
1000
0001
0100
0001
0010
,  // measure 45
0100
0010
0001
1000
0000
0001
0010
0100
,  // measure 46
2000
0000
0000
0000
3001
0010
0001
0000
0200
0000
0000
0000
0301
0000
0001
0000
,  // measure 47
1000
0100
0000
0100
1000
0100
0010
0001
,  // measure 48
1000
0000
0010
0000
0100
0000
0010
0000
1000
0000
0001
0000
0100
0001
1000
0000
,  // measure 49
0001
0010
0001
2000
0000
0000
3001
0010
,  // measure 50
0100
0000
1000
0100
1000
0000
0001
0010
0001
0000
0100
0000
0100
0000
0001
0000
,  // measure 51
0001
0100
0010
1000
0000
0001
1000
0200
,  // measure 52
1000
1300
0001
0020
0001
0000
0031
2000
,  // measure 53
3100
0020
0031
2000
0100
0000
3001
0010
,  // measure 54
0100
0000
0010
0001
0010
0000
0001
0000
0100
0000
0010
0000
1000
0000
0001
0000
,  // measure 55
0100
0001
1000
0100
0000
0100
1000
0001
,  // measure 56
0010
0001
0100
0010
1000
0001
0010
1000
,  // measure 57
0010
0002
0100
0103
0001
0100
0010
2000
,  // measure 58
0001
3001
1000
0200
1000
1300
0001
0010
,  // measure 59
0100
2000
0001
3001
0100
0001
0010
0002
,  // measure 60
0010
0013
0100
1000
0001
0100
0010
0001
,  // measure 61
0010
0200
0001
0301
0000
0000
0100
0001
,  // measure 62
1000
0000
0100
0000
1000
0001
0010
0000
0001
0000
1000
0000
0001
0000
0010
0000
,  // measure 63
0100
2000
0010
3010
0000
1000
0001
0000
,  // measure 64
0100
0010
1000
0020
0000
0030
1000
0000
,  // measure 65
0001
1000
0100
1000
0010
0100
1001
0000
;

//---------------dance-single - ----------------
#NOTEDATA:;
#CHARTNAME:;
#STEPSTYPE:dance-single;
#DESCRIPTION:;
#CHARTSTYLE:;
#DIFFICULTY:Medium;
#METER:6;
#RADARVALUES:0.313339,0.318841,0.044763,0.208893,0.000000,294.000000,288.000000,6.000000,28.000000,0.000000,0.000000,0.000000,0.000000,0.000000,0.313339,0.318841,0.044763,0.208893,0.000000,294.000000,288.000000,6.000000,28.000000,0.000000,0.000000,0.000000,0.000000,0.000000;
#CREDIT:Rajeious's Chart;
#NOTES:
0000
0000
0000
0000
,
0000
0000
0000
0000
,
0000
0000
0000
0000
,
0000
0000
0000
0000
,
0000
0000
0000
0000
,
0000
0000
0000
0000
,
1000
0000
0001
0000
0100
0001
0100
0000
,
0010
1000
0002
0103
,
1000
0010
0100
0001
,
0100
0000
0010
0000
1000
0001
1000
0000
,
0001
0010
0002
0103
,
0010
0000
1000
0001
0100
0000
0001
0000
,
0020
0031
2000
3100
,
0001
0100
0001
1000
,
1001
0000
0010
0000
1000
0100
1000
0000
,
0001
0000
0010
0000
0001
0100
0001
0000
,
1000
0000
0010
0000
2000
0000
3001
0010
,
0100
0100
1000
0010
,
1000
0000
1000
0000
0001
0010
0001
0000
,
0100
0000
0010
0000
1000
0001
1000
0000
,
0002
0013
2000
3100
,
1000
0010
0100
1001
,
1010
0000
0100
0000
1000
0001
0010
0000
,
0100
1000
0000
1000
0100
0000
0001
0010
,
0200
1300
0020
0130
,
0001
1000
0000
1000
0010
0000
1000
0000
,
2000
0000
3100
0010
0001
0000
1000
0000
,
0001
1000
0000
1000
0010
0000
0010
0100
,
0002
0013
2000
3100
,
1000
0001
0000
0001
1000
0000
0010
0000
,
0100
0000
0001
0010
0000
0100
0001
0000
,
1000
0010
0000
0010
0000
0010
0100
0001
,
0010
0000
0000
0010
0000
0000
0000
0000
,
0001
0000
0000
0001
0000
0000
0000
0000
,
1000
0000
0000
1000
0000
0000
0000
0000
,
0001
0000
0000
0001
0000
0000
0100
0000
,
0100
0000
0001
0000
0010
0100
1000
0000
,
0001
0000
0100
0000
0010
1000
0100
0000
,
0010
0000
0001
0100
0010
0000
1000
0000
,
0001
0000
1000
0000
0100
1000
0010
0000
,
0101
0000
0100
0000
0001
1000
0100
0000
,
0010
0001
0000
0001
0010
0000
1000
0100
,
0020
0000
0031
1000
0200
0000
0310
0000
,
0001
1000
0000
0001
0100
0000
0001
0000
,
0002
0000
0013
0100
1000
0000
0001
0000
,
1000
0001
0000
0001
0100
0000
0100
0010
,
2000
3100
0002
0013
,
0001
1000
0000
1000
0001
0000
0001
0000
,
2000
0000
3001
0010
0100
0000
1001
0000
,
1000
0100
0010
0002
0000
0000
1003
0000
,
0020
0000
1030
0001
1000
0000
0011
0000
,
1000
0010
1000
0002
0000
0000
0103
0000
,
2000
3010
0002
0103
,
1000
0010
0100
0002
0000
0000
1003
0000
,
0020
0000
0130
0001
2000
0000
3001
0000
,
0100
0010
0000
0010
1000
0000
0001
0000
,
1000
0001
0010
0001
1000
0000
1000
0000
,
0001
1000
0000
1000
0010
0000
0100
0000
,
0001
1000
0100
1000
0010
0000
1000
0000
,
0001
0100
0000
0100
0010
0000
0100
0000
,
0001
1000
0001
1000
0010
0000
0100
0000
,
0001
0010
0000
0010
0001
0000
1000
0000
,
0002
0000
0013
0100
2000
0000
3100
0010
,
0001
0100
0000
0100
0001
0000
1000
0001
,
0010
0000
0001
1000
0100
0000
0001
0000
,
1000
0010
0000
0100
0001
0010
0001
0000
;

//---------------dance-single - ----------------
#NOTEDATA:;
#CHARTNAME:;
#STEPSTYPE:dance-single;
#DESCRIPTION:;
#CHARTSTYLE:;
#DIFFICULTY:Easy;
#METER:3;
#RADARVALUES:0.222748,0.245263,0.007460,0.208893,0.000000,209.000000,208.000000,1.000000,28.000000,0.000000,0.000000,0.000000,0.000000,0.000000,0.222748,0.245263,0.007460,0.208893,0.000000,209.000000,208.000000,1.000000,28.000000,0.000000,0.000000,0.000000,0.000000,0.000000;
#CREDIT:Rajeious's Chart;
#NOTES:
0000
0000
0000
0000
,
0000
0000
0000
0000
,
0000
0000
0000
0000
,
0000
0000
0000
0000
,
0000
0000
0000
0000
,
0000
0000
0000
0000
,
1000
0001
0100
0000
,
0001
1000
0100
0000
,
0100
1000
0001
0000
,
0010
1000
0010
0000
,
0010
1000
0001
0000
,
0100
0001
1000
0000
,
2000
3010
0200
0301
,
0200
0300
0000
0000
,
1000
0001
0100
0001
,
0000
1000
0001
1000
,
0000
0100
0001
0100
,
0001
0000
1000
0000
,
0100
1000
0001
0100
,
0000
0001
0100
0001
,
2000
3010
0200
0301
,
0100
0010
0100
0001
,
1000
0100
0010
0001
,
1000
0001
1000
0100
,
0020
0031
0200
0301
,
1000
0100
1000
0010
,
0010
0001
1000
0010
,
1000
0100
0010
0001
,
2000
3000
0002
0003
,
1000
0001
0010
0000
,
1000
0000
1000
0000
,
0001
0000
0001
0000
,
1000
0001
0100
0000
,
1000
0010
0100
0000
,
0001
1000
0001
0000
,
1000
0010
0100
0000
,
0001
0001
1000
0100
,
0000
1000
0010
0100
,
0000
0001
1000
0001
,
0010
1000
0010
0001
,
0100
0010
1000
0001
,
0010
0001
0100
0010
,
0200
0301
2000
3010
,
0100
0001
1000
0001
,
0010
0001
1000
0100
,
0010
0100
1000
0010
,
2000
3000
0002
0003
,
1000
0001
0100
0010
,
1000
1000
0001
0001
,
0100
0010
1000
0000
,
0001
0100
0010
1000
,
0100
0010
0001
0100
,
0002
0013
0200
1300
,
1000
0010
0100
0001
,
0002
0003
2000
3000
,
0001
0010
0100
1000
,
0100
0010
0002
1003
,
0001
0100
0020
1030
,
0010
0100
0002
1003
,
0100
0010
0200
1300
,
0001
0100
0200
0301
,
0001
1000
2000
3100
,
0200
0310
0020
0031
,
0010
0100
2000
3001
,
0020
0130
0200
1300
,
0010
0001
0010
1001
;
