#TITLE:Ready or Not;
#SUBTITLE:;
#ARTIST:Momoland;
#TITLETRANSLIT:;
#SUBTITLETRANSLIT:;
#ARTISTTRANSLIT:;
#GENRE:;
#CREDIT:;
#BANNER:AV.avi;
#BACKGROUND:bg.png;
#LYRICSPATH:;
#CDTITLE:;
#MUSIC:audio.ogg;
#OFFSET:-0.270000;
#SAMPLESTART:49.090000;
#SAMPLELENGTH:15.000000;
#SELECTABLE:YES;
#BPMS:0.000000=124.979996
;
#STOPS:
;
#BGCHANGES:0.000=MV.avi=1.400=1=1=1=StretchRewind==CrossFade==,
3.000=MV.avi=1.000=0=0=1=====,
99999=-nosongbg-=1.000=0=0=0 // don't automatically add -songbackground-
;
#KEYSOUNDS:;
#ATTACKS:;

//---------------dance-single - ----------------
#NOTES:
     dance-single:
     :
     Hard:
     12:
     0.453018,0.763502,0.194592,0.396391,0.281077,440.000000,413.000000,27.000000,55.000000,0.000000,0.000000,0.453018,0.763502,0.194592,0.396391,0.281077,440.000000,413.000000,27.000000,55.000000,0.000000,0.000000:
// measure 0
0000
0000
0000
0000
,  // measure 1
0000
0000
0000
0000
,  // measure 2
0000
0000
0000
0000
,  // measure 3
0000
0000
0000
0000
,  // measure 4
0000
0000
0000
0000
,  // measure 5
0000
0000
1100
0011
,  // measure 6
0001
0100
0010
0000
0100
1000
0001
0100
,  // measure 7
0010
1000
0001
0000
0200
0000
0310
0000
,  // measure 8
0002
1003
1100
1001
,  // measure 9
0010
0100
0010
0000
0100
0010
0100
0000
0010
0000
0000
0000
1000
0000
0000
0000
,  // measure 10
0001
0100
0010
1000
0001
0010
0100
0010
,  // measure 11
0002
0013
1100
1001
,  // measure 12
0010
0100
0001
0000
0011
0000
0110
0000
,  // measure 13
1100
1001
0010
0100
,  // measure 14
0001
0010
0100
1000
0001
0100
0010
1000
,  // measure 15
0002
0013
1100
1001
,  // measure 16
0010
0100
0010
0000
1001
0000
0110
0000
,  // measure 17
1001
0000
0010
1000
0002
0000
0010
0000
,  // measure 18
1000
0103
0110
0110
,  // measure 19
0110
0000
0001
1000
0200
0000
0010
0000
,  // measure 20
1000
0000
0310
0000
0001
0010
0100
1000
,  // measure 21
0001
0100
0010
0000
0011
0001
0010
0100
,  // measure 22
1000
0001
0100
0000
0110
0010
1000
0010
,  // measure 23
0100
0001
0010
0000
1100
1000
0100
0000
,  // measure 24
1001
0000
0001
0000
1000
0000
0000
0000
0001
0010
0001
0010
0000
0000
0100
1000
,  // measure 25
0100
1000
0000
0000
1100
0000
0000
0000
0020
0000
0000
0000
0130
0000
0000
0000
,  // measure 26
0001
0010
0100
0010
0002
0000
0013
0000
,  // measure 27
0100
1000
0010
0100
0002
0000
2003
0000
,  // measure 28
0010
0000
3100
0000
0001
0010
0100
1000
,  // measure 29
0010
0100
0001
0010
0120
0000
0031
0000
,  // measure 30
0001
1000
0010
0100
0002
0000
0013
0000
,  // measure 31
0100
1000
0010
0100
0020
0000
2030
0000
,  // measure 32
3002
0000
0023
0000
0130
1000
0001
0100
,  // measure 33
0010
0000
0000
0000
0011
0000
1000
0000
1000
0100
1000
0010
1000
0010
1000
0001
,  // measure 34
0010
0100
1000
0001
1000
0010
0100
0010
1000
0001
1000
0100
1000
0100
0010
0002
,  // measure 35
0000
0000
0013
0000
0002
0000
0000
0003
1000
0001
1000
0001
0000
0000
0010
0100
,  // measure 36
0010
0100
0000
0000
0001
0000
0010
0000
0002
0000
0003
0000
2000
0000
3000
0000
,  // measure 37
0001
1000
0001
0000
1000
0001
1000
0000
0001
0010
0001
0100
0001
0100
0001
1000
,  // measure 38
0100
0010
0001
1000
0001
0100
0010
0100
0001
1000
0001
0010
0001
0010
0100
2000
,  // measure 39
0000
0000
3100
0000
2000
0000
0000
0000
3010
0100
0010
0100
0000
0000
0010
0100
,  // measure 40
0010
0100
0000
0000
0001
0000
0010
0000
0002
0000
0003
0000
2000
0000
3000
0000
,  // measure 41
0001
1000
0001
0000
1000
0001
1000
0000
0002
0000
0000
0000
0000
0000
0000
0000
,  // measure 42
0000
0000
2003
0000
,  // measure 43
0000
0000
3020
0000
,  // measure 44
0000
0000
2030
0000
,  // measure 45
0000
0000
3001
0010
,  // measure 46
0002
0000
1003
0010
,  // measure 47
0200
0000
0301
0010
,  // measure 48
0002
0000
2003
0000
,  // measure 49
3020
0000
0130
0001
,  // measure 50
0020
0000
0130
1000
,  // measure 51
0002
0000
0103
0010
,  // measure 52
2000
0000
3002
0000
,  // measure 53
0023
0000
0030
0000
,  // measure 54
0000
0000
0002
1003
,  // measure 55
0010
0100
0001
0010
0200
0000
1300
0000
,  // measure 56
0001
0100
0010
1000
0020
0000
2030
0000
,  // measure 57
0100
0000
3010
0000
1000
0100
0010
0001
,  // measure 58
0100
0010
1000
0100
0210
0000
1300
0000
,  // measure 59
1000
0001
0100
0010
2000
0000
3100
0000
,  // measure 60
0010
0001
0100
0010
0200
0000
0302
0000
,  // measure 61
1000
0000
0103
0000
0010
0001
1000
0010
,  // measure 62
0100
0000
0000
0000
1100
0000
0001
0000
0001
0010
0001
0100
0001
0100
0001
1000
,  // measure 63
0100
0010
0001
1000
0001
0100
0010
0100
0001
1000
0001
0010
0001
0010
0100
2000
,  // measure 64
0000
0000
3100
0000
2000
0000
0000
3000
0001
1000
0001
1000
0000
0000
0100
0010
,  // measure 65
0100
0010
0000
0000
1000
0000
0100
0000
2000
0000
3000
0000
0002
0000
0003
0000
,  // measure 66
1000
0001
1000
0000
0001
1000
0001
0000
1000
0100
1000
0010
1000
0010
1000
0001
,  // measure 67
0010
0100
1000
0001
1000
0010
0100
0010
1000
0001
1000
0100
1000
0100
0010
0002
,  // measure 68
0000
0000
0013
0000
0002
0000
0000
0000
0103
0010
0100
0010
0000
0000
0100
0010
,  // measure 69
0100
0010
0000
0000
1000
0000
0100
0000
2000
0000
3000
0000
0002
0000
0003
0000
,  // measure 70
1000
0001
1000
0000
0001
1000
0001
0000
2000
0000
3000
0000
0000
0000
0000
0000
;

//---------------dance-single - ----------------
#NOTES:
     dance-single:
     :
     Medium:
     7:
     0.325349,0.406481,0.057657,0.259456,0.000000,316.000000,308.000000,8.000000,36.000000,0.000000,0.000000,0.325349,0.406481,0.057657,0.259456,0.000000,316.000000,308.000000,8.000000,36.000000,0.000000,0.000000:
// measure 0
0000
0000
0000
0000
,  // measure 1
0000
0000
0001
0001
,  // measure 2
1000
0000
0010
0100
,  // measure 3
0010
0000
0001
0100
,  // measure 4
0001
0000
0010
0000
0001
1000
0100
0000
,  // measure 5
0002
0013
0100
0100
,  // measure 6
1000
0100
1000
0000
0001
0000
0001
0000
,  // measure 7
0001
0100
0001
0000
0010
0000
1000
0000
,  // measure 8
0001
0000
0100
0000
0010
1000
0001
0000
,  // measure 9
0100
0010
0001
0000
1000
0000
1000
0000
,  // measure 10
0010
1000
0010
0000
0001
0010
0100
0000
,  // measure 11
0002
1003
0010
0100
,  // measure 12
0001
0000
0010
0000
0200
0300
0200
0300
,  // measure 13
0200
0300
0200
0300
0001
0000
1000
0000
,  // measure 14
0010
1000
0010
0000
0001
0010
0100
0000
,  // measure 15
2000
3001
0010
0100
,  // measure 16
0001
1000
0010
0000
0200
0300
0200
0300
,  // measure 17
0200
0300
0200
0300
1000
0001
0000
0001
,  // measure 18
1000
0000
1000
0001
1000
0000
1000
0000
,  // measure 19
1000
0000
0010
0100
0010
0100
0000
0100
,  // measure 20
0010
0000
0001
1000
0002
0000
0013
0000
,  // measure 21
0200
0000
1300
0000
0001
0100
0001
0000
,  // measure 22
0010
1000
0010
0000
0001
0010
0001
0000
,  // measure 23
0100
1000
0100
0000
0001
1000
0010
0000
,  // measure 24
0001
0010
0100
0000
1000
0000
0000
0000
,  // measure 25
0000
1010
0001
0001
,  // measure 26
0001
1000
0001
1000
0001
0000
0010
0000
,  // measure 27
0100
0010
0001
1000
0010
0000
0200
0000
,  // measure 28
0001
0310
0001
1000
,  // measure 29
0001
1001
0010
1000
,  // measure 30
0010
1000
0001
1000
0010
0000
0100
0000
,  // measure 31
0001
0010
0100
1000
0001
0000
0020
0000
,  // measure 32
0100
0031
0100
1000
,  // measure 33
0010
0000
1001
0000
0100
1000
0001
1000
,  // measure 34
0010
0100
0001
0010
0100
1000
0001
0100
,  // measure 35
0020
0000
1030
0000
0001
1000
0001
0000
,  // measure 36
0010
1000
0010
0000
0001
0000
0100
0000
,  // measure 37
0010
0000
1001
0000
0100
1000
0010
1000
,  // measure 38
0001
0010
0100
0010
0001
1000
0010
0100
,  // measure 39
0002
1003
0010
0100
,  // measure 40
0001
0000
0100
1000
0001
0000
0001
0000
,  // measure 41
0001
0010
1002
0000
,  // measure 42
0000
0003
0000
0000
0020
0000
0000
0000
,  // measure 43
0000
0030
0000
0000
2000
0000
0000
0000
,  // measure 44
0000
3000
0000
0000
0020
0000
0000
0000
,  // measure 45
0000
0030
0000
0000
0002
0000
0000
0000
,  // measure 46
0103
0000
0020
0000
,  // measure 47
1030
0000
0002
0000
,  // measure 48
0013
0000
0200
0000
,  // measure 49
1300
0000
0020
0000
,  // measure 50
1030
0000
0002
0000
,  // measure 51
1003
0000
0200
0000
,  // measure 52
0310
0000
0002
0000
,  // measure 53
2003
0000
3000
0000
,  // measure 54
0000
0000
0100
1000
,  // measure 55
0001
1000
0010
1000
0001
0000
0010
0000
,  // measure 56
0100
1000
0001
0100
0010
0000
2000
0000
,  // measure 57
0100
0000
3001
0000
0010
0100
0010
0000
,  // measure 58
0001
1000
0001
0000
0200
0000
0310
0000
,  // measure 59
0001
1000
0001
0000
0200
0000
0310
0000
,  // measure 60
0001
1000
0001
0000
0010
0000
2000
0000
,  // measure 61
0100
3001
0010
0100
,  // measure 62
0010
0000
0011
0000
0100
0010
0001
0010
,  // measure 63
0100
0010
0001
0010
0100
0010
0001
1000
,  // measure 64
0020
0000
0130
0000
0001
1000
0001
0000
,  // measure 65
1000
0001
1000
0000
0100
0000
0100
0000
,  // measure 66
0100
0000
1100
0000
0001
1000
0010
0100
,  // measure 67
0001
1000
0001
1000
0010
0100
0001
1000
,  // measure 68
0200
0310
0001
1000
,  // measure 69
0010
0000
0001
0010
0100
0000
0100
0000
,  // measure 70
0100
0010
0110
0000
;

//---------------dance-single - ----------------
#NOTES:
     dance-single:
     :
     Easy:
     4:
     0.239894,0.330266,0.014414,0.144142,0.000000,233.000000,231.000000,2.000000,20.000000,0.000000,0.000000,0.239894,0.330266,0.014414,0.144142,0.000000,233.000000,231.000000,2.000000,20.000000,0.000000,0.000000:
// measure 0
0000
0000
0000
0000
,  // measure 1
0000
0000
0001
0000
,  // measure 2
0000
0000
0100
0000
,  // measure 3
0000
0000
1000
0000
,  // measure 4
1000
0000
0010
0000
,  // measure 5
0010
0000
0001
1000
,  // measure 6
0001
0000
0100
0010
,  // measure 7
0100
0000
0001
0010
,  // measure 8
0100
0000
1000
0010
,  // measure 9
1000
0010
1000
1000
,  // measure 10
0001
0000
0010
0100
,  // measure 11
0001
0000
0010
1000
,  // measure 12
0001
0000
0100
0010
,  // measure 13
0100
0010
0001
0001
,  // measure 14
1000
0000
0010
1000
,  // measure 15
0010
0000
0100
0001
,  // measure 16
0100
0000
0010
1000
,  // measure 17
0010
1000
0001
0001
,  // measure 18
1000
0010
0100
0100
,  // measure 19
0100
0000
0001
1000
,  // measure 20
0001
0010
0100
0100
,  // measure 21
0100
0000
0001
1000
,  // measure 22
0001
0001
1000
0001
,  // measure 23
1000
1000
0010
0100
,  // measure 24
0010
0010
0100
0000
,  // measure 25
0100
0000
0010
0010
,  // measure 26
0010
1000
0010
0000
0001
0000
0001
0000
,  // measure 27
0001
0100
0001
0000
2000
0000
0000
0000
,  // measure 28
3002
0000
0000
0003
0010
0000
0001
0000
,  // measure 29
0010
0001
1000
1000
,  // measure 30
1000
0001
1000
0000
0010
0000
0010
0000
,  // measure 31
0010
1000
0010
0000
0002
0000
0000
0000
,  // measure 32
2003
0000
3010
0100
,  // measure 33
0010
0000
1000
0000
0001
1000
0001
0000
,  // measure 34
0010
0000
0010
0000
0001
1000
0001
0000
,  // measure 35
0200
0310
0001
0001
,  // measure 36
1000
1000
0010
0010
,  // measure 37
1000
0000
1000
0000
0010
1000
0010
0000
,  // measure 38
1000
0010
1000
0000
0001
0000
0001
0000
,  // measure 39
1000
0010
2000
0000
3010
0000
0010
0000
,  // measure 40
0100
0100
0001
0001
,  // measure 41
1000
1000
0200
0000
,  // measure 42
0000
0300
2000
0000
,  // measure 43
0000
3000
0020
0000
,  // measure 44
0000
0030
0000
0000
0002
0000
0000
0000
,  // measure 45
0000
0003
0000
0000
0200
0000
0000
0000
,  // measure 46
0000
0300
0000
0000
0020
0000
0000
0000
,  // measure 47
0000
0030
0000
0000
2000
0000
0000
0000
,  // measure 48
0000
3000
0000
0000
0002
0000
0000
0000
,  // measure 49
0000
0003
0200
0000
,  // measure 50
0000
0300
0000
0000
0020
0000
0000
0000
,  // measure 51
0000
0030
0000
0000
0002
0000
0000
0000
,  // measure 52
0000
0003
0000
0000
2000
0000
0000
0000
,  // measure 53
0000
3000
0000
0000
,  // measure 54
0000
0000
0001
0001
,  // measure 55
0001
1000
0001
0000
0100
0000
0100
0000
,  // measure 56
0100
0010
0100
0000
0001
0000
1000
0000
,  // measure 57
0100
0000
0010
0000
0001
0010
0001
0000
,  // measure 58
1000
1000
0010
0010
,  // measure 59
0010
0100
0010
0000
0001
0000
0001
0000
,  // measure 60
0001
1000
0001
0000
0010
0000
0100
0000
,  // measure 61
1000
0001
0010
0010
,  // measure 62
1000
0000
1000
0000
0001
1000
0001
0000
,  // measure 63
1000
0001
1000
0000
0010
1000
0010
0000
,  // measure 64
0002
0013
0100
0100
,  // measure 65
0010
0010
0001
0001
,  // measure 66
0001
0000
1001
0000
0010
1000
0010
0000
,  // measure 67
1000
0010
1000
0000
0001
0100
0001
0000
,  // measure 68
0020
1030
0001
0001
,  // measure 69
0010
0010
0100
0100
,  // measure 70
0100
1000
0100
0000
1100
0000
0000
0000
;

//---------------dance-single - ----------------
#NOTES:
     dance-single:
     :
     Beginner:
     2:
     0.142083,0.203240,0.000000,0.043243,0.000000,138.000000,138.000000,0.000000,6.000000,0.000000,0.000000,0.142083,0.203240,0.000000,0.043243,0.000000,138.000000,138.000000,0.000000,6.000000,0.000000,0.000000:
// measure 0
0000
0000
0000
0000
,  // measure 1
0000
0000
1000
0000
,  // measure 2
0000
0000
0010
0000
,  // measure 3
0000
0000
0001
0000
,  // measure 4
0001
0000
0100
0000
,  // measure 5
0100
0000
0010
0000
,  // measure 6
1000
0000
0010
0000
,  // measure 7
0100
0000
0001
0000
,  // measure 8
0100
0000
0010
0000
,  // measure 9
0010
0000
0001
0000
,  // measure 10
1000
0000
0010
0000
,  // measure 11
1000
0000
0010
0000
,  // measure 12
0100
0000
0001
0000
,  // measure 13
0001
0000
1000
0000
,  // measure 14
0010
0000
0100
0000
,  // measure 15
0010
0000
1000
0000
,  // measure 16
0010
0000
0100
0000
,  // measure 17
0100
0000
0001
0000
,  // measure 18
0001
0000
0010
0000
,  // measure 19
0010
0000
1000
0000
,  // measure 20
1000
0000
0010
0000
,  // measure 21
0010
0000
0100
0000
,  // measure 22
0100
0000
0010
0000
,  // measure 23
0010
0000
1000
0000
,  // measure 24
1000
0000
0001
0000
,  // measure 25
0001
0000
0010
0000
,  // measure 26
0010
0000
1000
0000
,  // measure 27
1000
0000
0020
0000
,  // measure 28
0130
0000
0001
0000
,  // measure 29
0100
0000
0010
0000
,  // measure 30
1000
0000
0001
0000
,  // measure 31
0010
0000
0200
0000
,  // measure 32
1300
0000
0010
0000
,  // measure 33
0000
0000
0001
0001
,  // measure 34
1000
1000
0001
0001
,  // measure 35
0200
0000
0301
0000
,  // measure 36
0001
0000
0010
0000
,  // measure 37
0010
0000
1000
1000
,  // measure 38
0010
0010
0100
0100
,  // measure 39
0002
0000
1003
0000
,  // measure 40
1000
0000
0100
0000
,  // measure 41
0100
0000
0010
0000
,  // measure 42
0000
0000
1000
0000
,  // measure 43
0000
0000
0001
0000
,  // measure 44
0000
0000
0100
0000
,  // measure 45
0000
0000
0010
0000
,  // measure 46
0000
0000
1000
0000
,  // measure 47
0000
0000
0010
0000
,  // measure 48
0000
0000
0100
0000
,  // measure 49
0000
0000
0001
0000
,  // measure 50
0000
0000
0010
0000
,  // measure 51
0000
0000
1000
0000
,  // measure 52
0000
0000
0100
0000
,  // measure 53
0000
0000
0000
0000
,  // measure 54
0000
0000
0010
0000
,  // measure 55
0010
0000
1000
0000
,  // measure 56
1000
0000
0010
0000
,  // measure 57
0010
0000
0100
0001
,  // measure 58
0100
0000
0001
0000
,  // measure 59
0001
0000
1000
0000
,  // measure 60
1000
0000
0010
0000
,  // measure 61
0010
0000
0100
0000
,  // measure 62
0010
0000
1000
1000
,  // measure 63
0001
0001
0100
0100
,  // measure 64
0020
0000
1030
0000
,  // measure 65
1000
0000
0001
0001
,  // measure 66
0001
0000
0010
0100
,  // measure 67
0010
1000
0001
0010
,  // measure 68
0200
0000
1300
0000
,  // measure 69
1000
0000
0010
0010
,  // measure 70
0100
0100
0001
0000
;
