#VERSION:0.83;
#TITLE:-Queen Aluett;
#SUBTITLE:;
#ARTIST:LeaF;
#TITLETRANSLIT:;
#SUBTITLETRANSLIT:;
#ARTISTTRANSLIT:;
#GENRE:;
#ORIGIN:;
#CREDIT:;
#BANNER:AV.avi;
#BACKGROUND:bg.png;
#PREVIEWVID:;
#JACKET:jacket.png;
#CDIMAGE:;
#DISCIMAGE:;
#LYRICSPATH:;
#CDTITLE:;
#MUSIC:audio.ogg;
#OFFSET:-0.097000;
#SAMPLESTART:71.023018;
#SAMPLELENGTH:14.999995;
#SELECTABLE:YES;
#DISPLAYBPM:*;
#BPMS:0.000=212.000;
#STOPS:;
#DELAYS:;
#WARPS:252.000=13.000,
265.500=14.000;
#TIMESIGNATURES:0.000=4=4;
#TICKCOUNTS:0.000=4;
#COMBOS:0.000=1;
#SPEEDS:0.000=1.000=0.000=0,
54.000=0.500=3.000=0,
56.750=1.000=1.100=0,
429.000=0.500=3.000=0,
431.750=1.000=1.100=0,
433.000=0.500=3.000=0,
435.750=1.000=1.100=0,
437.000=0.500=4.000=0,
441.000=1.000=2.000=0,
457.000=0.400=4.000=0,
461.000=1.000=8.000=0;
#SCROLLS:0.000=1.000,
246.500=0.900,
246.750=0.870,
247.000=0.850,
247.250=0.830,
247.500=0.800,
247.750=0.750,
248.000=0.700,
248.250=0.650,
248.500=0.600,
248.750=0.550,
249.000=0.500,
249.250=0.450,
249.500=0.400,
249.750=0.350,
250.000=0.300,
251.000=0.600,
252.000=1.000,
281.000=2.000,
281.500=0.250,
281.875=1.000,
282.000=2.000,
282.500=0.250,
283.000=1.000,
285.000=2.000,
285.500=0.250,
285.875=1.000,
286.000=2.000,
286.500=0.250,
287.000=1.000,
289.000=2.000,
289.500=0.250,
289.875=1.000,
290.000=2.000,
290.500=0.250,
291.000=1.000,
293.000=2.000,
293.500=0.250,
293.875=1.000,
294.000=2.000,
294.500=0.250,
295.000=1.000,
297.000=2.000,
297.500=0.250,
297.875=1.000,
298.000=2.000,
298.500=0.250,
299.000=1.000,
301.000=2.000,
301.500=0.250,
301.875=1.000,
302.000=2.000,
302.500=0.250,
303.000=1.000,
305.000=2.000,
305.500=0.250,
305.875=1.000,
306.000=2.000,
306.500=0.250,
307.000=1.000,
309.000=2.000,
309.500=0.250,
309.875=1.000,
310.000=2.000,
310.500=0.250,
311.000=1.000,
313.000=0.800,
314.000=0.500,
319.500=1.000,
321.000=2.000,
321.500=0.250,
321.875=1.000,
322.000=2.000,
322.500=0.250,
323.000=1.000,
325.000=2.000,
325.500=0.250,
325.875=1.000,
326.000=2.000,
326.500=0.250,
327.000=1.000,
329.000=2.000,
329.500=0.250,
329.875=1.000,
330.000=2.000,
330.500=0.250,
331.000=1.000,
333.000=2.000,
333.500=0.250,
333.875=1.000,
334.000=2.000,
334.500=0.250,
335.000=1.000,
337.000=2.000,
337.500=0.250,
337.875=1.000,
338.000=2.000,
338.500=0.250,
339.000=1.000,
341.000=2.000,
341.500=0.250,
341.875=1.000,
342.000=2.000,
342.500=0.250,
343.000=1.000,
345.000=0.800,
346.000=0.500,
399.000=1.000,
447.000=2.000,
447.500=0.250,
448.000=1.000,
449.000=2.000,
449.500=0.250,
450.000=1.000,
451.000=2.000,
451.500=0.250,
452.000=1.000,
453.000=2.000,
453.167=0.250,
453.500=1.000,
454.000=2.000,
454.167=0.250,
454.500=1.000,
455.000=2.000,
455.167=0.250,
455.500=1.000,
456.000=2.000,
456.167=0.250,
456.500=1.000,
469.000=2.000,
469.500=0.250,
469.875=1.000,
470.000=2.000,
470.500=0.250,
471.000=1.000,
473.000=2.000,
473.500=0.250,
473.875=1.000,
474.000=2.000,
474.500=0.250,
475.000=1.000,
477.000=2.000,
477.500=0.250,
477.875=1.000,
478.000=2.000,
478.500=0.250,
479.000=1.000,
481.000=2.000,
481.500=0.250,
481.875=1.000,
482.000=2.000,
482.500=0.250,
483.000=1.000,
485.000=2.000,
485.500=0.250,
485.875=1.000,
486.000=2.000,
486.500=0.250,
487.000=1.000,
489.000=2.000,
489.500=0.250,
489.875=1.000,
490.000=2.000,
490.500=0.250,
491.000=1.000,
493.000=2.000,
493.500=0.250,
493.875=1.000,
494.000=2.000,
494.500=0.250,
495.000=1.000,
497.000=2.000,
497.500=0.250,
497.875=1.000,
498.000=2.000,
498.500=0.250,
499.000=1.000,
501.000=2.000,
501.500=0.250,
501.875=1.000,
502.000=2.000,
502.500=0.250,
503.000=1.000,
505.000=2.000,
505.500=0.250,
505.875=1.000,
506.000=2.000,
506.500=0.250,
507.000=1.000,
509.000=2.000,
509.500=0.250,
509.875=1.000,
510.000=2.000,
510.500=0.250,
511.000=1.000,
513.000=2.000,
513.500=0.250,
513.875=1.000,
514.000=2.000,
514.500=0.250,
515.000=1.000,
517.000=2.000,
517.500=0.250,
517.875=1.000,
518.000=2.000,
518.500=0.250,
519.000=1.000,
521.000=2.000,
521.500=0.250,
521.875=1.000,
522.000=2.000,
522.500=0.250,
523.000=1.000,
525.000=2.000,
525.500=0.250,
525.875=1.000,
526.000=2.000,
526.500=0.250,
527.000=1.000,
529.000=2.000,
529.500=0.250,
529.875=1.000,
530.000=2.000,
530.500=0.250,
531.000=1.000,
533.000=2.000,
533.500=0.250,
534.000=1.000,
537.000=2.000,
537.500=0.250,
538.000=1.000,
541.000=2.000,
541.500=0.250,
542.875=1.000,
543.000=2.000,
543.500=0.250,
544.875=1.000,
545.000=2.000,
545.500=0.250,
546.000=1.000;
#FAKES:;
#LABELS:0.000=Song Start;
#BGCHANGES:0.000=MV.avi=1.000=1=0=1===CrossFade==,
548.000=MV.avi=0.100=0=0=1=====,
99999=-nosongbg-=1.000=0=0=0 // don't automatically add -songbackground-
;
#KEYSOUNDS:;
#ATTACKS:
;

//---------------dance-single - ----------------
#NOTEDATA:;
#CHARTNAME:;
#STEPSTYPE:dance-single;
#DESCRIPTION:;
#CHARTSTYLE:;
#DIFFICULTY:Easy;
#METER:7;
#RADARVALUES:0.396684,0.505988,0.330249,0.680717,0.000000,412.000000,363.000000,49.000000,101.000000,0.000000,0.000000,0.000000,0.000000,29.000000,0.396684,0.505988,0.330249,0.680717,0.000000,412.000000,363.000000,49.000000,101.000000,0.000000,0.000000,0.000000,0.000000,29.000000;
#CREDIT:Musey's Chart;
#DISPLAYBPM:*;
#NOTES:
// measure 0
0000
0000
0000
0000
,  // measure 1
0000
0000
0000
0000
,  // measure 2
0000
0000
0000
0000
,  // measure 3
0000
0000
0000
0000
,  // measure 4
0000
0000
0000
0000
,  // measure 5
0000
0000
0000
0000
,  // measure 6
0000
0000
1000
0001
,  // measure 7
1000
0010
1000
1000
,  // measure 8
0001
0000
1000
0100
,  // measure 9
1000
0001
1000
1000
,  // measure 10
0010
0000
0001
1000
,  // measure 11
0001
1000
0100
0010
,  // measure 12
0001
0000
1000
0010
,  // measure 13
1000
0100
0010
0001
,  // measure 14
0010
0000
0001
0010
,  // measure 15
0100
1000
0001
0010
,  // measure 16
0100
1000
0002
1003
,  // measure 17
2000
3001
0001
1000
,  // measure 18
0010
1000
0100
0100
,  // measure 19
1000
1000
0010
1000
,  // measure 20
0010
1000
0010
1000
,  // measure 21
0010
1010
0001
1000
,  // measure 22
0001
1000
0001
1000
,  // measure 23
0001
1001
2000
0000
,  // measure 24
3200
0000
2300
0000
,  // measure 25
3020
0000
2030
0000
,  // measure 26
3002
0000
0023
0000
,  // measure 27
0230
0000
1300
0100
,  // measure 28
1000
0100
1000
0010
,  // measure 29
1000
1001
0001
0010
,  // measure 30
0100
0010
0001
0010
,  // measure 31
0100
0110
0001
0001
,  // measure 32
0000
1000
0001
1000
,  // measure 33
0001
0000
1000
0010
,  // measure 34
1000
0100
0010
0001
,  // measure 35
0010
0001
0010
0100
,  // measure 36
1000
0010
1000
0001
,  // measure 37
1000
0001
2000
0000
,  // measure 38
3002
0000
0013
0100
,  // measure 39
0010
0100
2000
0000
,  // measure 40
3002
0000
0103
0001
,  // measure 41
0100
0001
2000
0000
,  // measure 42
3002
0000
1003
0000
,  // measure 43
0000
0000
1000
0100
,  // measure 44
1000
0100
1000
0010
,  // measure 45
1000
0001
0020
0000
,  // measure 46
0230
0000
2300
0000
,  // measure 47
3002
0000
0203
0000
,  // measure 48
0302
0000
0023
0000
,  // measure 49
0230
0000
2300
0000
,  // measure 50
3002
0000
2003
0000
,  // measure 51
3020
0000
2030
0000
,  // measure 52
0000
0000
0000
0000
,  // measure 53
3001
0000
1001
0000
,  // measure 54
1001
0000
0001
0001
,  // measure 55
0001
0001
2000
0000
,  // measure 56
3002
0000
1003
0001
,  // measure 57
1000
0001
1000
0000
,  // measure 58
1000
0000
1000
0000
,  // measure 59
1000
0000
0010
1000
,  // measure 60
0100
1000
0010
1000
,  // measure 61
0100
1000
0002
0000
,  // measure 62
0000
0000
0003
1000
,  // measure 63
1000
1000
0010
0020
,  // measure 64
1030
1000
0001
0002
,  // measure 65
0013
0001
1000
0002
,  // measure 66
0003
1000
M000
00M0
,  // measure 67
00M0
00M0
M0M0
0000
M000
0000
000M
0000
,  // measure 68
000M
000M
00MM
0000
000M
0000
M000
0000
,  // measure 69
000M
000M
000M
0000
0000
0000
0000
0000
,  // measure 70
1000
0010
0020
1030
,  // measure 71
1000
0001
0002
0013
,  // measure 72
0001
1000
0002
1003
,  // measure 73
1000
0010
2000
3100
,  // measure 74
0001
0002
1003
0010
,  // measure 75
1000
0200
1300
1000
,  // measure 76
0010
2000
3001
0001
,  // measure 77
0010
0200
1300
0010
,  // measure 78
1000
0001
0001
0000
,  // measure 79
0000
0000
0000
0000
,  // measure 80
0000
1000
2000
3001
,  // measure 81
0010
0001
0001
0010
,  // measure 82
0100
1000
2000
3010
,  // measure 83
1000
0001
0002
0013
,  // measure 84
0100
0010
0020
0031
,  // measure 85
1000
0010
1000
0100
,  // measure 86
1000
0010
0010
0000
,  // measure 87
1000
0001
0000
0100
,  // measure 88
0000
1000
0000
1000
,  // measure 89
0000
1000
0000
1000
,  // measure 90
0000
0001
0000
0010
,  // measure 91
0000
0100
0000
1000
,  // measure 92
0000
0020
0000
1030
,  // measure 93
0000
0002
0000
1003
,  // measure 94
0000
2000
0000
3001
,  // measure 95
0000
0020
0000
1030
,  // measure 96
0000
2000
0000
3001
,  // measure 97
0000
0002
0000
0013
,  // measure 98
0000
0200
0000
1300
,  // measure 99
0000
0010
0000
0010
,  // measure 100
0000
1000
0001
1000
,  // measure 101
0010
1000
1000
1100
,  // measure 102
0000
1000
0100
0010
,  // measure 103
0001
0010
0100
0110
,  // measure 104
0000
0002
1003
2000
,  // measure 105
3001
0002
1003
2000
,  // measure 106
3001
0002
1003
2000
,  // measure 107
3001
0002
1003
0010
,  // measure 108
1010
1000
0001
1000
,  // measure 109
1001
0001
0001
0010
,  // measure 110
0010
0100
0100
1000
,  // measure 111
1000
0010
1000
0010
,  // measure 112
1000
0001
1000
0010
,  // measure 113
1000
0100
0100
0100
,  // measure 114
0100
2000
0000
0000
,  // measure 115
0000
0000
0001
0001
,  // measure 116
0001
0001
0001
0001
,  // measure 117
3001
1001
2002
3003
,  // measure 118
0000
0110
0220
0330
,  // measure 119
0000
1100
2200
3300
,  // measure 120
0000
1001
2002
3003
,  // measure 121
0000
0011
0022
0033
,  // measure 122
0000
0110
0220
0330
,  // measure 123
0000
1010
2020
3030
,  // measure 124
0000
0101
0202
0303
,  // measure 125
0000
1001
2002
3003
,  // measure 126
0000
1010
2020
3030
,  // measure 127
0000
1100
2200
3300
,  // measure 128
0000
1001
2002
3003
,  // measure 129
0000
0011
0022
0033
,  // measure 130
0000
0110
0220
0330
,  // measure 131
0000
1001
2002
3003
,  // measure 132
0000
1010
2020
3030
,  // measure 133
0000
1001
2002
3003
,  // measure 134
0000
0110
0220
0330
,  // measure 135
0000
2002
3003
2002
,  // measure 136
3003
2002
3003
0000
;

//---------------dance-single - ----------------
#NOTEDATA:;
#CHARTNAME:;
#STEPSTYPE:dance-single;
#DESCRIPTION:;
#CHARTSTYLE:;
#DIFFICULTY:Beginner;
#METER:4;
#RADARVALUES:0.241669,0.411716,0.000000,0.417866,0.000000,251.000000,251.000000,0.000000,62.000000,0.000000,0.000000,0.000000,0.000000,18.000000,0.241669,0.411716,0.000000,0.417866,0.000000,251.000000,251.000000,0.000000,62.000000,0.000000,0.000000,0.000000,0.000000,18.000000;
#CREDIT:Musey's Chart;
#DISPLAYBPM:*;
#NOTES:
// measure 0
0000
0000
0000
0000
,  // measure 1
0000
0000
0000
0000
,  // measure 2
0000
0000
0000
0000
,  // measure 3
0000
0000
0000
0000
,  // measure 4
0000
0000
0000
0000
,  // measure 5
0000
0000
0000
0000
,  // measure 6
0000
0000
1000
0001
,  // measure 7
1000
0000
0020
0000
,  // measure 8
1030
0000
0001
1000
,  // measure 9
0010
0000
2000
0000
,  // measure 10
3001
0000
0100
0000
,  // measure 11
0100
0000
1000
0100
,  // measure 12
1000
0000
0001
0000
,  // measure 13
0001
0000
0010
0001
,  // measure 14
0010
0000
0001
1000
,  // measure 15
0001
1000
0001
1000
,  // measure 16
0001
1000
0002
0000
,  // measure 17
0000
0000
2003
0000
,  // measure 18
0000
0000
0010
0000
,  // measure 19
3010
0000
1000
0000
,  // measure 20
1000
0000
0001
1000
,  // measure 21
0001
0000
0001
0000
,  // measure 22
0001
0000
1000
0001
,  // measure 23
1000
0000
0100
0000
,  // measure 24
0100
0000
1000
0000
,  // measure 25
1000
0000
0010
0000
,  // measure 26
0010
0000
1000
0000
,  // measure 27
1000
0000
0001
1000
,  // measure 28
0001
0000
0001
0010
,  // measure 29
0100
0000
0001
1000
,  // measure 30
0100
0000
0010
1000
,  // measure 31
0100
0000
1000
0000
,  // measure 32
1000
0000
0001
1000
,  // measure 33
0001
0000
1000
0010
,  // measure 34
1000
0000
0100
1000
,  // measure 35
0001
0000
0100
0010
,  // measure 36
0001
0000
0001
1000
,  // measure 37
0001
0000
2000
0000
,  // measure 38
3020
0000
2030
0000
,  // measure 39
0000
0000
3002
0000
,  // measure 40
0023
0000
0032
0000
,  // measure 41
0000
0000
2003
0000
,  // measure 42
3020
0000
0030
0000
,  // measure 43
0000
0000
1000
0001
,  // measure 44
1000
0000
0010
1000
,  // measure 45
0010
0000
0002
0000
,  // measure 46
0023
0000
0032
0000
,  // measure 47
2003
0000
3020
0000
,  // measure 48
2030
0000
3200
0000
,  // measure 49
2300
0000
3002
0000
,  // measure 50
0023
0000
0230
0000
,  // measure 51
2300
0000
3002
0000
,  // measure 52
0000
0000
0000
0000
,  // measure 53
1003
0000
1000
0000
,  // measure 54
1000
0000
1000
0000
,  // measure 55
1000
0000
0001
0000
,  // measure 56
0001
0000
0001
0000
,  // measure 57
0001
0000
1000
0000
,  // measure 58
1000
0000
1000
0000
,  // measure 59
1000
0000
0010
0000
,  // measure 60
0010
0000
0010
0000
,  // measure 61
0010
0000
2000
0000
,  // measure 62
0000
0000
0000
3000
,  // measure 63
1000
0000
0001
0002
,  // measure 64
0000
0003
1000
2000
,  // measure 65
0000
3000
0010
0000
,  // measure 66
0000
1000
0000
000M
,  // measure 67
000M
000M
000M
000M
0000
0000
M000
0000
,  // measure 68
M000
M000
M000
M000
M000
0000
00M0
0000
,  // measure 69
0000
0000
0000
0000
,  // measure 70
0000
0001
0002
0000
,  // measure 71
0003
1000
2000
0000
,  // measure 72
3000
0010
0020
0000
,  // measure 73
0030
1000
2000
0000
,  // measure 74
3000
0001
0002
0000
,  // measure 75
0003
0010
0020
0000
,  // measure 76
0030
1000
2000
0000
,  // measure 77
3000
0001
0002
0000
,  // measure 78
0003
0100
0100
0000
,  // measure 79
0000
0000
0000
0000
,  // measure 80
0000
0010
0020
0000
,  // measure 81
0030
1000
2000
0000
,  // measure 82
3000
0001
0002
0000
,  // measure 83
0003
0100
0200
0000
,  // measure 84
0300
0010
0020
0000
,  // measure 85
0030
1000
2000
0000
,  // measure 86
3000
0001
0001
0000
,  // measure 87
0000
1000
0000
0001
,  // measure 88
0000
1000
0000
1000
,  // measure 89
0000
0100
0000
0100
,  // measure 90
0000
1000
0000
1000
,  // measure 91
0000
0010
0000
0010
,  // measure 92
0000
2000
0000
0000
,  // measure 93
0000
0000
0000
0000
,  // measure 94
0000
0000
0000
0000
,  // measure 95
0000
0000
0000
0000
,  // measure 96
0000
3002
0000
0000
,  // measure 97
0000
0000
0000
0000
,  // measure 98
0000
0203
0000
0000
,  // measure 99
0000
0000
0000
0300
,  // measure 100
0000
1000
0000
1000
,  // measure 101
0000
0001
1000
0001
,  // measure 102
0000
0001
0000
0001
,  // measure 103
0000
1000
0001
1000
,  // measure 104
0000
0100
1000
0010
,  // measure 105
1000
0100
1000
0010
,  // measure 106
1000
0100
1000
0010
,  // measure 107
1000
0100
0000
0100
,  // measure 108
0000
1000
0001
1000
,  // measure 109
0000
0001
1000
0001
,  // measure 110
1000
0001
0000
0001
,  // measure 111
0000
1000
0010
1000
,  // measure 112
0000
0100
0000
0100
,  // measure 113
0000
1000
0100
1000
,  // measure 114
0100
2000
0000
0000
,  // measure 115
0000
3000
0000
0000
,  // measure 116
0000
0000
0000
0000
,  // measure 117
0000
0001
0002
0000
,  // measure 118
0003
1000
2000
0000
,  // measure 119
3000
0010
0020
0000
,  // measure 120
0030
0100
0200
0000
,  // measure 121
0300
0001
0002
0000
,  // measure 122
0003
1000
2000
0000
,  // measure 123
3000
0010
0020
0000
,  // measure 124
0030
0100
0200
0000
,  // measure 125
0300
0001
0002
0000
,  // measure 126
0003
1000
2000
0000
,  // measure 127
3000
0001
0002
0000
,  // measure 128
0003
0100
0200
0000
,  // measure 129
0300
0010
0020
0000
,  // measure 130
0030
1000
2000
0000
,  // measure 131
3000
0001
0002
0000
,  // measure 132
0003
1000
2000
0000
,  // measure 133
3000
0010
0020
0000
,  // measure 134
0030
1000
2000
0000
,  // measure 135
3000
0001
0000
0001
;

//---------------dance-single - ----------------
#NOTEDATA:;
#CHARTNAME:;
#STEPSTYPE:dance-single;
#DESCRIPTION:;
#CHARTSTYLE:;
#DIFFICULTY:Challenge;
#METER:18;
#RADARVALUES:0.893501,1.057976,0.714416,0.909869,0.417866,928.000000,822.000000,106.000000,135.000000,0.000000,0.000000,0.000000,0.000000,54.000000,0.893501,1.057976,0.714416,0.909869,0.417866,928.000000,822.000000,106.000000,135.000000,0.000000,0.000000,0.000000,0.000000,54.000000;
#CREDIT:Musey's Chart;
#DISPLAYBPM:*;
#NOTES:
// measure 0
0000
0000
0000
0000
,  // measure 1
0000
0000
0000
0000
,  // measure 2
0000
0000
0000
0000
,  // measure 3
0000
0000
0000
0000
,  // measure 4
0000
0000
0000
0000
,  // measure 5
0000
0000
0000
0000
,  // measure 6
0000
0100
0010
0100
0200
0000
0302
0000
,  // measure 7
2003
0000
3001
1000
0100
0010
0001
0100
,  // measure 8
0010
1000
0100
0010
0002
0000
2003
0000
,  // measure 9
3002
0000
1003
0001
1000
0100
0010
0001
,  // measure 10
0010
0001
1000
0010
0100
0001
0010
0001
,  // measure 11
0100
0010
1000
0001
0100
0001
0010
0100
,  // measure 12
0010
0001
1000
0010
0100
0010
0100
0001
,  // measure 13
1000
0000
0000
0001
0000
0000
0010
0000
0000
0100
0000
0000
0010
0000
0001
0000
1000
0000
0010
0000
0100
0000
0001
0000
,  // measure 14
1000
1100
0010
1100
,  // measure 15
0010
1100
0010
1100
,  // measure 16
0010
0000
0000
1100
0000
0000
1000
0100
0010
0001
0010
0100
,  // measure 17
1000
0001
0100
0001
1000
0100
0010
0000
0000
0001
0000
0000
,  // measure 18
0010
0001
0100
0001
0020
0000
0032
0000
,  // measure 19
0203
0000
0310
0000
0100
0010
1000
0001
,  // measure 20
0100
0010
1000
0001
0100
0010
1000
0001
,  // measure 21
0100
0000
0110
0000
0010
1000
0010
0001
,  // measure 22
0010
1000
0010
0001
0010
1000
0010
0001
,  // measure 23
0010
1010
0001
0002
,  // measure 24
1003
2000
3010
0020
,  // measure 25
1030
0000
2000
0000
3100
1000
0200
0000
,  // measure 26
1300
0100
2000
0000
3001
1000
0002
0000
,  // measure 27
0103
0010
0010
1000
0001
0010
0100
1000
,  // measure 28
0001
0010
0100
1000
0001
0100
0010
1000
,  // measure 29
0001
0010
0100
1000
1000
0100
0010
0001
,  // measure 30
1000
0100
0010
0001
1000
0010
0100
0001
,  // measure 31
1000
0001
1000
0010
2000
3000
2000
0000
,  // measure 32
3000
0001
1000
0001
0100
1000
0001
0010
,  // measure 33
0100
0000
0100
0001
1000
0010
1000
0001
,  // measure 34
0100
1000
0001
0010
1000
0100
0010
0001
,  // measure 35
1000
0001
1000
0010
1000
0001
0100
0001
,  // measure 36
1000
0010
0001
1000
0100
0001
0010
0100
,  // measure 37
1000
0000
0000
0001
0000
0000
0000
0000
0000
0001
0000
0000
1000
0000
0000
0000
0000
0000
0000
0000
0000
0000
0000
0000
0001
0000
0000
0000
0100
0000
0000
0000
0001
0000
0000
0000
1000
0000
0000
0000
0100
0000
0000
0000
1000
0000
0000
0000
,  // measure 38
0001
0010
0001
1000
0010
1000
0002
0000
0000
2003
0000
0000
,  // measure 39
3200
0000
0000
2300
0000
0000
3001
1000
0001
0010
0100
0010
,  // measure 40
0001
0100
0001
1000
0100
1000
0200
0000
0000
2300
0000
0000
,  // measure 41
3200
0000
0000
0320
0000
0000
0031
1000
0001
0100
0010
0100
,  // measure 42
0010
0000
0000
0000
1000
0000
0000
0000
0010
0000
0000
0000
0100
0000
0000
0000
0001
0000
0000
0000
0100
0000
0000
0000
0000
0000
0000
0000
0000
0000
1000
0000
0000
0001
0000
0000
1000
0000
0000
0000
0000
0000
0001
0000
0000
0000
0000
0000
,  // measure 43
0001
0100
0001
0100
0001
0100
1000
0100
,  // measure 44
0001
0010
0100
1000
0010
1000
0010
0100
,  // measure 45
0010
0000
0000
1000
0000
0000
1000
0000
0000
0000
0000
0000
1000
0000
0010
0000
1000
0000
0001
0000
0010
0000
0001
0000
,  // measure 46
1000
0100
1000
0001
0100
0001
2000
0000
0000
3002
0000
0000
,  // measure 47
0023
0000
0000
0032
0000
0000
1003
0001
1000
0100
0010
0100
,  // measure 48
1000
0010
1000
0001
0010
0001
0020
0000
0000
0032
0000
0000
,  // measure 49
0023
0000
0000
0230
0000
0000
1300
0001
1000
0010
0100
0010
,  // measure 50
0100
0001
0100
0010
1000
0010
0200
0000
0000
0302
0000
0000
,  // measure 51
2003
0000
0000
3002
0000
0000
0103
0010
1000
0001
0100
0010
,  // measure 52
0100
0001
1000
0001
1000
0010
1000
0001
0010
0001
1000
0010
,  // measure 53
2000
3000
1001
0000
,  // measure 54
1001
0000
1001
1001
,  // measure 55
1001
0000
0000
0000
1001
0000
0000
0000
1000
0010
1000
0010
2000
0000
3000
0000
,  // measure 56
0001
0100
0001
0100
0002
0000
0003
0000
1000
0000
0010
0000
1000
0000
0010
0000
,  // measure 57
1000
0010
1000
0001
2001
0000
3100
0010
,  // measure 58
0012
0000
0013
0100
2100
0000
3100
0010
,  // measure 59
0012
0000
0013
0100
0120
0000
0230
0000
,  // measure 60
2300
0000
0000
3200
0000
0000
0310
0001
0010
0001
0100
0010
,  // measure 61
0100
0010
1000
0100
0010
0001
2000
0000
0000
0000
0000
0000
,  // measure 62
0000
0000
3000
0110
,  // measure 63
0110
1001
1001
1002
,  // measure 64
0103
1000
0100
0010
0101
0000
0102
0000
,  // measure 65
0103
0001
1000
0001
1010
0000
0000
0000
,  // measure 66
0000
0110
M00M
M00M
,  // measure 67
M00M
000M
000M
000M
0M0M
0000
M000
0000
0M00
0000
00M0
0000
0M0M
0000
0000
0000
,  // measure 68
0M0M
000M
000M
000M
0M0M
0000
000M
0000
M000
0000
000M
0000
M0M0
0000
0000
0000
,  // measure 69
M0M0
M000
M000
0000
0000
0000
0000
0000
0000
0000
0000
0000
0000
0000
0000
0000
,  // measure 70
1001
0000
1001
0000
1002
0000
0103
1000
,  // measure 71
0100
0010
0101
0000
0102
0000
0103
0001
,  // measure 72
1000
0001
1010
0000
2010
0000
3001
1000
,  // measure 73
1000
0010
0110
0000
0210
0000
0310
0010
,  // measure 74
0100
0010
1010
0000
2010
0000
3010
1000
,  // measure 75
1000
0001
0101
0000
0102
0000
1003
0010
,  // measure 76
0100
0001
1010
0000
2010
0000
3001
0010
,  // measure 77
0100
1000
1100
0000
2100
0000
3001
1000
,  // measure 78
0001
1000
0110
0000
0210
0000
0300
0010
,  // measure 79
0100
0010
0100
0000
0200
0000
0300
0001
,  // measure 80
0010
0100
0110
0000
0210
0000
0301
1000
,  // measure 81
1000
0100
0110
0000
0210
0000
0301
0001
,  // measure 82
1000
0001
0101
0000
0201
0000
1300
0001
,  // measure 83
0001
1000
1001
0000
2001
0000
3100
0010
,  // measure 84
0010
0001
0011
0000
0021
0000
0031
1000
,  // measure 85
1000
0010
1010
0000
2010
0000
3100
0100
,  // measure 86
0010
0100
1001
0000
1002
0000
0003
0010
,  // measure 87
0100
0010
2000
0000
3010
0100
0002
0000
,  // measure 88
1003
0010
0100
0001
1000
0001
0100
0001
,  // measure 89
1000
0001
0100
0001
1000
0001
0010
0100
,  // measure 90
1000
0010
0100
0001
0010
0001
0100
0010
,  // measure 91
1000
0100
2000
0000
3000
0000
0020
0000
,  // measure 92
0000
0030
0000
0100
0010
0100
0000
0010
,  // measure 93
0100
0010
0000
1000
0001
1000
0000
0100
,  // measure 94
1000
0000
0001
0000
0020
0000
0000
0000
0130
0000
1000
0000
0002
0000
0000
0003
,  // measure 95
0010
0100
2000
0000
3100
0010
0002
0000
,  // measure 96
1003
0010
0200
0000
0301
0001
0020
0000
,  // measure 97
1030
1000
0002
0000
0103
0100
0020
0000
,  // measure 98
1030
1000
0001
0000
1100
0000
0001
0000
,  // measure 99
1100
0000
0101
0000
1010
0000
1001
0001
,  // measure 100
1000
0100
1000
0001
0010
0100
1000
0001
,  // measure 101
0010
0100
1000
0001
0100
0010
1000
0100
,  // measure 102
0010
0100
1000
0100
0010
0001
1000
0100
,  // measure 103
0010
0001
1000
0010
0100
0001
1000
0001
,  // measure 104
0010
0100
2000
3002
2003
3200
0320
0032
,  // measure 105
0203
0320
2030
3002
0023
0230
2300
3002
,  // measure 106
0203
0320
2030
3002
0023
0230
2300
3002
,  // measure 107
0203
0000
0000
0320
0000
0000
1030
0000
0001
0000
1000
0000
0010
0000
1000
0000
0001
0000
0100
0000
0000
0000
0000
0000
,  // measure 108
0101
0000
0000
0001
1000
0001
0100
0001
1000
0100
0000
0000
,  // measure 109
1010
0002
2003
3002
,  // measure 110
2003
3000
1001
0000
0001
0000
0101
0000
,  // measure 111
1000
0000
0110
0000
1010
0000
0002
0003
,  // measure 112
0101
0000
2000
3000
1001
0000
0020
0030
,  // measure 113
0110
0000
0001
0010
0100
0010
0100
0010
,  // measure 114
0100
0010
0002
0000
0000
0000
0000
0000
,  // measure 115
1000
0000
0000
0000
1003
0000
0000
0000
0100
0010
0000
0010
0100
0000
0000
0000
,  // measure 116
0001
1000
0001
0010
0001
0010
1000
0100
1000
0001
0010
0100
,  // measure 117
0010
0000
0000
0000
0001
0000
0000
0000
1000
0000
0000
0000
1001
0000
0000
0000
0000
0000
0000
0000
0000
0000
0000
0000
1002
0000
0000
0000
0000
0000
0000
0000
0000
0000
0000
0000
0103
0000
0000
0000
0000
0000
0001
0000
0000
0100
0000
0000
,  // measure 118
0010
0000
0100
0000
0101
0000
0000
0000
0102
0000
0000
0000
0103
0000
0001
0010
,  // measure 119
0100
0000
1000
0000
1001
0000
0000
0000
2001
0000
0000
0000
3010
0000
1000
0001
,  // measure 120
0100
0010
0110
0000
0210
0000
0310
0010
,  // measure 121
0100
0000
0010
0000
1010
0000
0000
0000
2010
0000
0000
0000
3010
0000
1000
0010
,  // measure 122
0100
0000
0001
0000
0101
0000
0000
0000
0102
0000
0000
0000
1003
0000
0001
0100
,  // measure 123
0010
0000
1000
0000
1010
0000
0000
0000
2010
0000
0000
0000
3001
0000
1000
0100
,  // measure 124
0010
0001
1001
0000
2001
0000
3001
1000
,  // measure 125
0001
0000
1000
0000
0110
0000
0000
0000
0210
0000
0000
0000
0310
0000
0100
0001
,  // measure 126
1000
0000
0001
0000
0101
0000
0000
0000
0201
0000
0000
0000
0301
0000
0100
0001
,  // measure 127
1000
0000
0010
0000
0110
0000
0000
0000
0210
0000
0000
0000
0301
0000
0100
0001
,  // measure 128
1000
0010
0110
0000
0210
0000
0301
0001
,  // measure 129
1000
0000
0001
0000
0101
0000
0000
0000
0201
0000
0000
0000
0310
0000
0100
0010
,  // measure 130
1000
0000
0001
0000
1001
0000
0000
0000
2001
0000
0000
0000
3100
0000
1000
0001
,  // measure 131
0010
0000
0001
0000
0011
0000
0000
0000
0021
0000
0000
0000
0031
0000
0010
0001
,  // measure 132
1000
0010
1010
0000
2010
0000
3100
0100
,  // measure 133
0010
0100
1001
0000
1002
0000
0003
0001
,  // measure 134
1000
0001
1001
0000
0201
0000
0300
0010
,  // measure 135
0100
0010
0220
0000
0330
0000
0220
0000
,  // measure 136
0330
0220
0330
0000
;

//---------------dance-single - ----------------
#NOTEDATA:;
#CHARTNAME:;
#STEPSTYPE:dance-single;
#DESCRIPTION:;
#CHARTSTYLE:;
#DIFFICULTY:Hard;
#METER:16;
#RADARVALUES:0.710564,0.969516,0.714416,0.707676,0.080877,738.000000,632.000000,106.000000,105.000000,0.000000,0.000000,0.000000,0.000000,32.000000,0.710564,0.969516,0.714416,0.707676,0.080877,738.000000,632.000000,106.000000,105.000000,0.000000,0.000000,0.000000,0.000000,32.000000;
#CREDIT:Musey's Chart;
#DISPLAYBPM:*;
#NOTES:
// measure 0
0000
0000
0000
0000
,  // measure 1
0000
0000
0000
0000
,  // measure 2
0000
0000
0000
0000
,  // measure 3
0000
0000
0000
0000
,  // measure 4
0000
0000
0000
0000
,  // measure 5
0000
0000
0000
0000
,  // measure 6
0000
0000
0000
0000
0020
0030
0200
0300
,  // measure 7
0020
0030
1000
0100
0010
0001
0010
0100
,  // measure 8
1000
0000
0200
0300
0002
0003
0200
0300
,  // measure 9
0002
0003
0100
1000
0001
1000
0010
0100
,  // measure 10
0001
0000
2000
3000
0200
0300
0020
0030
,  // measure 11
0002
0003
0010
1000
0001
0100
0010
0100
,  // measure 12
0001
0000
0002
0003
0020
0030
0002
0003
,  // measure 13
2000
3000
0100
1000
0001
0100
1000
0100
,  // measure 14
0010
0110
0001
0011
,  // measure 15
0001
0011
1000
1001
,  // measure 16
1000
0000
0101
0000
0100
1000
0010
1000
,  // measure 17
0001
0010
0100
1000
0001
0000
0100
0000
,  // measure 18
0010
0100
0001
0001
,  // measure 19
1000
1000
0002
2003
,  // measure 20
3002
0000
2003
0000
3001
0010
0100
1000
,  // measure 21
0001
1001
0002
2003
,  // measure 22
3002
0000
2003
0000
3001
0010
0100
1000
,  // measure 23
0100
0011
0002
0000
,  // measure 24
2003
0000
3020
0000
,  // measure 25
0230
0000
0302
0000
,  // measure 26
0023
0000
0000
0000
0130
1000
0001
0100
,  // measure 27
0010
1000
0001
0010
0001
1000
0100
1000
,  // measure 28
0010
0100
0010
1000
0001
0010
0100
0010
,  // measure 29
0001
1000
0001
0100
1000
0100
0010
0100
,  // measure 30
0001
0010
0100
0001
1000
0100
0010
0100
,  // measure 31
0001
0011
0002
0203
,  // measure 32
0300
0001
1000
0100
0010
0100
0001
0010
,  // measure 33
1000
0000
0100
0000
0002
0003
2000
3000
,  // measure 34
0020
0030
0200
0300
0001
1000
0010
1000
,  // measure 35
0001
0010
0100
1000
0002
0003
0200
0300
,  // measure 36
0002
0003
2000
3000
1000
0001
0100
0001
,  // measure 37
1000
1001
0002
0023
,  // measure 38
0230
2300
3010
1010
,  // measure 39
0002
0023
0230
2300
,  // measure 40
3020
0230
0310
0110
,  // measure 41
0002
0013
0011
0200
,  // measure 42
2300
0000
3020
0000
0030
1000
0100
1000
,  // measure 43
0100
1000
0001
0000
0100
0000
0010
0000
,  // measure 44
1000
0000
0100
1000
0001
0100
0010
1000
,  // measure 45
0001
0100
0001
0000
0012
0000
0023
0000
,  // measure 46
0230
2300
3020
2030
,  // measure 47
3002
1003
0021
0032
,  // measure 48
0023
0230
0320
0032
,  // measure 49
0203
0301
0120
0032
,  // measure 50
0023
0130
1020
2030
,  // measure 51
3002
0000
0103
0000
0010
0100
0010
0100
,  // measure 52
0001
1000
0001
1000
0100
0010
0100
0010
,  // measure 53
0001
0000
0002
2003
,  // measure 54
3002
2003
3001
0001
,  // measure 55
0001
0001
0100
0110
,  // measure 56
0001
1001
0110
1010
,  // measure 57
0101
0000
1100
0000
0002
0000
0003
0001
,  // measure 58
2000
0000
3000
1000
0002
0000
0003
0001
,  // measure 59
2000
3000
1001
1001
,  // measure 60
1001
1001
0020
2030
,  // measure 61
3020
1030
2020
0000
,  // measure 62
0000
0000
3030
0001
,  // measure 63
0100
0001
0011
0011
,  // measure 64
0001
1000
1001
1001
,  // measure 65
0001
0010
0011
0011
,  // measure 66
0000
0100
00MM
00MM
,  // measure 67
000M
M000
M00M
M00M
,  // measure 68
000M
00M0
00MM
0000
,  // measure 69
0000
0000
0000
0000
,  // measure 70
0001
0000
0011
0000
0011
0000
1000
0100
,  // measure 71
1000
0000
1001
0000
1001
0000
0010
0100
,  // measure 72
0010
0000
0011
0000
0011
0000
0100
1000
,  // measure 73
0010
0110
0110
0001
,  // measure 74
1000
0000
1001
0000
1001
0000
0010
0100
,  // measure 75
1000
0000
1100
0000
1100
0000
0100
0010
,  // measure 76
0001
0000
1010
0000
1010
0000
0001
1000
,  // measure 77
0010
0000
0110
0000
0110
0000
0001
1000
,  // measure 78
0001
0100
0101
0000
1001
0000
0000
1000
,  // measure 79
0001
1000
0001
0000
0002
0000
0003
0010
,  // measure 80
0100
1000
1100
0000
1100
0000
0010
1000
,  // measure 81
0100
0000
0011
0000
0011
0000
0001
0010
,  // measure 82
0100
1000
0110
0000
0110
0000
1000
0010
,  // measure 83
1000
0000
1001
0000
1001
0000
0010
0100
,  // measure 84
0001
0000
1010
0000
1010
0000
0001
0100
,  // measure 85
0010
0011
0011
0100
,  // measure 86
0010
0110
0110
0000
,  // measure 87
0001
1000
0002
0100
,  // measure 88
0103
0000
0001
1000
0001
0000
0100
0010
,  // measure 89
0100
0000
0001
0010
0001
0000
1000
0001
,  // measure 90
1000
0000
0010
0001
0010
1000
0001
1000
,  // measure 91
0010
0100
0002
0000
0000
0000
0203
0000
,  // measure 92
0000
0000
0000
0301
0010
0001
0000
1000
,  // measure 93
0010
1000
0000
0100
1000
0100
0000
1000
,  // measure 94
0100
1000
0002
0000
0000
0000
2003
0000
,  // measure 95
0000
3020
0000
2030
,  // measure 96
0000
3002
0010
0203
,  // measure 97
1000
0320
1000
0230
,  // measure 98
0001
0320
0000
2030
,  // measure 99
0000
3002
0100
0103
,  // measure 100
0000
0000
1000
0100
1000
0000
0100
1000
,  // measure 101
0100
0000
1000
0100
1000
0100
1000
0000
,  // measure 102
1100
0000
0001
0010
0100
0000
0100
0010
,  // measure 103
0001
0000
0001
0010
0100
1000
0010
0000
,  // measure 104
1010
0000
1000
0100
0010
0001
0100
1000
,  // measure 105
0100
0010
0100
0001
1000
0010
0100
0010
,  // measure 106
1000
0010
0001
0010
1000
0010
0100
0000
,  // measure 107
0100
0000
0001
0010
0001
0010
0001
0000
,  // measure 108
0011
0000
0001
0010
0100
0010
0001
0000
,  // measure 109
0011
0000
0000
0000
0100
1000
0100
0010
0100
0000
0010
0000
0001
0100
0001
0100
,  // measure 110
0010
0000
1000
0000
1001
0000
0000
0000
0000
0000
0000
0000
0001
0000
1000
0001
,  // measure 111
1000
0001
0100
0000
0001
1000
0100
0000
,  // measure 112
0101
1000
1001
0100
,  // measure 113
0110
0000
0010
0100
0010
0100
0010
0100
,  // measure 114
0010
1000
2002
0000
0000
0000
3003
0000
,  // measure 115
0100
0000
0100
0000
0001
1000
0001
0010
,  // measure 116
0100
0000
0000
1000
0000
0000
0010
0000
1000
0000
0010
0000
0001
0000
0010
0000
1000
0000
0010
0000
0100
0000
0010
0000
,  // measure 117
0100
0000
0000
0000
0001
0000
0000
0000
0010
0000
0000
0000
0100
0000
0000
0000
0000
0000
0000
0000
0000
0000
0000
0000
1100
0000
0000
0000
0000
0000
0000
0000
0000
0000
0000
0000
1000
0000
0000
0000
0000
0000
0010
0000
0000
0100
0000
0000
,  // measure 118
0001
0000
0000
0000
1001
0000
0000
0000
1001
0000
0000
0000
1000
0000
0100
0010
,  // measure 119
0100
0000
0000
0000
1100
0000
0000
0000
1100
0000
0000
0000
0010
0000
0100
0010
,  // measure 120
1000
0000
0110
0000
0110
0000
0001
0010
,  // measure 121
0100
0000
1000
0000
1001
0000
0000
0000
1001
0000
0000
0000
0100
0000
0001
0010
,  // measure 122
0100
0000
0000
0000
0011
0000
0000
0000
0011
0000
0000
0000
0100
0000
0001
1000
,  // measure 123
0010
0000
0000
0000
0101
0000
0000
0000
0101
0000
0000
0000
1000
0000
0001
1000
,  // measure 124
0010
0000
0110
0000
0110
0000
1000
0100
,  // measure 125
0010
0000
0001
0000
1001
0000
0000
0000
1001
0000
0000
0000
0100
0000
0001
0010
,  // measure 126
0001
0000
0000
0000
0101
0000
0000
0000
0101
0000
0000
0000
0001
0000
0100
0001
,  // measure 127
0100
0000
0000
0000
0011
0000
0000
0000
0011
0000
0000
0000
0010
0000
0100
0010
,  // measure 128
0100
0000
1100
0000
1100
0000
1000
0001
,  // measure 129
0100
0000
0010
0000
0110
0000
0000
0000
0110
0000
0000
0000
0001
0000
1000
0001
,  // measure 130
1000
0000
0000
0000
1001
0000
0000
0000
1001
0000
0000
0000
0100
0000
0010
0100
,  // measure 131
0010
0000
0101
0000
0101
0000
1000
0001
,  // measure 132
0100
0010
1100
0000
1100
0000
0010
0001
,  // measure 133
0100
1000
1010
0000
1010
0000
0000
0000
,  // measure 134
0000
1001
1001
0000
,  // measure 135
0000
0110
0000
0110
,  // measure 136
0000
0110
0002
2003
,  // measure 137
3000
0000
0000
0000
;

//---------------dance-single - ----------------
#NOTEDATA:;
#CHARTNAME:;
#STEPSTYPE:dance-single;
#DESCRIPTION:;
#CHARTSTYLE:;
#DIFFICULTY:Medium;
#METER:11;
#RADARVALUES:0.468895,0.689984,0.411126,0.512223,0.000000,487.000000,426.000000,61.000000,76.000000,0.000000,0.000000,0.000000,0.000000,29.000000,0.468895,0.689984,0.411126,0.512223,0.000000,487.000000,426.000000,61.000000,76.000000,0.000000,0.000000,0.000000,0.000000,29.000000;
#CREDIT:Musey's Chart;
#DISPLAYBPM:*;
#NOTES:
// measure 0
0000
0000
0000
0000
,  // measure 1
0000
0000
0000
0000
,  // measure 2
0000
0000
0000
0000
,  // measure 3
0000
0000
0000
0000
,  // measure 4
0000
0000
0000
0000
,  // measure 5
0000
0000
0000
0000
,  // measure 6
0000
0000
1000
0001
,  // measure 7
1000
0000
0010
0100
1000
0000
1000
0000
,  // measure 8
0001
0000
1000
0100
,  // measure 9
1000
0000
0001
0000
1000
0010
1000
0000
,  // measure 10
0010
0000
0001
1000
,  // measure 11
0001
0000
1000
0000
0100
1000
0010
0100
,  // measure 12
0001
0000
1000
0010
,  // measure 13
1000
0100
0010
0001
,  // measure 14
0011
0000
0001
0010
,  // measure 15
0100
1000
0001
0010
,  // measure 16
0100
1000
0002
1003
,  // measure 17
2000
3001
0001
1000
,  // measure 18
0010
1000
0100
0100
,  // measure 19
1000
1000
0010
1000
,  // measure 20
0010
0000
1000
0000
0010
1000
0010
0000
,  // measure 21
1000
1010
0001
1000
,  // measure 22
0001
0000
1000
0000
0001
1000
0001
0000
,  // measure 23
1000
1001
2000
0000
,  // measure 24
3200
0000
2300
0000
,  // measure 25
3020
0000
2030
0000
,  // measure 26
3002
0000
0023
0000
,  // measure 27
0230
0000
1300
0100
,  // measure 28
1000
0000
0100
0000
1000
0100
0010
0100
,  // measure 29
1000
1001
0001
0010
,  // measure 30
0100
0000
0010
0000
0001
0010
0100
0010
,  // measure 31
0001
0110
0001
0001
,  // measure 32
0000
0010
1000
0001
0010
0100
1000
0001
,  // measure 33
0010
0000
1000
0010
,  // measure 34
1000
0000
0100
0000
0010
0100
1000
0000
,  // measure 35
0010
0001
0010
0100
,  // measure 36
0001
0010
1000
0100
,  // measure 37
0010
0100
0002
0000
,  // measure 38
2003
0000
3100
0010
,  // measure 39
0100
0010
0002
0000
,  // measure 40
2003
0000
3010
1000
,  // measure 41
0010
1000
0002
0000
,  // measure 42
2003
0000
3001
0000
,  // measure 43
0000
0000
0001
0010
,  // measure 44
0001
0000
0010
0000
0001
0010
0100
1000
,  // measure 45
0001
1000
0200
0000
,  // measure 46
0320
0000
0032
0000
,  // measure 47
2003
0000
3020
0000
,  // measure 48
2030
0000
3200
0000
,  // measure 49
0320
0000
0032
0000
,  // measure 50
2003
0000
3002
0000
,  // measure 51
0203
0000
0302
0000
,  // measure 52
0000
0000
0000
0000
,  // measure 53
1003
0000
1001
0000
,  // measure 54
1001
0000
1000
1000
,  // measure 55
1000
0000
1000
0000
0001
0100
0001
0000
,  // measure 56
1000
0100
1000
0000
0001
1000
0001
1000
,  // measure 57
0001
1000
0001
0100
0020
0000
0000
1030
,  // measure 58
0020
0000
0000
1030
0020
0000
0000
1030
,  // measure 59
0020
0000
0000
0130
0001
0000
0001
0000
,  // measure 60
0010
0001
0100
0001
,  // measure 61
0010
0001
2000
0000
,  // measure 62
0000
0000
3000
0001
,  // measure 63
0001
0001
0100
0200
,  // measure 64
0301
0001
1000
2000
,  // measure 65
3100
1000
0001
2000
,  // measure 66
3000
0001
000M
0M00
,  // measure 67
0M00
0M00
0M0M
0000
000M
0000
M000
0000
,  // measure 68
M000
M000
MM00
0000
M000
0000
000M
0000
,  // measure 69
M000
M000
M000
0000
0000
0000
0000
0000
,  // measure 70
0001
0100
0200
0301
,  // measure 71
0001
1000
2000
3100
,  // measure 72
1000
0001
2000
3001
,  // measure 73
0001
0100
0002
0013
,  // measure 74
0100
2000
3001
0100
,  // measure 75
0001
0020
0031
0001
,  // measure 76
0100
0002
1003
1000
,  // measure 77
0100
0020
0031
0100
,  // measure 78
0001
1000
1000
0000
,  // measure 79
0000
0010
0000
0000
,  // measure 80
0000
0001
0002
1003
,  // measure 81
0100
1000
1000
0100
,  // measure 82
0010
0001
0002
0103
,  // measure 83
0001
1000
2000
3100
,  // measure 84
0010
0100
0200
1300
,  // measure 85
0001
0100
0001
0010
,  // measure 86
0001
0100
0100
0000
,  // measure 87
0001
1000
0000
0010
,  // measure 88
0000
0001
0000
0001
,  // measure 89
0000
0001
0000
0001
,  // measure 90
0000
1000
0000
0100
,  // measure 91
0000
0010
0000
0001
,  // measure 92
0000
0200
0000
0301
,  // measure 93
0000
2000
0000
3001
,  // measure 94
0000
0002
0000
1003
,  // measure 95
0000
0200
0000
0301
,  // measure 96
0000
0002
0000
1003
,  // measure 97
0000
2000
0000
3100
,  // measure 98
0000
0020
0000
0031
,  // measure 99
0000
0100
0100
0110
,  // measure 100
0000
0001
0100
0010
,  // measure 101
1000
0100
1000
0001
1000
0010
0100
0000
,  // measure 102
0001
0010
0100
0010
,  // measure 103
0001
1000
0010
1000
0100
0010
0001
0000
,  // measure 104
1000
1001
0010
0110
,  // measure 105
0001
0011
0100
1100
,  // measure 106
0001
0000
1000
0010
1000
0100
1000
0001
,  // measure 107
0100
0001
1000
0000
0001
0000
0100
0000
,  // measure 108
0101
0001
1000
0001
,  // measure 109
1001
1000
1000
0100
,  // measure 110
0100
0010
0010
0001
,  // measure 111
0001
0100
0001
0100
,  // measure 112
0001
1000
0001
0100
,  // measure 113
0001
0010
0010
0010
,  // measure 114
0010
0002
0000
0000
,  // measure 115
0000
0000
1000
1000
,  // measure 116
1000
1000
1000
1000
,  // measure 117
1003
1010
2001
3001
,  // measure 118
0000
0110
0210
0310
,  // measure 119
0000
0011
0012
0013
,  // measure 120
0000
1001
1001
0110
,  // measure 121
1001
1100
2100
3100
,  // measure 122
0000
0110
0210
0310
,  // measure 123
0000
0101
0102
0103
,  // measure 124
0000
1010
1010
0110
,  // measure 125
1100
1001
1002
1003
,  // measure 126
0000
0101
0102
0103
,  // measure 127
0000
0011
0012
0013
,  // measure 128
0000
1001
1001
0110
,  // measure 129
1001
1100
2100
3100
,  // measure 130
0000
0110
0120
0130
,  // measure 131
0000
1001
1002
1003
,  // measure 132
0000
0101
0101
0110
,  // measure 133
0110
1001
2002
3003
,  // measure 134
0000
0110
0220
0330
,  // measure 135
0000
2002
3003
2002
,  // measure 136
3003
2002
3003
0000
;
