#TITLE:+Preeminence;
#SUBTITLE:;
#ARTIST:Audiomachine;
#TITLETRANSLIT:;
#SUBTITLETRANSLIT:;
#ARTISTTRANSLIT:;
#GENRE:;
#CREDIT:;
#BANNER:Preeminence.png;
#BACKGROUND:Preeminence-bg.png;
#LYRICSPATH:;
#CDTITLE:;
#MUSIC:Preeminence.mp3;
#OFFSET:-0.075000;
#SAMPLESTART:53.895145;
#SAMPLELENGTH:14.999995;
#SELECTABLE:YES;
#BPMS:0.000000=133.332993
;
#STOPS:118.000000=-9.000023,
211.000000=-9.000023
;
#BGCHANGES:;
#KEYSOUNDS:;
#ATTACKS:;

//---------------dance-single - ----------------
#NOTES:
     dance-single:
     :
     Hard:
     16:
     0.695355,0.963215,0.363982,0.252937,1.363390,789.000000,730.000000,59.000000,41.000000,0.000000,0.000000,0.695355,0.963215,0.363982,0.252937,1.363390,789.000000,730.000000,59.000000,41.000000,0.000000,0.000000:
// measure 0
0000
0000
0000
0000
,  // measure 1
0000
0000
0000
0000
,  // measure 2
0000
0000
0000
0000
,  // measure 3
0000
0000
0000
0000
,  // measure 4
0001
0010
0100
1000
0001
0010
0001
0000
0000
1000
0100
1000
,  // measure 5
0001
0100
0101
1010
,  // measure 6
0001
0010
0001
0100
0010
1000
0100
0000
0000
1000
0001
0100
,  // measure 7
0001
0000
0000
0000
0000
0000
1001
0001
0100
0001
1000
0100
,  // measure 8
1100
0000
0000
2000
,  // measure 9
3001
0010
0100
1000
0000
0000
1000
0100
0010
0001
0000
0000
,  // measure 10
1000
0100
0010
0001
0000
0000
1000
0001
1000
0001
1000
0100
,  // measure 11
1000
0100
0010
0001
0010
0100
1000
0000
0000
1001
0000
0000
,  // measure 12
0001
0010
0001
0100
0010
1000
0100
1000
0010
0100
0001
0010
,  // measure 13
0001
0010
0100
1000
0100
0010
0001
0000
0000
1001
0000
0000
,  // measure 14
0001
0010
0001
1000
0010
1000
0001
0100
0001
1000
0100
1000
,  // measure 15
0001
0010
0100
0001
1000
0001
0100
0010
0100
1000
0001
1000
,  // measure 16
0100
1000
0010
0100
0001
0010
0100
0010
0001
0100
0010
1000
,  // measure 17
0100
0000
0000
0002
,  // measure 18
1003
0100
1000
0001
0100
0001
1000
0010
1000
0001
0010
0001
,  // measure 19
1000
0100
0001
0100
1000
0001
1000
0010
0001
0010
1000
0001
,  // measure 20
1000
0100
0010
0100
1000
0010
1000
0100
0010
0100
1000
0010
,  // measure 21
0100
0001
0010
0001
0100
0010
1000
0000
0000
0000
0000
0000
,  // measure 22
0001
0010
0100
1000
0100
0010
0001
0010
0100
1000
0100
0010
,  // measure 23
0001
1000
0001
0100
0010
0100
0001
1000
0001
0100
0010
0100
,  // measure 24
0001
0010
0100
0001
0100
0010
0001
0010
0100
0001
0100
0010
,  // measure 25
0001
0000
0000
0000
,  // measure 26
1001
0000
1000
0000
1000
0000
0110
0000
0010
0000
0010
0100
,  // measure 27
0001
1000
0001
0100
0010
0000
1001
0000
1000
0000
1000
0100
,  // measure 28
0010
0000
0001
0000
0001
0000
0101
0000
0100
0000
0100
0010
,  // measure 29
1000
0001
0100
0001
1000
0010
0100
0000
0000
0000
0000
0000
,  // measure 30
0000
0000
0000
0000
,  // measure 31
0000
0000
0000
0000
,  // measure 32
0000
0000
0000
0000
,  // measure 33
0000
0000
0000
0000
,  // measure 34
0000
0000
0000
0000
,  // measure 35
1000
0010
0100
0010
1000
0001
1000
0010
0100
0010
1000
0001
,  // measure 36
1000
0100
0010
1000
0010
0100
0001
0100
0010
0001
0010
0100
,  // measure 37
1000
0001
0100
0010
1000
0001
1000
0001
0100
0010
1000
0001
,  // measure 38
1000
0100
1000
0001
0100
0001
1000
0010
1000
0001
0010
0001
,  // measure 39
1000
0010
0100
0001
0010
0100
1000
0010
0100
0001
0010
0100
,  // measure 40
1000
0001
1000
0001
0010
0001
1000
0100
1000
0001
1000
0001
,  // measure 41
1000
0010
1000
0100
1000
0010
0100
0001
0010
0001
0100
0001
,  // measure 42
1001
0000
0000
0000
,  // measure 43
0001
0010
0100
1000
0100
0010
0001
0010
0100
1000
0100
0010
,  // measure 44
0001
0100
0010
1000
0100
0010
0001
0100
0010
1000
0100
0010
,  // measure 45
0001
1000
0010
0100
0001
0010
0100
1000
0010
0100
0001
0010
,  // measure 46
0100
0010
0001
1000
0001
0010
0100
0000
0200
0000
0000
0000
,  // measure 47
1300
0010
0100
0001
0100
0010
1000
0010
0100
0001
0100
0010
,  // measure 48
1000
0001
0010
0001
1000
0100
1000
0001
0010
0001
1000
0100
,  // measure 49
1000
0001
0100
0010
0100
0001
1000
0001
0100
0010
0100
0001
,  // measure 50
1001
1000
0100
1000
0001
0010
0011
0000
0000
0000
0000
0000
,  // measure 51
1000
0001
0100
0001
0010
0100
1000
0100
0010
0002
0000
0003
,  // measure 52
1000
0001
1000
0010
0100
0001
0100
0001
1000
0200
0000
0000
,  // measure 53
M300
000M
00M0
000M
M000
00M0
0M00
000M
M000
000M
000M
000M
,  // measure 54
M000
0M00
00M0
0M00
00M0
M000
000M
0000
0000
0000
0000
0000
,  // measure 55
0000
0000
0000
0000
,  // measure 56
0000
0000
0000
0000
,  // measure 57
0000
0000
0000
0200
,  // measure 58
1300
0001
0010
0001
1000
0010
0100
0001
1000
0002
0000
0003
,  // measure 59
1000
0100
0010
0100
0010
0001
1000
0100
0010
0002
0000
0003
,  // measure 60
1001
0000
1001
0100
0010
0000
1010
0000
1010
0100
0001
0000
,  // measure 61
0011
0000
0011
1000
0001
0000
1100
0000
1100
0001
0010
0100
,  // measure 62
1000
0001
1000
0010
0001
0010
1000
0001
1000
0100
0001
0100
,  // measure 63
1000
0001
0100
0001
1000
0010
1010
0000
0000
0000
0000
0000
,  // measure 64
0200
0000
0300
1001
0000
0000
0020
0000
0030
1001
0000
0000
,  // measure 65
2000
0000
3000
0011
0000
0000
0002
0000
0003
1010
0000
0000
,  // measure 66
2000
0000
3000
0110
0000
0000
0002
0000
0003
0110
0000
0000
,  // measure 67
0200
0000
0300
1010
0000
0000
0020
0000
0030
0101
0000
0000
,  // measure 68
2000
0000
3000
0011
0000
0000
1000
0100
0010
0001
0000
0000
,  // measure 69
0002
0000
0003
1100
0000
0000
0001
0010
0100
1000
0000
0000
,  // measure 70
0101
1010
1001
0110
,  // measure 71
0101
0101
0101
0000
,  // measure 72
1000
0010
0100
0001
0010
0001
4000
0000
0000
0000
0000
0000
,  // measure 73
3010
0100
0001
0010
0100
1000
0004
0000
0000
0000
0000
0000
,  // measure 74
1003
0100
1000
0001
0100
0010
0400
0000
0000
0000
0000
0000
,  // measure 75
0301
1000
0100
0010
0100
1000
0040
0000
0000
0000
0000
0000
,  // measure 76
1030
0100
0010
0001
0010
0100
4000
0000
0000
0000
0000
0000
,  // measure 77
3001
0100
0001
1000
0100
0010
0004
0000
0000
0000
0000
0000
,  // measure 78
1003
0100
0010
1000
0010
0100
1000
0100
0010
1000
0010
0100
,  // measure 79
0110
0010
0001
0100
0010
1000
1100
0000
0000
0002
0000
0000
,  // measure 80
1003
0100
0010
2002
3003
0000
0001
0010
0100
2002
3003
0000
,  // measure 81
1000
0001
0010
0202
0303
0000
0001
1000
0100
2020
3030
0000
,  // measure 82
0001
1000
0001
0220
0330
0000
1000
0001
1000
0220
0330
0000
,  // measure 83
1000
0100
1000
0010
0100
0001
0010
0001
0100
0010
1000
0100
,  // measure 84
1000
0100
0001
0100
1000
0010
1000
0100
0001
0100
1000
0010
,  // measure 85
1000
0000
0000
0000
,  // measure 86
0001
0010
1000
0010
0001
0100
0001
0010
1000
0010
0001
0100
,  // measure 87
0001
0000
0000
1000
0100
1000
0010
0100
0010
1000
0001
1000
,  // measure 88
0001
0010
0100
2002
3003
0000
1000
0100
0010
2002
3003
0000
,  // measure 89
0001
0010
1000
0001
0100
1000
0001
0010
1000
0001
0100
1000
,  // measure 90
0001
0000
0000
0200
0000
0000
0301
0010
0001
1000
0010
1000
,  // measure 91
0001
0100
0001
1000
0100
1000
0001
0100
0010
1000
0010
0100
,  // measure 92
0001
0100
0010
1000
0010
0100
1001
0100
0010
1001
0010
0100
,  // measure 93
1001
0100
0010
1001
0010
0100
0101
0001
0100
0010
1000
0100
,  // measure 94
1100
1000
0010
0100
0001
0010
0011
1000
0100
1001
0010
0001
,  // measure 95
1100
0000
0000
0000
,  // measure 96
0001
1000
0001
1000
0010
0100
0002
0003
0000
0002
0003
0000
,  // measure 97
2000
3000
0000
2000
3000
0000
2002
3003
0000
0000
0000
0000
;

//---------------dance-single - ----------------
#NOTES:
     dance-single:
     :
     Medium:
     10:
     0.457401,0.571909,0.222091,0.234429,0.558311,519.000000,483.000000,36.000000,38.000000,0.000000,0.000000,0.457401,0.571909,0.222091,0.234429,0.558311,519.000000,483.000000,36.000000,38.000000,0.000000,0.000000:
// measure 0
0000
0000
0000
0000
,  // measure 1
0000
0000
0000
0000
,  // measure 2
0000
0000
0000
0000
,  // measure 3
0000
0000
0000
0000
,  // measure 4
1000
0000
0000
1000
0000
0000
0010
0000
0000
1000
0001
1000
,  // measure 5
0010
1000
0001
0101
,  // measure 6
0010
0000
0000
1000
0000
0000
0001
0000
0000
1000
0001
1000
,  // measure 7
0001
0000
0010
0010
,  // measure 8
1010
0000
0000
0000
,  // measure 9
0001
1010
0001
0101
,  // measure 10
0010
1100
1000
1001
,  // measure 11
0010
0000
0000
1000
0000
0000
0001
0100
0001
0100
0000
0000
,  // measure 12
0010
1000
0100
0010
,  // measure 13
0001
0000
0000
1000
0000
0000
0001
0010
0001
0100
0000
0000
,  // measure 14
0010
1000
0001
0010
,  // measure 15
0001
1000
0010
0100
,  // measure 16
0001
1000
0001
1000
0000
0000
0010
0100
0010
0100
0000
0000
,  // measure 17
1001
0000
0000
0000
,  // measure 18
0001
1000
0010
1000
0000
0000
0010
1000
0001
0100
0000
0000
,  // measure 19
0001
1000
0001
0100
0000
0000
0100
0010
0100
0001
0000
0000
,  // measure 20
1000
0010
1000
0001
0000
0000
0100
0001
1000
0100
0000
0000
,  // measure 21
1000
0010
1000
0010
0000
0000
0000
0000
0000
0000
0000
0000
,  // measure 22
0010
1000
0010
1000
0000
0000
0100
0010
0100
0010
0000
0000
,  // measure 23
0001
1000
0001
1000
0000
0000
0010
0100
0010
0100
0000
0000
,  // measure 24
1000
0000
1000
0100
0000
0100
0010
0000
0010
0001
0000
0001
,  // measure 25
1000
0000
0000
0000
,  // measure 26
1000
1000
0110
0000
,  // measure 27
0001
0001
1001
0010
,  // measure 28
0100
0100
0101
0010
,  // measure 29
1000
1000
1001
0000
,  // measure 30
0000
0000
0000
0000
,  // measure 31
0000
0000
0000
0000
,  // measure 32
0000
0000
0000
0000
,  // measure 33
0000
0000
0000
0000
,  // measure 34
0000
0000
0000
0000
,  // measure 35
0010
0100
0010
0100
0000
0000
0001
0000
0000
1000
0000
0000
,  // measure 36
0001
0010
0001
0010
0000
0000
1000
0100
1000
0100
0000
0000
,  // measure 37
0010
0100
0010
0100
0000
0000
0001
0000
0000
0010
0000
0000
,  // measure 38
1000
0001
1000
0010
0000
0000
0001
0100
0010
0100
0000
0000
,  // measure 39
0010
1000
0010
1000
0000
0000
0001
0100
0001
0100
0000
0000
,  // measure 40
1001
0000
0000
0101
0000
0000
0010
1000
0010
1000
0000
0000
,  // measure 41
0001
0100
0001
0100
0000
0000
0101
0000
0000
1001
0000
0000
,  // measure 42
0110
0000
0000
0000
,  // measure 43
0001
1000
0001
1000
0000
0000
0010
0100
0010
0100
0000
0000
,  // measure 44
0001
1000
0100
1000
0000
0000
0010
0100
0001
0010
0000
0000
,  // measure 45
0001
1000
0100
1000
0000
0000
0010
0100
0001
1000
0000
0000
,  // measure 46
0010
0100
0010
1000
0000
0000
1010
0000
0000
0000
0000
0000
,  // measure 47
0001
1000
0010
1000
0000
0000
0100
0001
1000
0100
0000
0000
,  // measure 48
0001
1000
0100
0010
0000
0000
0001
1000
0010
0100
0000
0000
,  // measure 49
0001
0000
1000
0010
0000
0100
0001
0000
1000
0010
0000
0100
,  // measure 50
0001
1000
0001
1000
0010
0100
0010
0000
0000
0000
0000
0000
,  // measure 51
0001
1000
0001
0100
0000
0000
0010
0000
0000
1001
0000
0000
,  // measure 52
0001
0100
0001
0100
0000
0000
0020
0000
0000
2030
0000
0000
,  // measure 53
300M
0M00
000M
0M00
0000
0000
00M0
0000
0000
M0M0
0000
0000
,  // measure 54
000M
M000
000M
0M00
0000
0000
00M0
0000
0000
0000
0000
0000
,  // measure 55
0000
0000
0000
0000
,  // measure 56
0000
0000
0000
0000
,  // measure 57
0000
0000
0000
2000
,  // measure 58
3001
0100
0001
0100
0000
0000
0010
0000
0000
1010
0000
0000
,  // measure 59
0001
1000
0001
0100
0000
0000
0010
0000
0000
1001
0000
0000
,  // measure 60
0010
0100
0010
0100
0000
0000
1000
0001
1000
0001
0000
0000
,  // measure 61
0001
0100
0001
0100
0000
0000
1000
0010
1000
0010
0000
0000
,  // measure 62
0001
0100
0001
0100
0000
0000
1000
0010
1000
0010
0000
0000
,  // measure 63
0001
0100
0001
0100
0010
1000
0010
0000
0000
0000
0000
0000
,  // measure 64
0002
0203
0302
2003
,  // measure 65
3200
2300
3002
0023
,  // measure 66
0230
2300
3200
0320
,  // measure 67
0032
2003
3020
0230
,  // measure 68
0301
1010
0100
1001
,  // measure 69
0010
0101
1000
1100
,  // measure 70
1010
0101
1010
1001
,  // measure 71
1001
1001
1001
0000
,  // measure 72
0001
0000
0000
1000
0000
0000
0020
0100
0000
0130
0000
0000
,  // measure 73
0001
0000
0000
1000
0000
0000
0200
1000
0000
1300
0000
0000
,  // measure 74
0001
0000
0000
0100
0000
0000
2000
0010
0000
3010
0000
0000
,  // measure 75
1000
0000
0000
0100
0000
0000
0002
0100
0000
0103
0000
0000
,  // measure 76
0001
0000
0000
0100
0000
0000
0002
1000
0000
1003
0000
0000
,  // measure 77
0010
0000
0000
0100
0000
0000
2000
0100
0000
3100
0000
0000
,  // measure 78
0001
0000
0001
0010
0000
0010
0100
0000
0100
1000
0000
1000
,  // measure 79
0001
0100
0010
0100
0001
1000
0010
0000
0000
0000
0000
0000
,  // measure 80
0001
1000
0010
0200
0000
0000
0301
1000
0001
0020
0000
0000
,  // measure 81
0130
1000
0100
2000
0000
0000
3001
0100
0001
0200
0000
0000
,  // measure 82
0310
1000
0010
2000
0000
0000
3001
0100
0001
0100
0000
0000
,  // measure 83
1001
0110
0011
1100
,  // measure 84
0001
0000
0001
0100
0000
0100
0010
1000
0010
1000
0001
0100
,  // measure 85
0001
0000
0000
0000
,  // measure 86
1000
0000
1000
0001
0000
0001
0010
0000
0010
0001
0000
0001
,  // measure 87
1000
0000
0000
2000
0000
3000
0200
0000
0300
0020
0000
0030
,  // measure 88
0001
1000
0010
0100
0000
0000
0001
1000
0100
1000
0000
0000
,  // measure 89
0001
0000
0001
0100
0000
0100
0001
0000
0001
1000
0100
0010
,  // measure 90
0001
0000
0000
1000
0000
0000
0100
0010
1000
0001
0000
0000
,  // measure 91
0100
0000
0000
1010
0000
0000
0001
0000
0001
1000
0000
1000
,  // measure 92
0010
0000
0010
0100
0000
0100
0001
0000
0001
0010
0000
0010
,  // measure 93
0100
0000
0100
1000
0000
1000
0001
1000
0001
0100
0000
0000
,  // measure 94
0001
1000
0010
1000
0000
0000
0001
0010
0100
1000
0001
0100
,  // measure 95
0010
0000
0000
0000
,  // measure 96
1000
0001
1000
0001
0000
0000
0200
0300
0000
0200
0300
0000
,  // measure 97
0020
0030
0000
0020
0030
0000
0220
0330
0000
0000
0000
0000
;

//---------------dance-single - ----------------
#NOTES:
     dance-single:
     :
     Easy:
     4:
     0.253818,0.330822,0.123384,0.037015,0.000000,288.000000,268.000000,20.000000,6.000000,0.000000,0.000000,0.253818,0.330822,0.123384,0.037015,0.000000,288.000000,268.000000,20.000000,6.000000,0.000000,0.000000:
// measure 0
0000
0000
0000
0000
,  // measure 1
0000
0000
0000
0000
,  // measure 2
0000
0000
0000
0000
,  // measure 3
0000
0000
0000
0000
,  // measure 4
1000
0000
0001
0000
,  // measure 5
0010
0010
1000
0000
,  // measure 6
0001
0000
0100
0000
,  // measure 7
1010
0000
0001
0001
,  // measure 8
1000
0000
0000
0000
,  // measure 9
0100
0001
0100
0001
,  // measure 10
1000
0010
0100
0010
,  // measure 11
0100
0001
1000
0001
,  // measure 12
0010
0001
1000
0100
,  // measure 13
1000
0010
0100
0000
,  // measure 14
0001
1000
0001
0100
,  // measure 15
0010
1000
0001
0100
,  // measure 16
1000
0100
0001
0100
,  // measure 17
0001
0000
0000
0000
,  // measure 18
0010
1000
0001
0100
,  // measure 19
0001
1000
0010
1000
,  // measure 20
0001
0100
0001
0010
,  // measure 21
0100
1000
0010
0000
,  // measure 22
1000
0100
0010
0001
,  // measure 23
1000
0001
0100
0010
,  // measure 24
1000
1000
0100
0100
,  // measure 25
0010
0000
0000
0000
,  // measure 26
0000
0000
1010
0000
,  // measure 27
0000
0000
0101
0000
,  // measure 28
0000
0000
1001
0000
,  // measure 29
0000
0000
0000
0000
,  // measure 30
0000
0000
0000
0000
,  // measure 31
0000
0000
0000
0000
,  // measure 32
0000
0000
0000
0000
,  // measure 33
0000
0000
0000
0000
,  // measure 34
0000
0000
0000
0000
,  // measure 35
1000
0100
0010
1000
,  // measure 36
0001
0001
0010
0010
,  // measure 37
0001
0010
0100
1000
,  // measure 38
0010
0010
0100
0100
,  // measure 39
0001
0000
1000
0000
,  // measure 40
1001
0001
0010
0100
,  // measure 41
0001
1000
0100
0010
,  // measure 42
1001
0000
0000
0000
,  // measure 43
0010
0100
0001
1000
,  // measure 44
0100
0010
0100
1000
,  // measure 45
0001
1000
0001
0100
,  // measure 46
0010
1000
0001
0000
,  // measure 47
1000
0001
0100
0001
,  // measure 48
1000
0100
0010
0001
,  // measure 49
1000
1000
0100
0100
,  // measure 50
0010
0010
0001
0000
,  // measure 51
1000
0001
0100
0020
,  // measure 52
1030
0001
0100
0000
,  // measure 53
0000
0000
0000
0000
,  // measure 54
0000
0000
0000
0000
,  // measure 55
0000
0000
0000
0000
,  // measure 56
0000
0000
0000
0000
,  // measure 57
0000
0000
0000
0000
,  // measure 58
0001
1000
0010
0200
,  // measure 59
0301
1000
1000
0002
,  // measure 60
0103
0020
1030
0200
,  // measure 61
1300
0002
1003
0010
,  // measure 62
0100
0001
1000
0100
,  // measure 63
0010
0100
1001
0000
,  // measure 64
0000
1000
0000
0001
,  // measure 65
0000
1000
0000
0010
,  // measure 66
0000
0100
0000
0001
,  // measure 67
0000
1000
0000
0001
,  // measure 68
1000
0100
0010
0001
,  // measure 69
1000
0001
0010
0100
,  // measure 70
1000
0001
0100
0010
,  // measure 71
1000
0001
0100
0000
,  // measure 72
1000
0001
0100
0100
,  // measure 73
0010
1000
0100
0100
,  // measure 74
0010
0001
0100
0100
,  // measure 75
0010
1000
0001
0001
,  // measure 76
1000
0100
0010
0010
,  // measure 77
0001
1000
0010
0010
,  // measure 78
1000
0001
1000
0001
,  // measure 79
0100
0010
0110
0000
,  // measure 80
0000
1001
0000
1010
,  // measure 81
0000
0101
0000
1010
,  // measure 82
0000
0011
0000
1001
,  // measure 83
0100
0010
0100
0001
,  // measure 84
1000
0001
0100
0001
,  // measure 85
0101
0000
0000
0000
,  // measure 86
1000
0010
1000
0010
,  // measure 87
1010
0000
0000
0000
,  // measure 88
0000
0101
0000
1010
,  // measure 89
0100
0001
1000
0001
,  // measure 90
1001
0000
0100
0010
,  // measure 91
1000
0001
0010
0010
,  // measure 92
0100
0100
1000
0001
,  // measure 93
1000
0001
0100
0010
,  // measure 94
1000
0001
0100
0010
,  // measure 95
1001
0000
0000
0000
,  // measure 96
0001
0001
1000
1000
,  // measure 97
0010
0010
0010
0000
;
