#TITLE:Pop? Pop!;
#SUBTITLE:;
#ARTIST:CSR;
#TITLETRANSLIT:;
#SUBTITLETRANSLIT:;
#ARTISTTRANSLIT:;
#GENRE:;
#CREDIT:;
#BANNER:AV.avi;
#BACKGROUND:bg.png;
#LYRICSPATH:;
#CDTITLE:;
#MUSIC:audio.ogg;
#OFFSET:-0.142000;
#SAMPLESTART:50.037998;
#SAMPLELENGTH:15.000000;
#SELECTABLE:YES;
#BPMS:0.000000=122.017990
;
#STOPS:
;
#BGCHANGES:0.000=MV.avi=1.000=1=0=1===CrossFade==,
99999=-nosongbg-=1.000=0=0=0 // don't automatically add -songbackground-
;
#KEYSOUNDS:;
#ATTACKS:;

//---------------dance-single - ----------------
#NOTES:
     dance-single:
     :
     Hard:
     12:
     0.426003,0.472838,0.242159,0.740315,0.217943,431.000000,396.000000,35.000000,107.000000,0.000000,0.000000,0.426003,0.472838,0.242159,0.740315,0.217943,431.000000,396.000000,35.000000,107.000000,0.000000,0.000000:
0000
0000
0000
0000
,
0000
0000
0000
0000
0000
0000
0000
0000
0000
0000
0000
0000
0000
0000
0000
0001
,
0000
1000
0100
1000
0010
1000
0100
1000
,
0001
0000
1000
0000
0100
0000
0000
0200
0000
0000
0300
0000
0000
1000
0000
1000
,
0000
0001
0010
0001
1000
0001
0100
0001
,
1000
0000
0001
0000
0010
0000
0000
0200
0000
0000
0300
0000
0000
1000
0000
1000
,
0000
0000
1000
0000
0100
0000
0000
0000
1000
0000
0000
0001
0000
0000
0010
0000
,
0100
0000
0000
0010
0000
0000
0001
0000
0100
0000
0000
0000
1001
0000
0000
0000
,
0110
0000
0000
0100
0000
0000
0001
0000
2000
0000
3000
0000
1001
0000
0000
0000
,
0110
0000
0000
0010
0000
0000
0001
0000
2000
0000
3000
0000
0000
0000
0000
1001
,
0000
0000
0001
0100
1000
0100
0001
0100
,
1000
0000
0100
0000
0001
0000
0000
0200
0000
0000
0300
0000
0000
0001
0000
1000
,
0000
0000
0010
0001
0010
1000
0010
0001
,
0010
0000
1000
0000
0010
0000
0000
0020
0000
0000
0030
0000
0000
0100
0000
0010
,
0000
0000
0100
0000
0100
0001
0000
0000
0100
0000
0100
0010
0000
0000
0001
0000
,
0200
0000
0000
0320
0000
0030
0200
0000
0302
0000
0000
0000
0103
0000
0000
0000
,
0200
0000
0000
0320
0000
0030
2000
0000
3002
0000
0000
0000
0013
0000
0001
0000
,
0020
0000
0000
0230
0000
0300
2000
0000
3002
0000
0000
0000
0013
0000
0000
0000
,
0220
0000
0330
0000
1001
0000
1000
0001
1000
0000
0000
0000
1000
0000
0010
0000
,
0200
0000
0000
0000
0310
0000
1000
0100
1000
0000
0000
0000
0010
0000
0001
0000
,
0200
0000
0000
0000
0301
0000
0100
0010
0200
0000
0300
0002
0000
0003
0200
0300
,
0200
0000
0300
0020
0000
0030
2000
0000
3020
0000
0000
0000
1030
0000
0000
0000
,
0002
0000
0000
0000
0103
0000
0020
0000
0230
0000
0300
0002
0000
0003
2000
0000
,
3200
0000
0300
2000
0000
3000
0020
0000
0230
0000
0000
0000
0301
0000
0000
0000
,
0101
0000
1100
0000
0110
0000
1001
2002
,
0000
0000
0000
0000
3003
0000
0000
0000
0001
0000
0000
0000
0011
0000
0000
0020
,
0000
0000
0030
0000
1010
0000
0000
0000
1000
0000
0000
0000
1100
0000
0000
0200
,
0000
0000
0300
0000
0100
0000
0010
0000
0001
0000
0100
0000
0010
0000
0000
2000
,
0000
3000
1001
0000
0010
1000
0010
0100
,
0002
0000
0000
0000
2003
0000
0000
0000
3200
0000
0310
0000
0001
0000
0000
0200
,
0000
0000
0300
0000
0010
0000
0100
0010
0200
0000
0000
0302
0000
0003
0020
0000
,
0230
0000
0300
2000
0000
3000
0010
0000
0020
0000
0000
0000
1030
0000
0001
0000
,
0002
0000
0000
0000
2003
0000
0000
3000
0010
0000
0100
0000
0010
0000
0100
0002
,
0000
0000
0003
0000
1001
0000
0000
0000
1001
0000
0001
0000
0010
0000
0000
0020
,
0000
0000
0030
0000
0100
0000
1000
0000
0010
0000
0100
0000
0010
0000
0000
2000
,
0000
0000
3000
0000
0100
0000
0010
0000
0001
0000
0100
0000
0010
0000
0000
2000
,
0000
3000
1000
0010
1000
0010
0100
0010
,
2000
3002
0023
0032
,
0203
0000
0310
0100
0020
0000
0031
0010
,
0200
0000
0301
1000
0200
0000
0310
0001
,
2000
0000
0000
0000
3010
0000
0100
0010
0200
0000
0000
0000
0310
0000
0010
0000
,
0220
0330
0000
0000
0000
0000
0000
0000
,
1001
0100
0010
0010
0100
0000
1001
0000
,
0101
0100
0010
1000
0010
0000
1001
0000
,
0110
0010
1000
0001
0100
0000
1010
0000
,
0020
0000
0000
0000
0130
0000
0001
1000
0001
0000
0010
0000
0100
0000
0000
0000
,
1100
0000
0000
0000
1000
0001
0010
0000
0100
0000
0000
0000
0100
0010
0001
0000
,
0001
0000
1000
0000
1000
0001
1000
0000
0100
0000
0010
0000
0100
0000
0220
0000
,
0330
0100
0010
0220
0330
1000
0001
2002
,
0000
0000
0000
0000
,
3003
0000
0000
0000
0000
0000
0000
0000
0100
0000
0010
0000
0100
0000
0001
0100
,
0002
0000
0000
0000
0103
0000
0010
0000
0010
0000
0000
0000
0010
0000
1000
0001
,
1000
0000
0000
0000
0100
0000
0010
0000
0010
0000
0000
0000
0010
0000
0100
1000
,
0100
0000
0100
1000
1000
0000
0100
1000
,
0010
0000
0000
0100
0000
0000
0010
0000
0100
0000
0001
0000
1000
0000
0001
0000
,
0200
0302
0203
0320
,
2030
0000
0000
0000
3200
0000
0000
0000
2300
0000
0000
0000
3002
0000
0000
0003
,
2020
3030
2002
3003
,
0110
0000
0010
0000
0100
0000
0010
0000
0200
0000
0000
0000
0302
0000
0000
0203
,
0000
0300
1010
0000
0100
1000
0010
1000
,
0002
0000
1003
0010
0100
0010
1000
0001
,
2000
0000
3010
0100
0010
0100
0001
1000
,
0020
0230
0302
2003
,
3200
0000
0310
1000
0200
0000
0310
0001
,
0200
0000
1300
0001
0020
0000
0130
0001
,
2000
0000
3010
0001
0200
0000
0000
0300
,
0101
0000
0000
0000
2000
0000
3000
0000
0001
0000
1000
0000
0001
0000
1000
0001
,
1000
0000
1000
0000
0001
0000
0000
0100
0000
0001
0000
0000
0010
0000
0100
0000
,
0010
0000
0000
0000
0001
0000
0000
1000
0000
0010
0000
0000
1000
0000
0000
0000
,
1000
0000
0100
0000
0010
0000
0000
0100
0000
1000
0000
0000
0001
0000
1000
0000
,
0010
0000
0000
0000
1000
0000
0000
0100
0000
1000
0000
0000
0001
0000
0000
0100
,
0000
0000
0000
0000
0000
0000
0000
0000
0000
0000
0000
0000
0000
1000
0000
1001
;

//---------------dance-single - ----------------
#NOTES:
     dance-single:
     :
     Medium:
     8:
     0.312336,0.348407,0.103783,0.449724,0.117620,316.000000,301.000000,15.000000,65.000000,0.000000,0.000000,0.312336,0.348407,0.103783,0.449724,0.117620,316.000000,301.000000,15.000000,65.000000,0.000000,0.000000:
0000
0000
0000
0000
,
0000
0000
0000
0000
0000
0000
0000
0000
0000
0000
0000
0000
0000
0000
0000
1000
,
0000
0000
0001
0100
0001
0000
0010
0000
,
0001
0000
0000
0000
0100
0000
0000
0200
0000
0000
0000
0000
0000
0001
0000
0301
,
0000
0000
1000
0010
0100
0000
1000
0000
,
0100
0000
0000
0000
1000
0000
0000
0020
0000
0000
0000
0000
0000
1000
0000
1030
,
0000
0001
1000
0001
,
0100
0000
0000
0001
0000
0000
0100
0000
0002
0000
0000
0000
0103
0000
0000
0000
,
0010
0000
0000
1000
0000
0000
0010
0000
2000
0000
0000
0000
3010
0000
0000
0000
,
1000
0000
0000
0100
0000
0000
1000
0000
0200
0000
0000
0000
0000
0000
0000
1300
,
0000
0000
0010
1000
0001
0000
0100
0000
,
0001
0000
0000
0000
0010
0000
0000
0020
0000
0000
0000
0000
0000
0000
0000
0031
,
0000
0000
0000
0000
1000
0000
0001
0000
0010
0000
0000
0100
0000
0000
1000
0000
,
0010
0000
0000
0000
1000
0000
0000
0002
0000
0000
0000
0000
0000
1000
0000
1003
,
0000
0010
1000
0100
,
1000
0000
0000
0010
0000
0000
1000
0000
0002
0000
0000
0000
0103
0000
0000
0000
,
0001
0000
0000
0010
0000
0000
0001
0000
0200
0000
0000
0000
0301
0000
0000
0000
,
1000
0000
0000
0100
0000
0000
1000
0000
0020
0000
0000
0000
0130
0000
0000
0000
,
0002
0000
0103
0000
0001
1000
0001
0000
,
2000
0000
3100
0000
1000
0010
0100
0000
,
0002
0000
0013
0000
0001
0010
0001
0000
,
1000
0000
0000
0010
0000
0000
1000
0000
0200
0000
0000
0000
1300
0000
0000
0000
,
0010
0000
0000
0000
1000
0000
0001
0000
0100
0000
0000
0010
0000
0000
1000
0000
,
0100
0000
0000
1000
0000
0000
0010
0000
0200
0000
0000
0000
0301
0000
0000
0000
,
0001
0000
0001
0000
0001
0000
1000
0002
,
0000
0000
0000
0000
0000
0000
0000
0000
1003
0000
0000
0000
1000
0000
0000
0020
,
0000
0000
0000
0000
1030
0000
0000
0000
0100
0000
0000
0000
0100
0000
0000
2000
,
0000
0000
0000
0000
3010
0000
0000
0000
1000
0000
0000
0000
0001
0000
0000
0020
,
0000
0000
0031
0000
0100
0001
0100
0000
,
0002
0000
0000
0003
1000
0000
0000
0000
0020
0000
0000
0030
1000
0000
0000
0000
,
2100
0000
3100
0000
1000
0100
1000
0000
,
0001
0010
0001
0000
0200
0000
0301
0000
,
0001
0000
1000
0000
0010
1000
0001
0000
,
2000
0000
0000
0000
3100
0000
0000
0000
0010
0000
0100
0000
1000
0000
0000
0002
,
0000
0000
0000
0000
0103
0000
0000
0000
0010
0000
1000
0000
0010
0000
0000
2000
,
0000
0000
0000
0000
3100
0000
1000
0000
0010
0000
0100
0000
0001
0000
0000
0020
,
0000
0000
0000
0030
0001
0000
0000
0000
0100
0000
0001
0000
0100
0000
0000
0000
,
0002
1003
2000
3100
,
0120
0130
2100
3100
,
0102
0103
0021
0031
,
2001
3001
0102
0103
,
0220
0000
0000
0000
0000
0330
0000
0000
0000
0000
0000
0000
0000
0000
0000
0000
,
0001
0000
0000
0000
1000
0000
0000
0000
0010
0000
1000
0000
0010
0000
0000
1000
,
0000
0000
0000
0000
0100
0000
1000
0000
0001
0000
0000
0000
0100
0000
0000
0010
,
0000
0000
1000
0001
0010
0000
0100
0000
,
2000
3001
0002
1003
,
1001
0000
0011
0000
1000
0010
1000
0000
,
1100
0000
0011
0000
1000
0000
0001
0200
,
0000
0301
0100
0002
0000
0103
0001
0020
,
0000
0000
0000
0000
,
0030
0000
0000
0000
,
1002
0000
1003
0010
,
2000
0000
3100
1000
,
0020
0000
0130
0001
,
1000
1000
0001
0001
,
0020
0130
0200
1300
,
2000
3010
0020
0130
,
0202
0303
2020
3030
,
1000
1000
0001
0001
,
0200
0000
0301
0000
1000
0100
0010
0000
,
0002
0000
1003
0010
0100
0010
1000
0010
,
0200
0000
0301
0000
0010
0001
1000
0001
,
0200
0301
2000
3100
,
2000
0010
3020
0100
,
0230
0001
0302
0010
,
0023
0100
0230
1000
,
1300
0000
0000
0000
,
0001
0000
1000
0000
0001
1000
0001
0000
,
0100
0000
0001
0000
0010
0001
0010
0000
,
0100
0000
1000
0000
0100
1000
0100
0000
,
1000
0000
0000
0000
0010
0000
0000
0000
1000
0000
0010
0000
2000
0000
0000
3001
,
0000
0000
0000
0000
0000
0000
0000
0000
0000
0000
0000
0000
0000
0001
0000
0001
;

//---------------dance-single - ----------------
#NOTES:
     dance-single:
     :
     Easy:
     4:
     0.236229,0.273986,0.069188,0.380536,0.000000,239.000000,229.000000,10.000000,55.000000,0.000000,0.000000,0.236229,0.273986,0.069188,0.380536,0.000000,239.000000,229.000000,10.000000,55.000000,0.000000,0.000000:
0000
0000
0000
0000
,
0000
0000
0000
0000
,
0000
1000
0100
1000
,
0010
0000
1000
0000
0002
0000
0000
0003
,
0000
1000
0010
1000
,
0100
0000
1000
0000
0020
0000
0000
0030
,
1000
1000
0100
0100
,
0010
0010
0001
0001
,
1000
0000
1000
0000
1002
0000
0000
0003
,
0001
0000
0001
0000
0021
0000
0000
0030
,
0010
0001
0010
0100
,
1000
0010
2000
0000
,
3010
0100
0001
0010
,
0100
1000
0020
0000
,
1030
0100
0010
0001
,
0010
0100
2000
0000
,
0010
0010
3020
0000
,
1000
1000
2030
0000
,
3002
0000
0023
0000
,
0032
0000
2003
0000
,
3020
0000
0230
0000
,
0302
0000
0000
0000
,
1003
0100
2000
0000
,
3010
1000
0020
0000
,
1030
0001
0010
0100
,
2000
0000
3001
1000
,
0001
0001
0010
0001
,
1000
1000
0010
1000
,
0010
0010
1000
0100
,
0020
0032
2003
3020
,
0130
0100
0010
1000
,
0010
1000
0002
0013
,
2000
3010
0002
0013
,
0200
0000
0000
0300
0110
0000
0110
0000
,
0002
1003
0100
1000
,
0020
1030
0001
0010
,
0200
1300
0010
1000
,
1000
1000
0001
0001
,
2000
3100
0020
1030
,
0002
0013
2000
3010
,
0200
0310
2000
3001
,
0002
0000
0000
0000
,
1003
0100
1000
1000
,
0010
1000
0001
0001
,
0010
0100
0010
0010
,
0002
0000
1003
0000
,
1000
0010
1010
0000
,
0001
0010
0011
0000
,
1000
0100
1000
0001
,
0020
0000
0001
0000
,
0000
0000
0000
0000
,
0032
0000
1000
0000
,
2003
0000
0010
0000
,
3020
0000
0100
0000
,
2030
0000
3002
0000
,
0013
0010
0001
0001
,
1000
1000
0010
0010
,
0100
0100
0001
0001
,
0020
0000
0001
0031
,
1000
1001
0001
0001
,
0010
0011
0001
0010
,
0200
1300
2000
3001
,
0001
0010
0100
0010
,
0002
1003
0020
0130
,
0002
1003
2000
3010
,
0020
0130
0002
0013
,
0022
0000
0000
0000
0000
0033
0000
0000
,
1000
1000
0001
0001
,
0010
0010
0001
0001
,
1000
1000
0001
0001
,
0010
0010
0100
0100
,
1000
0000
0000
0000
,
1001
0000
0000
0000
;

//---------------dance-single - ----------------
#NOTES:
     dance-single:
     :
     Beginner:
     2:
     0.136400,0.224170,0.013838,0.069188,0.000000,138.000000,136.000000,2.000000,10.000000,0.000000,0.000000,0.136400,0.224170,0.013838,0.069188,0.000000,138.000000,136.000000,2.000000,10.000000,0.000000,0.000000:
0000
0000
0000
0000
,
0000
0000
0000
0000
,
1000
0000
0000
0000
,
0010
0000
0000
0000
,
1000
0000
0000
0000
,
0001
0000
0000
0000
,
1000
0000
0000
0000
,
0010
0000
0000
0000
,
0100
0000
0001
0000
,
1000
0000
0010
0000
,
0010
0000
0000
0000
,
0010
0000
0000
0000
,
1000
0000
0000
0000
,
1000
0000
0000
0000
,
0001
0000
0000
0000
,
0001
0000
0000
0000
,
1000
0000
0000
0000
,
1000
0000
0000
0000
,
0010
0000
0010
0000
,
0010
0000
0000
0000
,
1000
0000
1000
0000
,
1000
0000
0000
0000
,
0001
0000
1000
0000
,
0001
0000
0000
0000
,
0010
0000
0001
0000
,
0010
0000
0000
0000
,
0010
0000
0010
0000
,
1000
0000
1000
0000
,
0001
0000
0001
0000
,
1000
0001
1000
0000
,
0001
0010
0001
0000
,
1000
0010
1000
0000
,
0100
0000
0100
0000
,
0200
0000
1300
0000
,
0001
1000
0001
0000
,
0010
0001
0010
0000
,
0001
0000
1000
0000
,
0020
0000
0100
0000
,
1030
0000
0001
0000
,
0010
0000
0100
0000
,
2000
0000
0001
0000
,
3010
0000
0000
0000
,
1000
0100
1000
0000
,
0001
0010
0001
0000
,
0100
1000
0001
0000
,
0010
0000
0010
0000
,
1000
1000
0001
0000
,
0001
0001
1000
0000
,
0001
0010
0100
0000
,
2000
0000
0000
0000
,
0000
0000
0000
0000
,
3010
0000
0000
0000
,
0010
0000
0000
0000
,
1000
0000
0000
0000
,
1000
0000
0000
0000
,
0001
0001
1000
1000
,
0010
0010
1000
1000
,
0001
0000
0001
0000
,
0002
0000
0000
0000
,
1003
0010
1000
0000
,
0001
0010
0001
0000
,
0100
1000
0010
0000
,
0001
1000
0001
1000
,
0020
0000
1030
0000
,
2000
0000
3010
0000
,
0002
0000
0013
0000
,
0022
0000
0033
0000
,
1000
1000
0010
0000
,
1000
0001
0010
0000
,
0100
1000
0010
0000
,
0001
0010
0100
0000
,
0001
0000
0000
0000
,
1001
0000
0000
0000
;

//---------------dance-single - ----------------
#NOTES:
     dance-single:
     :
     Challenge:
     1:
     0.321232,0.363239,0.207565,0.449724,0.249078,325.000000,295.000000,30.000000,65.000000,0.000000,0.000000,0.321232,0.363239,0.207565,0.449724,0.249078,325.000000,295.000000,30.000000,65.000000,0.000000,0.000000:
// measure 0
0000
0000
0000
0000
,  // measure 1
0000
0000
0000
0000
0000
0000
0000
0000
0000
0000
0000
0000
0000
0000
0000
1001
,  // measure 2
0000
0010
0001
0010
1000
0001
0010
1000
,  // measure 3
0010
0000
0001
0000
0100
0010
0000
0200
0000
0000
0000
0000
0000
0310
0000
0110
,  // measure 4
0000
0000
1000
0000
0100
0000
0001
0000
0100
0000
1000
0010
0000
0000
1000
0000
,  // measure 5
0001
0000
0010
0000
1000
0010
0000
0002
0000
0000
0000
0000
0000
1003
0000
1001
,  // measure 6
0000
0000
1000
0000
1000
0200
0000
0000
0310
0000
0010
0200
0000
0000
0310
0000
,  // measure 7
0110
0000
0000
0001
0000
0000
0010
0000
0011
0000
0000
0000
1001
0000
0000
0000
,  // measure 8
0110
0000
0000
0001
0000
0000
0010
0000
0002
0000
0000
0000
0013
0000
0100
0010
,  // measure 9
0100
0000
0000
0100
0000
0000
0100
0000
0020
0000
0130
0000
1000
0010
0100
0002
,  // measure 10
0003
0000
1000
0100
0001
0010
1000
0100
,  // measure 11
0001
0000
0010
0000
0100
1000
0000
0200
0000
0300
1000
0100
1000
0100
0000
0100
,  // measure 12
0000
0000
1000
0000
0100
0000
0001
0000
0010
0000
1000
0100
0000
0000
0001
0000
,  // measure 13
0010
0000
1000
0000
0010
0001
0000
0200
0000
0000
0301
0100
0001
0100
0000
0100
,  // measure 14
0000
0000
0001
0000
0001
2000
0000
3000
1000
0000
1000
0002
0000
0003
1000
0000
,  // measure 15
2001
0000
0000
3100
0000
0000
1000
0000
2100
0000
0000
0000
3010
0000
0000
0000
,  // measure 16
0120
0000
0000
0130
0000
0000
0010
0000
2000
0000
0000
0000
3010
0000
0010
0000
,  // measure 17
0200
0000
0000
0310
0000
0000
1000
0000
0010
0000
0001
0010
1000
0001
0010
0100
,  // measure 18
0020
0000
0000
0000
0031
0000
0001
0010
0100
0000
1000
0000
0001
0000
1000
0000
,  // measure 19
0020
0000
0100
0000
0031
0000
0001
0010
0100
0000
0010
0000
0100
0000
0001
0000
,  // measure 20
0020
0000
0100
0000
0031
0000
0100
0001
2000
0000
0000
3001
0000
0000
1000
0000
,  // measure 21
1020
0000
0030
2000
0000
0000
3100
0000
1100
0000
1000
0100
0010
0001
0100
0010
,  // measure 22
2000
0000
0000
0000
3001
0000
0100
0000
0001
0000
0000
0010
0000
0000
0001
0000
,  // measure 23
0011
0000
0000
0110
0000
0000
1100
0000
1002
0000
0000
0000
1003
0000
0000
0000
,  // measure 24
1100
0000
0110
0000
1001
0000
0011
2002
,  // measure 25
0000
0000
0000
0000
0000
3003
0000
0000
1000
0000
0001
0000
1001
0000
0001
0200
,  // measure 26
0000
0000
0000
0300
0110
0000
0000
0000
1000
0000
0100
0000
0010
0000
0100
0020
,  // measure 27
0000
0030
0100
0010
0200
0000
1300
0000
0001
0000
1000
0000
0010
0000
1000
0002
,  // measure 28
0000
0003
0010
0001
0020
0000
0030
0000
0201
0000
0301
0000
0010
0000
0100
0000
,  // measure 29
2200
3300
2020
3030
2002
3003
0220
0330
,  // measure 30
0202
0000
0300
0000
0013
0000
0001
0010
0200
0000
0000
2300
0000
0000
3002
0000
,  // measure 31
0203
0000
0000
0320
0000
0000
2030
0000
0002
3000
0000
0000
0013
0000
0200
0000
,  // measure 32
0320
0000
0000
0000
0032
0000
0000
0000
1003
0000
0010
0000
1000
0000
0100
0020
,  // measure 33
0000
0030
0001
0010
0100
1000
0001
1000
0010
0000
0010
1000
0100
0000
0010
0200
,  // measure 34
0000
0000
0310
0001
0010
0000
0001
0100
0002
0000
1003
0000
0010
0000
1000
0100
,  // measure 35
0010
0000
0001
0010
0100
1000
0010
1000
0100
0000
1000
0000
0100
0000
0010
0001
,  // measure 36
0010
0000
0001
0100
0010
0100
0001
1000
0100
0000
0010
0000
0001
0000
0010
0000
,  // measure 37
0002
0203
0320
2030
,  // measure 38
3200
0000
0010
1000
0320
0000
0001
0100
,  // measure 39
0032
0000
0100
1000
0023
0000
0100
1000
,  // measure 40
0032
0000
1000
0100
2003
0000
0010
3100
,  // measure 41
0110
0000
0000
0000
0010
0000
0000
0000
0100
0000
0010
0000
1000
0000
0010
0100
,  // measure 42
0001
0000
0000
0000
;
