#VERSION:0.83;
#TITLE:-Ops Limone;
#SUBTITLE:;
#ARTIST:Reku Mochizuki;
#TITLETRANSLIT:;
#SUBTITLETRANSLIT:;
#ARTISTTRANSLIT:;
#GENRE:;
#ORIGIN:;
#CREDIT:;
#BANNER:AV.avi;
#BACKGROUND:bg.png;
#PREVIEWVID:;
#JACKET:jacket.png;
#CDIMAGE:;
#DISCIMAGE:;
#LYRICSPATH:;
#CDTITLE:;
#MUSIC:audio.ogg;
#OFFSET:-0.181000;
#SAMPLESTART:41.859158;
#SAMPLELENGTH:14.999994;
#SELECTABLE:YES;
#DISPLAYBPM:*;
#BPMS:0.000=70.000,
17.000=140.000;
#STOPS:;
#DELAYS:;
#WARPS:;
#TIMESIGNATURES:0.000=4=4;
#TICKCOUNTS:0.000=4;
#COMBOS:0.000=1;
#SPEEDS:0.000=1.000=0.000=0;
#SCROLLS:0.000=1.000;
#FAKES:;
#LABELS:0.000=Song Start;
#BGCHANGES:0.000=MV.avi=1.200=1=0=1===CrossFade==,
1.000=MV.avi=1.000=0=0=1=====,
99999=-nosongbg-=1.000=0=0=0 // don't automatically add -songbackground-
;
#KEYSOUNDS:;
#ATTACKS:
;

//---------------dance-single - ----------------
#NOTEDATA:;
#CHARTNAME:;
#STEPSTYPE:dance-single;
#DESCRIPTION:;
#CHARTSTYLE:;
#DIFFICULTY:Hard;
#METER:15;
#RADARVALUES:0.698407,0.832052,0.468081,0.453222,1.296511,658.000000,595.000000,63.000000,61.000000,0.000000,0.000000,1.000000,0.000000,0.000000,0.698407,0.832052,0.468081,0.453222,1.296511,658.000000,595.000000,63.000000,61.000000,0.000000,0.000000,1.000000,0.000000,0.000000;
#CREDIT:Musey's Chart;
#OFFSET:-0.181000;
#BPMS:0.000000=70.000000
,17.000000=140.000000
;
#STOPS:;
#DELAYS:;
#WARPS:;
#TIMESIGNATURES:0.000000=4=4
;
#TICKCOUNTS:0.000000=4
;
#COMBOS:0.000000=1
;
#SPEEDS:0.000000=1.000000=0.000000=0
;
#SCROLLS:0.000000=1.000000
,16.666666=0.500000
,17.000000=1.000000
,47.000000=0.500000
,49.000000=1.000000
,80.333336=0.500000
,81.000000=1.000000
,145.000000=0.500000
,176.333328=0.250000
,177.000000=1.000000
,207.000000=0.500000
,209.000000=1.000000
,240.333328=0.500000
,241.000000=1.000000
;
#FAKES:;
#LABELS:0.000000=Song Start
;
#DISPLAYBPM:*;
#NOTES:
// measure 0
0000
0000
0000
0000
,  // measure 1
0000
0000
0000
0000
,  // measure 2
0000
0000
0000
0000
0100
0000
0010
0000
0010
0100
0000
0100
0001
0000
0010
0000
0100
0000
2000
0000
0000
3020
0000
0000
,  // measure 3
0130
0000
1000
0000
0100
1000
0200
0000
0000
2300
0000
0000
3010
0000
0100
0000
0001
0000
0020
0000
0000
0130
0000
0000
,  // measure 4
0100
0010
0100
1010
0000
0100
1000
0000
1000
0100
0000
0010
,  // measure 5
0000
0100
0000
1001
0000
0000
0010
0000
0000
0010
0000
1000
,  // measure 6
0000
0001
0100
0101
0000
0000
1100
0000
0000
0001
0000
0010
,  // measure 7
0000
0100
0000
1001
0000
0000
1100
0000
0000
0010
0000
1000
,  // measure 8
0000
0001
1000
1001
0000
0010
0000
0001
0000
0100
0000
0010
,  // measure 9
0000
0100
0010
1010
0000
0001
0000
0010
0000
0100
0000
1000
,  // measure 10
0000
0010
0100
0101
0000
0000
1001
0000
0000
0110
0000
0001
,  // measure 11
0000
0000
0000
0000
0010
0000
0000
0000
0000
0000
0000
0000
0001
0000
0000
0010
0000
0000
0001
0000
0000
1000
0000
0000
0001
0000
0000
0010
0000
0000
0100
0000
0000
1000
0000
0000
0002
0000
0000
0000
0000
0000
0000
0000
0000
0003
0000
0000
,  // measure 12
0000
0000
0000
0200
0000
0000
0320
0000
0230
0302
0000
0203
,  // measure 13
0000
0302
0000
2003
0000
3000
2000
0000
0000
3100
0000
1000
,  // measure 14
0000
0002
2003
3002
0000
0000
0023
0000
0032
0203
0000
0320
,  // measure 15
0000
0230
0000
0302
0000
0000
0023
0000
0030
0011
0000
0110
,  // measure 16
0000
0002
2003
3002
0000
0000
2003
0000
3020
2030
3000
2000
,  // measure 17
0000
3200
0000
0320
0000
0000
0032
0000
1003
0010
0000
1000
,  // measure 18
0000
0200
2300
3200
0000
0000
2300
0000
3020
0230
0300
0020
,  // measure 19
0000
2030
3000
1010
0000
0000
0101
0000
0000
0110
0000
1001
,  // measure 20
0000
0000
0000
0100
1000
0100
0001
0100
1000
0100
0001
0100
,  // measure 21
1000
0010
1000
0001
0010
1000
0010
0001
1000
0001
0000
0100
,  // measure 22
0000
0001
0000
0010
0001
0010
1000
0010
0001
0010
1000
0001
,  // measure 23
0010
1000
0010
0001
1000
0010
0100
0001
1000
0010
0000
0100
,  // measure 24
0000
0010
0100
0010
0001
0010
0001
0010
0100
0001
0010
0001
,  // measure 25
0010
0001
0010
0100
0010
0100
0010
0100
1000
0010
1000
0010
,  // measure 26
1000
0010
1000
1000
0010
0010
0001
0010
0010
1000
0010
0010
,  // measure 27
0001
0010
0010
1000
0001
0010
0100
1000
0010
0100
0000
0101
,  // measure 28
0000
0101
0000
1002
0000
0003
0201
0000
0300
1010
0000
1000
,  // measure 29
0000
0100
0000
0012
0000
0003
1200
0000
0300
1001
0000
0010
,  // measure 30
0000
0100
0010
1020
0000
0030
1200
0000
0300
0001
0000
0010
,  // measure 31
0000
0001
0000
1000
0010
1000
0100
0010
0001
1000
0010
0100
,  // measure 32
0001
1000
0000
0012
0000
0003
1200
0000
0300
1001
0000
0010
,  // measure 33
0000
1000
0000
0021
0000
0030
2100
0000
3000
1010
0000
0001
,  // measure 34
0000
1000
0100
1100
0000
0000
0101
0000
0000
1100
0000
0011
,  // measure 35
0000
0000
0000
0000
1001
0000
0000
0000
0000
0000
0000
0000
1000
0000
0000
0100
0000
0000
1000
0000
0000
0001
0000
0000
0010
0000
0000
0001
0000
0000
0010
0000
0000
0100
0000
0000
1000
0000
0000
0000
0000
0000
0000
0000
0011
0000
0000
0000
,  // measure 36
0000
1001
0000
2100
0000
0000
0000
0000
0000
3001
0000
0000
,  // measure 37
0000
0001
0010
0002
0000
0000
0000
0000
0000
0013
0000
0000
,  // measure 38
0000
0200
0000
0320
0000
0000
0000
0000
0000
0130
0000
0010
,  // measure 39
0000
0001
0000
0010
0000
0000
0001
0000
0000
0100
0000
0000
,  // measure 40
0001
0020
0000
0130
,  // measure 41
0000
0001
1000
0002
0000
0000
0000
0000
0000
0013
0000
0000
,  // measure 42
0000
1000
0000
0200
0000
0000
0000
0000
0000
1300
0000
0010
,  // measure 43
0000
1000
0000
0001
0000
0000
0010
0000
0000
0100
0000
1000
,  // measure 44
0000
0000
0001
0000
0000
0000
0101
0000
0100
0001
0100
0000
0010
0000
0100
0000
0001
0000
0010
0000
0001
0010
0001
0000
,  // measure 45
0010
0000
0001
0000
0100
0000
0010
0000
0100
0010
0100
0000
0001
0000
1000
0000
0010
0000
0100
0000
0001
0000
1000
0000
,  // measure 46
0001
0000
0010
0000
0100
0000
0010
0000
0100
0010
0100
0000
0010
0000
0001
0000
0100
0000
0010
0000
0100
0010
0100
0000
,  // measure 47
0001
0000
1000
0001
1000
0000
0010
0000
0100
0010
0100
0000
0010
0000
0100
0000
0010
0000
0100
0000
0010
0100
0010
0000
,  // measure 48
1000
0000
0001
0000
1000
0000
0100
0000
1000
0100
1000
0000
0100
0000
0010
0000
0001
0000
0010
0000
0001
0010
0001
0000
,  // measure 49
1000
0000
0001
1000
0001
0000
1000
0000
0001
1000
0001
0000
0100
0000
0010
0000
0001
0000
0010
0000
0100
0010
0100
0000
,  // measure 50
0010
0000
0100
0000
0010
0000
0001
0000
1000
0001
1000
0000
0001
1000
0001
0000
1000
0000
0100
0000
0010
0000
0001
0000
,  // measure 51
0010
0100
0010
0004
0000
0000
0000
0000
0000
1003
0000
0000
,  // measure 52
0000
0000
0000
0001
0000
0001
0010
0000
0010
0100
0000
0100
,  // measure 53
1000
0000
1000
0010
1000
0001
0010
0100
1000
0010
0000
0010
,  // measure 54
0000
1000
0001
1000
0000
1000
0001
0000
0001
0100
0000
0100
,  // measure 55
0010
0000
0010
1000
0100
0010
0001
1000
0010
1010
0000
0101
,  // measure 56
0000
0000
1001
0000
0001
0000
1000
0000
0000
0000
0001
0000
0010
0000
0000
0000
0010
0100
0010
0000
0000
0000
0100
0000
,  // measure 57
1000
0000
1000
0001
0100
0001
0010
0000
0010
0100
0000
0100
,  // measure 58
0000
0000
1000
0000
0010
0000
1000
0000
0000
0000
1000
0000
0001
0000
0000
0000
0001
0100
0001
0000
0000
0000
0100
0000
,  // measure 59
0010
1000
0100
1100
0000
0000
1001
0000
0000
1100
0000
1001
,  // measure 60
0000
0000
0000
0000
0000
0000
1000
0100
1000
0000
0100
1000
0100
0000
0010
0000
0001
0000
0010
0001
0010
0000
0001
0010
,  // measure 61
0001
0100
0010
0100
0001
0010
0100
1000
0001
1000
0100
0001
,  // measure 62
0010
0000
1000
0000
0100
0000
0010
0100
0010
0000
0100
0010
0100
0000
0001
0000
1000
0000
0001
1000
0001
0000
1000
0001
,  // measure 63
1000
0100
1000
0001
0010
0001
0100
0010
1000
0001
0100
0010
,  // measure 64
1000
0000
0001
0000
0010
0000
0001
0100
0001
0000
0100
0001
0100
0000
0001
0000
0010
0000
0001
0010
0001
0000
0010
0001
,  // measure 65
0010
0001
0100
0001
0010
0100
1000
0100
0010
0100
1000
0010
,  // measure 66
0100
0000
0010
0000
0001
0000
0010
0100
0010
0000
0100
0010
0100
0000
0001
0000
1000
0000
0100
1000
0100
0000
1000
0100
,  // measure 67
1000
0000
0100
0000
0010
0000
0001
0000
0010
0000
0001
0000
0100
0000
0001
1000
0001
0000
1001
0000
0000
0000
0101
0000
,  // measure 68
0000
0011
0000
0110
0000
1001
0000
1010
1000
1100
0000
0011
,  // measure 69
0000
0000
1100
0000
0100
0000
0110
0000
0010
0001
0010
0000
0001
1000
0001
0000
0100
0000
0101
0000
0000
0000
0011
0000
,  // measure 70
0000
1100
0000
0202
0000
0000
0000
0000
0000
0000
0000
0000
,  // measure 71
0000
0000
0000
0000
,  // measure 72
0000
0303
0000
0000
;

//---------------dance-single - ----------------
#NOTEDATA:;
#CHARTNAME:;
#STEPSTYPE:dance-single;
#DESCRIPTION:;
#CHARTSTYLE:;
#DIFFICULTY:Medium;
#METER:11;
#RADARVALUES:0.458529,0.671009,0.393783,0.104018,0.776421,432.000000,379.000000,53.000000,14.000000,0.000000,0.000000,0.000000,0.000000,0.000000,0.458529,0.671009,0.393783,0.104018,0.776421,432.000000,379.000000,53.000000,14.000000,0.000000,0.000000,0.000000,0.000000,0.000000;
#CREDIT:Musey's Chart;
#DISPLAYBPM:*;
#NOTES:
// measure 0
0000
0000
0000
0000
,  // measure 1
0000
0000
0000
0000
,  // measure 2
0000
0000
0000
0000
1000
0000
0001
0000
0000
0001
0000
0000
0010
0000
0100
0000
1000
0000
0010
0000
0000
0010
0000
0000
,  // measure 3
0100
0000
0001
0000
0100
0000
0001
0000
0000
0001
0000
0000
0010
0000
0100
0000
1000
0000
0020
0000
0000
0000
0000
0000
,  // measure 4
1030
0000
0001
1001
0000
0000
0001
0000
0000
0100
0000
0001
,  // measure 5
0000
0010
0000
0011
0000
0000
0001
0000
0000
0010
0000
0100
,  // measure 6
0000
1000
0000
1100
0000
0000
0100
0000
0000
1000
0000
0010
,  // measure 7
0000
1000
0000
1001
0000
0000
0001
0000
0000
0010
0000
0100
,  // measure 8
0000
1000
0000
0101
0000
0001
0000
1000
0000
0010
0000
1000
,  // measure 9
0000
0100
0000
0110
0000
0010
0000
0001
0000
1000
0000
0010
,  // measure 10
0000
0100
0000
0101
0000
0000
0100
0000
0000
0010
0000
1000
,  // measure 11
0000
0010
0000
2000
0000
0000
0000
0000
0000
3001
0000
0000
,  // measure 12
0000
1000
0000
0001
0000
0000
0001
0000
0000
0010
0000
0100
,  // measure 13
0000
0010
0000
0100
0000
0000
0100
0000
0000
1000
0000
0001
,  // measure 14
0000
1000
0000
0001
0000
0000
0001
0000
0000
0100
0000
0001
,  // measure 15
0000
0100
0000
0001
0000
0000
0001
0000
0000
0010
0000
0001
,  // measure 16
0000
0010
0000
0110
0000
0000
0100
0000
0000
1000
0000
0010
,  // measure 17
0000
1000
0000
0010
0000
0000
0010
0000
0000
1000
0000
0010
,  // measure 18
0000
0001
0000
0010
0000
0000
0010
0000
0000
0010
0000
0100
,  // measure 19
0000
0001
0000
0010
0000
0000
0010
0000
0000
0100
0000
1000
,  // measure 20
0000
0001
0000
0100
0000
0100
0000
0001
0000
0010
0000
0010
,  // measure 21
0000
0100
0000
1000
0000
0010
0000
1000
0000
0100
0000
0100
,  // measure 22
0000
0010
0000
0001
0000
0001
0000
0100
0000
0010
0000
0010
,  // measure 23
0000
0100
0000
0001
0000
0010
0000
0100
0000
1000
0000
1000
,  // measure 24
0000
0001
0000
0100
0000
0100
0000
0010
0000
1000
0000
1000
,  // measure 25
0000
0001
0000
0010
0000
0010
0000
0100
0000
1000
0000
0001
,  // measure 26
0000
0100
0000
0010
0000
0010
0000
1000
0000
0001
0000
0001
,  // measure 27
0000
0010
0000
0200
0000
0000
0000
0000
0000
1300
0000
0001
,  // measure 28
0000
1000
0000
1001
0000
0000
0001
0000
0000
0100
0000
0001
,  // measure 29
0000
0010
0000
0110
0000
0000
0100
0000
0000
0010
0000
0001
,  // measure 30
0000
0100
0000
0110
0000
0000
0010
0000
0000
0010
0000
0100
,  // measure 31
0000
0001
0000
0010
0000
0100
0000
1000
0000
0010
0000
0100
,  // measure 32
0000
0001
0000
1001
0000
0000
1000
0000
0000
1000
0000
0100
,  // measure 33
0000
1000
0000
0110
0000
0000
0010
0000
0000
1000
0000
0010
,  // measure 34
0000
0100
0000
0001
0000
0000
0001
0000
0000
0001
0000
0010
,  // measure 35
0000
0100
0000
1000
0000
0010
0000
1000
0000
0010
0000
0010
,  // measure 36
0000
0010
0000
0200
0000
0000
0000
0000
0000
0301
0000
0000
,  // measure 37
0000
0001
0000
0020
0000
0000
0000
0000
0000
0130
0000
0000
,  // measure 38
0000
0100
0000
2000
0000
0000
0000
0000
0000
3010
0000
1000
,  // measure 39
0000
0001
0000
0020
0000
0000
0130
0000
0000
2000
0000
0000
,  // measure 40
3001
0000
0000
0020
0000
0000
0000
0000
0000
0031
0000
0100
,  // measure 41
0000
0001
0000
0020
0000
0000
0000
0000
0000
0031
0000
0100
,  // measure 42
0000
0001
0000
0020
0000
0000
0000
0000
0000
0130
0000
0010
,  // measure 43
0000
0100
0000
1000
0000
0000
1000
0000
0000
0010
0000
1000
,  // measure 44
0000
0001
0000
1001
0000
0001
0000
0010
0000
0100
0000
1000
,  // measure 45
0000
0010
0000
1010
0000
0010
0000
1000
0000
0001
0000
0100
,  // measure 46
0000
0001
0000
0011
0000
0100
0000
0010
0000
0001
0000
1000
,  // measure 47
0000
0010
0000
1010
0000
0001
0000
0010
0000
0100
0000
1000
,  // measure 48
0000
0001
0000
1001
0000
0001
0000
0010
0000
0011
0000
0100
,  // measure 49
0000
0010
0000
0110
0000
0100
0000
0010
0000
0101
0000
0010
,  // measure 50
0000
0100
0000
0011
0000
0000
0011
0000
0000
1100
0000
0010
,  // measure 51
0000
1000
0000
2002
0000
0000
0000
0000
3003
1001
0000
0000
,  // measure 52
0000
0100
0000
1000
0000
0010
0000
1000
0000
0001
0000
0100
,  // measure 53
0000
0001
0000
0010
0000
0100
0000
0010
0000
0100
0000
1000
,  // measure 54
0000
0010
0000
0001
0000
0010
0000
1000
0000
0001
0000
0010
,  // measure 55
0000
1000
0000
0010
0000
0001
0000
0100
0000
0010
0000
0010
,  // measure 56
0000
1000
0001
1000
0000
0001
0000
0010
0000
0100
0000
0100
,  // measure 57
0000
1000
0000
0010
0000
0010
0000
1000
0000
0001
0000
0001
,  // measure 58
0000
0010
0100
1000
0000
1000
0000
0010
0000
0100
0000
0100
,  // measure 59
0000
0001
1000
0010
0000
0000
0010
0000
0000
0100
0000
1000
,  // measure 60
0000
0100
0000
1000
0000
1000
0000
0001
0000
0010
0000
0010
,  // measure 61
0000
0001
0000
0100
0000
0100
0000
0001
0000
1000
0000
0010
,  // measure 62
0000
1000
0000
1010
0000
1010
0000
0001
0000
0011
0000
0011
,  // measure 63
0000
0100
0000
1100
0000
1100
0000
0010
0000
1000
0000
0001
,  // measure 64
0000
0010
0000
0011
0000
0011
0000
0100
0000
1100
0000
1100
,  // measure 65
0000
0010
0000
1010
0000
1010
0000
0001
0000
0010
0000
0100
,  // measure 66
0000
1000
0000
1001
0000
1001
0000
0010
0000
1010
0000
1010
,  // measure 67
0000
0100
0000
0110
0000
0110
0000
0001
0000
0110
0000
1010
,  // measure 68
0000
0110
0000
1001
0000
0101
0000
1001
0000
0011
0000
0110
,  // measure 69
0000
1010
0000
0100
1000
0100
1000
0100
1000
0010
1000
0010
,  // measure 70
1000
0001
0010
0002
0000
0000
0000
0000
0000
0000
0000
0000
,  // measure 71
0000
0000
0000
0000
,  // measure 72
0000
0003
0000
0000
;

//---------------dance-single - ----------------
#NOTEDATA:;
#CHARTNAME:;
#STEPSTYPE:dance-single;
#DESCRIPTION:;
#CHARTSTYLE:;
#DIFFICULTY:Easy;
#METER:7;
#RADARVALUES:0.309931,0.348925,0.000000,0.297194,0.516375,292.000000,292.000000,0.000000,40.000000,0.000000,0.000000,0.000000,0.000000,0.000000,0.309931,0.348925,0.000000,0.297194,0.516375,292.000000,292.000000,0.000000,40.000000,0.000000,0.000000,0.000000,0.000000,0.000000;
#CREDIT:Musey's Chart;
#DISPLAYBPM:*;
#NOTES:
// measure 0
0000
0000
0000
0000
,  // measure 1
0000
0000
0000
0000
,  // measure 2
0000
1000
0001
0100
,  // measure 3
0010
1000
0001
0020
,  // measure 4
0031
0000
0000
1000
0000
0000
1000
0000
0000
1000
0000
0001
,  // measure 5
0000
0100
0000
0010
0000
0000
2000
0000
0000
0000
0000
3000
,  // measure 6
0000
0001
0000
0100
0000
0000
0100
0000
0000
0010
0000
1000
,  // measure 7
0000
0001
0000
0100
0000
0000
0001
0000
0000
1000
0000
1000
,  // measure 8
0000
0010
0000
1000
0000
0000
1000
0000
0000
0100
0000
0010
,  // measure 9
0000
0001
0000
0100
0000
0000
0100
0000
0000
0010
0000
1000
,  // measure 10
0000
0001
0000
1000
0000
0000
1000
0000
0000
0001
0000
0010
,  // measure 11
0000
0100
0000
2000
0000
0000
0000
0000
0000
3001
0000
0000
,  // measure 12
0000
0000
0000
0200
0000
0000
0000
0000
0000
0301
0000
0010
,  // measure 13
0000
0001
0000
2000
0000
0000
0000
0000
0000
3001
0000
0100
,  // measure 14
0000
0010
0000
2000
0000
0000
0000
0000
0000
3010
0000
0100
,  // measure 15
0000
0001
0000
0020
0000
0000
0000
0000
0000
0130
0000
0010
,  // measure 16
0000
0100
0000
2000
0000
0000
0000
0000
0000
3001
0000
0100
,  // measure 17
0000
0001
0000
2000
0000
0000
0000
0000
0000
3010
0000
0100
,  // measure 18
0000
0001
0000
0020
0000
0000
0000
0000
0000
0130
0000
0010
,  // measure 19
0000
0100
0000
2000
0000
0000
0000
0000
0000
3001
0000
0100
,  // measure 20
0000
0001
0000
1000
0000
0000
1000
0000
0000
0010
0000
1000
,  // measure 21
0000
0100
0000
0010
0000
0000
0010
0000
0000
0001
0000
0100
,  // measure 22
0000
0001
0000
0010
0000
0000
0010
0000
0000
0100
0000
1000
,  // measure 23
0000
0001
0000
1000
0000
0000
1000
0000
0000
0001
0000
0100
,  // measure 24
0000
0001
0000
0010
0000
0000
0010
0000
0000
0100
0000
1000
,  // measure 25
0000
0010
0000
1000
0000
0000
1000
0000
0000
0001
0000
0100
,  // measure 26
0000
0010
0000
2000
0000
0000
3000
0000
0000
1000
0000
0001
,  // measure 27
0000
0010
0000
0200
0000
0000
0300
0000
0000
0100
0000
0000
,  // measure 28
0000
0100
0000
0002
0000
0000
0000
0000
0000
0103
0000
0001
,  // measure 29
0000
0010
0200
0000
0000
0000
0000
0000
0000
0301
0000
0010
,  // measure 30
0000
0100
0000
2000
0000
0000
0000
0000
0000
3001
0000
0100
,  // measure 31
0000
0001
0000
0020
0000
0000
0000
0000
0000
0130
0000
1000
,  // measure 32
0000
0001
0000
2000
0000
0000
0000
0000
0000
3010
0000
0100
,  // measure 33
0000
0010
0000
2000
0000
0000
0000
0000
0000
3001
0000
0010
,  // measure 34
0000
0100
0000
0020
0000
0000
0000
0000
0000
0130
0000
0001
,  // measure 35
0000
0010
0000
0002
0000
0000
0000
0000
0000
1003
0000
0000
,  // measure 36
0000
0002
0000
0103
,  // measure 37
0000
0010
0000
0020
0000
0000
0000
0000
0000
1030
0000
0000
,  // measure 38
0000
1000
0000
2000
0000
0000
0000
0000
0000
3001
0000
0100
,  // measure 39
0000
0001
0000
0020
0000
0000
0000
0000
0000
0031
0000
0100
,  // measure 40
0000
0001
0000
2000
0000
0000
0000
0000
0000
3100
0000
1000
,  // measure 41
0000
0010
0000
2000
0000
0000
0000
0000
0000
3001
0000
0100
,  // measure 42
0000
0010
0000
0200
0000
0000
0000
0000
0000
0301
0000
0100
,  // measure 43
0000
0001
0000
0020
0000
0000
0000
0000
0000
0130
0000
0000
,  // measure 44
0000
1000
0000
0001
0000
0001
0000
0001
0000
1000
0000
1000
,  // measure 45
0000
1000
0000
0010
0000
0010
0000
0010
0000
0100
0000
0100
,  // measure 46
0000
0100
0000
0001
0000
0001
0000
0001
0000
0010
0000
0010
,  // measure 47
0000
0010
0000
0100
0000
0100
0000
0100
0000
1000
0000
1000
,  // measure 48
0000
1000
0000
0001
0000
1000
0000
0001
0000
0001
0000
1000
,  // measure 49
0000
0001
0000
0001
0000
0100
0000
0001
0000
0001
0000
0010
,  // measure 50
0000
0001
0000
0001
0000
0010
0000
0100
0000
1000
0000
1000
,  // measure 51
0000
0010
0000
2000
0000
0000
0000
0000
0000
3001
0000
0000
,  // measure 52
0000
0000
0000
0100
0000
1000
0000
0100
0000
0100
0000
1000
,  // measure 53
0000
0001
0000
0020
0000
0000
0000
0000
0000
0031
0000
0000
,  // measure 54
0000
0000
0000
0100
0000
0001
0000
0010
0000
0001
0000
0100
,  // measure 55
0000
0010
0000
2000
0000
0000
0000
0000
0000
3100
0000
0000
,  // measure 56
0000
0000
0000
1000
0000
0010
0000
0001
0000
0020
0000
0000
,  // measure 57
0000
0000
0000
1030
0000
0001
0000
0010
0000
0200
0000
0000
,  // measure 58
0000
0000
0000
1300
0000
0001
0000
1000
0000
0002
0000
0000
,  // measure 59
0000
0013
0010
0010
,  // measure 60
0000
0100
0000
1000
0000
1000
0000
0001
0000
0100
0000
0100
,  // measure 61
0000
0001
0000
0020
0000
0000
0000
0000
0000
0031
0000
0000
,  // measure 62
0000
0100
0000
0010
0000
0010
0000
1000
0000
0001
0000
0001
,  // measure 63
0000
0010
0000
0200
0000
0000
0000
0000
0000
1300
0000
0000
,  // measure 64
0000
0001
0000
1000
0000
1000
0000
0010
0000
0100
0000
0100
,  // measure 65
0000
0001
0000
0020
0000
0000
0000
0000
0000
0130
0000
0000
,  // measure 66
0000
0001
0000
1000
0000
1000
0000
0001
0000
0010
0000
0010
,  // measure 67
0000
0001
0000
0200
0000
0000
0000
0000
0000
0310
0000
0000
,  // measure 68
0000
0010
0000
0010
0000
0000
0000
0100
0000
0100
0000
0000
,  // measure 69
0000
0001
0000
0001
0000
0000
0000
1000
0000
1000
0000
0000
,  // measure 70
0000
0001
0000
0002
0000
0000
0000
0000
0000
0000
0000
0000
,  // measure 71
0000
0000
0000
0000
,  // measure 72
0000
0003
0000
0000
;

//---------------dance-single - ----------------
#NOTEDATA:;
#CHARTNAME:;
#STEPSTYPE:dance-single;
#DESCRIPTION:;
#CHARTSTYLE:;
#DIFFICULTY:Beginner;
#METER:4;
#RADARVALUES:0.210159,0.241563,0.059439,0.638968,0.211751,198.000000,190.000000,8.000000,86.000000,0.000000,0.000000,0.000000,0.000000,0.000000,0.210159,0.241563,0.059439,0.638968,0.211751,198.000000,190.000000,8.000000,86.000000,0.000000,0.000000,0.000000,0.000000,0.000000;
#CREDIT:Musey's Chart;
#DISPLAYBPM:*;
#NOTES:
// measure 0
0000
0000
0000
0000
,  // measure 1
0000
0000
0000
0000
,  // measure 2
0000
1000
0100
1000
,  // measure 3
0100
0010
0001
0020
,  // measure 4
0031
2000
0000
3001
,  // measure 5
0000
0200
0000
0301
,  // measure 6
0000
0020
0000
0031
,  // measure 7
0000
0002
0000
1003
,  // measure 8
0000
0000
0000
0001
0000
0000
0000
0001
0000
0010
0000
0000
,  // measure 9
0000
0010
0000
0200
0000
0000
0000
0000
0000
1300
0000
0000
,  // measure 10
0000
0000
0000
1000
0000
0000
0000
1000
0000
0001
0000
0000
,  // measure 11
0000
0001
0000
0200
0000
0000
0000
0000
0000
0301
0000
0000
,  // measure 12
0000
0020
0000
0230
,  // measure 13
0000
2300
0000
3002
,  // measure 14
0000
0023
0000
0032
,  // measure 15
0000
0203
0000
0320
,  // measure 16
0000
2030
0000
3200
,  // measure 17
0000
2300
0000
3002
,  // measure 18
0000
0203
0000
0302
,  // measure 19
0000
0203
0000
0320
,  // measure 20
0000
0000
0000
1030
0000
1000
0000
1000
0000
0020
0000
0000
,  // measure 21
0000
0000
0000
1030
0000
0001
0000
1000
0000
0002
0000
0000
,  // measure 22
0000
0000
0000
0013
0000
0100
0000
0010
0000
0200
0000
0000
,  // measure 23
0000
0000
0000
0310
0000
0001
0000
0010
0000
0002
0000
0000
,  // measure 24
0000
0000
0003
0100
0000
0001
0000
1000
0000
0020
0000
0000
,  // measure 25
0000
0000
0000
1030
0000
0100
0000
0010
0000
0002
0000
0000
,  // measure 26
0000
0203
0000
0302
,  // measure 27
0000
2003
0000
3010
,  // measure 28
0000
0220
0000
0000
,  // measure 29
0330
2002
0000
0000
,  // measure 30
3003
2200
0000
0000
,  // measure 31
3300
0220
0000
0000
,  // measure 32
0330
0000
0000
0022
0000
0000
0000
0000
0000
0000
0000
0033
,  // measure 33
0000
2200
0000
0000
,  // measure 34
3300
0000
0000
0022
0000
0000
0000
0000
0000
0000
0000
0033
,  // measure 35
0000
0220
0000
0330
,  // measure 36
0000
2000
0000
3001
,  // measure 37
0000
0001
0000
0002
0000
0000
0000
0000
0000
0013
0000
0000
,  // measure 38
0000
0100
0000
0200
0000
0000
0000
0000
0000
0310
0000
0000
,  // measure 39
0000
1000
0000
2000
0000
0000
0000
0000
0000
3001
0000
0000
,  // measure 40
0000
0002
0000
0013
,  // measure 41
0000
0200
0000
0310
,  // measure 42
0000
0002
0000
1003
,  // measure 43
0000
2000
0000
3100
,  // measure 44
0000
0000
0000
0010
0000
1000
0000
0010
0000
2000
0000
0000
,  // measure 45
0000
0000
0000
3010
0000
1000
0000
0010
0000
0200
0000
0000
,  // measure 46
0000
0000
0000
0301
0000
0010
0000
0001
0000
0200
0000
0000
,  // measure 47
0000
0000
0000
0301
0000
1000
0000
0001
0000
0020
0000
0000
,  // measure 48
0000
0230
0000
2300
,  // measure 49
0000
3002
0000
0203
,  // measure 50
0000
0320
0000
2030
,  // measure 51
0000
3002
0000
0013
,  // measure 52
0000
0000
0000
0100
0000
1000
0000
0100
0000
2000
0000
0000
,  // measure 53
0000
0000
0000
3010
0000
1000
0000
0001
0000
0200
0000
0000
,  // measure 54
0000
0000
0000
0301
0000
0010
0000
0001
0000
0200
0000
0000
,  // measure 55
0000
0000
0000
0301
0000
0010
0000
0100
0000
2000
0000
0000
,  // measure 56
0000
0000
0000
3001
0000
0100
0000
0001
0000
0020
0000
0000
,  // measure 57
0000
0000
0000
0031
0000
0100
0000
0001
0000
2000
0000
0000
,  // measure 58
0000
0000
0000
3010
0000
0100
0000
0010
0000
2000
0000
0000
,  // measure 59
0000
3002
0000
0023
,  // measure 60
0000
0000
0030
0100
0000
0100
0000
0010
0000
0100
0000
0100
,  // measure 61
0000
1000
0000
0002
0000
0000
0000
0000
0000
1003
0000
0000
,  // measure 62
0000
0000
0000
1000
0000
1000
0000
0001
0000
1000
0000
1000
,  // measure 63
0000
0001
0000
0200
0000
0000
0000
0000
0000
0310
0000
0000
,  // measure 64
0000
0000
0000
0001
0000
0001
0000
0010
0000
0001
0000
0001
,  // measure 65
0000
0100
0000
0200
0000
0000
0000
0000
0000
1300
0000
0000
,  // measure 66
0000
0000
0000
0010
0000
0010
0000
1000
0000
0001
0000
0001
,  // measure 67
0000
1000
0000
0200
0000
0000
0000
0000
0000
0320
0000
0000
,  // measure 68
0000
2030
0000
3002
,  // measure 69
0000
0203
0000
0302
,  // measure 70
0000
2003
0000
0000
,  // measure 71
0000
0000
0000
0000
,  // measure 72
0000
3000
0000
0000
;

//---------------dance-single - ----------------
#NOTEDATA:;
#CHARTNAME:;
#STEPSTYPE:dance-single;
#DESCRIPTION:;
#CHARTSTYLE:;
#DIFFICULTY:Challenge;
#METER:17;
#RADARVALUES:0.737679,0.885732,0.534950,0.260045,1.415389,695.000000,623.000000,72.000000,35.000000,0.000000,0.000000,1.000000,0.000000,0.000000,0.737679,0.885732,0.534950,0.260045,1.415389,695.000000,623.000000,72.000000,35.000000,0.000000,0.000000,1.000000,0.000000,0.000000;
#CREDIT:Musey's Chart;
#OFFSET:-0.181000;
#BPMS:0.000000=70.000000
,17.000000=140.000000
;
#STOPS:;
#DELAYS:;
#WARPS:;
#TIMESIGNATURES:0.000000=4=4
;
#TICKCOUNTS:0.000000=4
;
#COMBOS:0.000000=1
;
#SPEEDS:0.000000=1.000000=0.000000=0
;
#SCROLLS:0.000000=1.000000
,16.666666=0.500000
,17.000000=1.000000
,47.000000=0.500000
,49.000000=1.000000
,80.333336=0.500000
,81.000000=1.000000
,112.333336=0.500000
,113.000000=1.000000
,145.000000=0.500000
,176.333328=0.250000
,177.000000=1.000000
,207.000000=0.500000
,209.000000=1.000000
,240.333328=0.500000
,241.000000=1.000000
,271.000000=2.000000
,271.500000=0.500000
,271.666656=1.000000
,271.833344=2.000000
,272.166656=0.500000
,272.333344=1.000000
,272.500000=2.000000
,272.833344=0.500000
,273.000000=1.000000
,273.166656=2.000000
,273.500000=0.500000
,273.666656=1.000000
,273.833344=2.000000
,274.166656=0.500000
,274.333344=1.000000
,275.000000=2.000000
,275.500000=0.500000
,275.666656=1.000000
,275.833344=2.000000
,276.166656=0.500000
,276.333344=1.000000
,279.000000=2.000000
,279.500000=0.500000
,279.666656=1.000000
,279.833344=2.000000
,280.166656=0.500000
,280.333344=1.000000
,280.500000=2.000000
,280.833344=0.500000
,281.000000=1.000000
;
#FAKES:;
#LABELS:0.000000=Song Start
;
#DISPLAYBPM:*;
#NOTES:
// measure 0
0000
0000
0000
0000
,  // measure 1
0000
0000
0000
0000
,  // measure 2
0000
0000
0000
0000
0000
0000
0000
0000
1000
0000
0000
0000
0001
0000
0000
0000
0001
0000
0010
0000
0000
0000
0010
0001
0010
0000
0000
0000
0100
0000
0000
0000
0010
0000
0000
0000
0002
0000
0000
0000
0000
0000
1003
0000
0000
0000
0000
0000
,  // measure 3
0010
0000
1000
0000
0100
0010
0200
0000
0000
0310
0000
0000
0100
0000
1000
0000
0001
0000
2000
0000
0000
0000
0000
0000
,  // measure 4
3010
0000
1000
0000
0010
0000
1001
0000
0000
0000
0001
0000
1000
0000
0000
0000
0001
1000
0001
0000
0000
0000
0001
0000
,  // measure 5
0000
0010
0000
0110
0000
0000
1010
0000
0000
0110
0000
0001
,  // measure 6
0000
0000
1000
0000
0001
0000
1001
0000
0000
0000
0100
0000
0010
0000
0000
0000
0010
0001
0010
0000
0000
0000
0100
0000
,  // measure 7
0000
1000
0000
1010
0000
0000
1001
0000
0000
0110
0000
0011
,  // measure 8
0000
0000
0001
0000
1000
0001
1000
0000
0000
0000
0001
0000
0000
0000
0010
0000
0000
0000
0100
0000
0000
0000
0001
0000
,  // measure 9
0000
0010
1000
1010
0000
0100
0000
1000
0000
0010
0000
1000
,  // measure 10
0000
0000
0001
0000
1000
0001
1000
0000
0000
0000
0000
0000
1010
0000
0000
0000
0000
0000
0011
0000
0000
0000
1001
0000
,  // measure 11
0000
0000
0000
0000
1001
0000
0000
0000
0000
0000
0000
0000
0100
0000
0000
0010
0000
0000
0001
0000
0000
0010
0000
0000
0100
0000
0000
0010
0000
0000
0100
0000
0000
1000
0000
0000
0020
0000
0000
0000
0000
0000
0000
0000
0000
0000
0000
0000
,  // measure 12
0030
1000
0010
1010
0000
0000
0002
0000
0103
0001
0000
2000
,  // measure 13
0000
3010
0000
1000
0000
0000
0020
0000
0130
0001
0000
2000
,  // measure 14
0000
3010
0100
0010
0000
0000
0200
0000
0301
1000
0000
0020
,  // measure 15
0000
1030
0000
0100
0000
0000
2000
0000
3000
1001
0000
0101
,  // measure 16
0000
1000
0010
0001
0000
0000
0020
0000
0130
0001
0000
0020
,  // measure 17
0000
0130
0000
1000
0000
0000
0002
0000
1003
0001
0000
2000
,  // measure 18
0000
3010
0100
0010
0000
0000
2000
0000
3001
0010
0000
0200
,  // measure 19
0000
1300
0000
1001
0000
0000
1100
0000
0000
1001
0000
1100
,  // measure 20
0000
0010
0000
0101
0100
0001
0010
0100
0100
0010
0001
0001
,  // measure 21
0100
0010
0010
0100
0001
0001
0100
0001
0010
0100
0000
0010
,  // measure 22
0000
0001
0000
1010
0010
1000
0100
0010
0010
0100
1000
1000
,  // measure 23
0010
0100
0100
0010
1000
1000
0010
1000
0010
0100
0000
0100
,  // measure 24
0000
0000
0010
0000
1000
0000
0100
0000
0010
0000
0001
0000
1000
0000
0100
0000
1000
0001
1000
0000
0010
0000
1000
0000
,  // measure 25
0100
0010
0001
1000
0010
0100
0001
1000
0100
0010
0001
1000
,  // measure 26
0010
1000
0001
1001
0100
0010
0001
1000
0001
1001
0010
0100
,  // measure 27
1000
0000
0001
0000
1000
0000
1010
0000
0001
0000
0010
0000
0100
0000
1000
0100
1000
0000
0100
0000
0000
0000
1001
0000
,  // measure 28
0000
1100
0000
0011
0000
0000
0110
0000
0000
1001
0000
0100
,  // measure 29
0000
1000
0000
1100
0000
0000
0011
0000
0000
1100
0000
0001
,  // measure 30
0000
1000
0010
0110
0000
0000
0011
0000
0000
0110
0000
0001
,  // measure 31
0000
0000
1000
0000
0001
1000
0001
0000
0010
0000
0100
0000
1000
0000
0010
0000
0100
0000
0010
0000
0001
0000
1000
0000
,  // measure 32
0001
1000
0000
1001
0000
0000
1010
0000
0000
1001
0000
0001
,  // measure 33
0000
0100
0001
0011
0000
0000
0110
0000
0000
1001
0000
0010
,  // measure 34
0000
1000
0100
1100
0000
0000
0011
0000
0000
1100
0000
0011
,  // measure 35
0000
0000
0000
0000
1100
0000
0000
0000
0000
0000
0000
0000
0001
0000
0000
0010
0000
0000
0001
0000
0000
1000
0000
0000
0100
0000
0000
1000
0000
0000
0010
0000
0000
0100
0000
0000
0010
0000
0000
0000
0000
0000
0000
0000
0110
0000
0000
0000
,  // measure 36
0000
1001
0000
0210
0000
0000
0000
0000
0000
0010
0000
0000
,  // measure 37
0000
0301
0010
0002
0000
0000
0000
0000
0000
1000
0000
0000
,  // measure 38
0000
1003
0000
0020
0000
0000
0000
0000
0000
2030
0000
3020
,  // measure 39
0000
0230
0000
0320
0000
0000
2030
0000
0000
3020
0000
0000
,  // measure 40
0230
0000
0000
0301
1000
0001
1000
0100
0000
1000
0001
1000
,  // measure 41
0001
0100
0000
0001
0010
0001
0010
0100
0000
1000
0100
1000
,  // measure 42
0100
0010
0000
0100
0010
0100
0010
0001
0000
0002
0000
2003
,  // measure 43
0000
3020
0000
2030
0000
0000
3002
0000
0003
0200
0000
0000
,  // measure 44
0000
0000
0301
0000
0000
0000
0101
0000
0001
0100
0001
0000
0010
0000
0001
0000
0100
0000
0010
0000
0100
0010
0100
0000
,  // measure 45
0001
0000
0010
0100
1000
0100
0010
0000
1000
0100
1000
0000
0001
0000
1000
0000
0001
0000
0010
0000
0100
0010
0100
0000
,  // measure 46
0001
0000
0010
0000
0100
0000
1000
0000
0001
1000
0001
0000
0100
0000
0010
0000
1000
0000
0001
0000
1000
0001
1000
0000
,  // measure 47
0001
0000
1000
0100
0010
0001
0010
0000
0100
0010
0100
0000
1000
0000
0001
0000
0010
0000
0001
0000
1000
0001
1000
0000
,  // measure 48
0010
0000
0100
0000
0001
0010
0001
0000
1000
0001
1000
0000
0100
0000
0010
0000
0001
0000
0100
0000
0010
0100
0010
0000
,  // measure 49
1000
0000
0001
0010
0100
1000
0010
0000
1000
0010
1000
0000
0001
0000
1000
0000
0001
0000
0010
0000
0100
1000
0100
0000
,  // measure 50
0001
0000
1000
0000
0001
0000
0100
0000
0010
0100
0010
0000
0100
0010
0100
0000
0010
0000
1000
0000
0001
0000
0010
0000
,  // measure 51
0001
1000
0001
0400
0000
0000
0000
0000
0000
0310
0000
0000
,  // measure 52
0000
0000
0000
0000
0000
0000
1001
0000
0000
0000
0100
0000
0000
0000
0001
0000
1000
0001
1000
0000
0000
0000
0010
0000
,  // measure 53
0000
1000
0000
0100
0000
0010
0000
0001
0000
1000
0000
0010
,  // measure 54
0000
0000
1000
0000
0000
0000
0001
0000
0000
0000
0010
0000
0000
0000
0100
0000
0010
0100
0010
0000
0000
0000
0001
0000
,  // measure 55
0000
0100
0000
0010
0000
1000
0000
0001
0000
1001
0000
1001
,  // measure 56
0000
0000
1001
0000
0000
0000
0001
0000
0000
0000
0010
0000
0000
0000
0100
0000
0010
0100
0010
0000
0000
0000
0001
0000
,  // measure 57
0000
1000
0000
0010
0000
0100
0000
0001
0000
1000
0000
0100
,  // measure 58
0000
0000
0010
0000
0000
0000
0001
0000
0000
0000
1000
0000
0000
0000
0010
0000
1000
0010
1000
0000
0000
0000
0100
0000
,  // measure 59
0000
0010
0000
0011
0000
0000
0011
0000
0000
1100
0000
1100
,  // measure 60
0000
0000
0001
0000
0000
0000
1000
0001
1000
0000
0001
1000
0001
0000
0010
0000
0100
0000
0010
0100
0010
0000
0100
0010
,  // measure 61
0100
0000
0010
0000
1000
0000
0010
0000
1000
0000
0001
0000
0100
0000
0001
0000
1000
0000
0001
0000
1000
0000
0001
0010
,  // measure 62
0001
0010
0001
0000
0010
0000
0001
0010
0001
0000
0010
0001
0010
0000
0001
0000
1000
0000
0010
1000
0010
0000
1000
0010
,  // measure 63
1000
0001
0100
0001
0010
0001
1000
0010
1000
0100
1000
0001
,  // measure 64
0010
0000
0001
0000
0100
0000
0001
0100
0001
0000
0100
0001
0100
0000
0001
0000
1000
0000
0010
1000
0010
0000
1000
0010
,  // measure 65
1000
0100
1000
0010
0100
0001
0010
0001
0100
0010
1000
0100
,  // measure 66
0010
0001
0010
0001
0010
0000
0001
0100
0001
0000
0100
0001
0100
0000
0010
0000
0001
0000
1000
0001
1000
0000
0001
1000
,  // measure 67
0001
0000
0010
0000
0100
0000
1000
0000
0010
0000
0100
0000
0001
0000
1000
0001
1000
0000
1001
0000
0000
0000
0011
0000
,  // measure 68
0000
0110
0000
1001
0000
1010
0000
1100
1000
1001
0000
0011
,  // measure 69
0000
0000
1000
0000
0001
1000
0001
0000
0010
0000
0100
0000
0010
0100
0010
0000
0100
0000
1100
0000
0000
0000
0011
0000
,  // measure 70
0000
1100
0000
2002
0000
0000
0000
0000
0000
0000
0000
0000
,  // measure 71
0000
0000
0000
0000
,  // measure 72
0000
3003
0000
0000
;
