#TITLE:One and Only;
#SUBTITLE:;
#ARTIST:ENHYPEN;
#TITLETRANSLIT:;
#SUBTITLETRANSLIT:;
#ARTISTTRANSLIT:;
#GENRE:;
#CREDIT:;
#BANNER:AV.avi;
#BACKGROUND:bg.png;
#LYRICSPATH:;
#CDTITLE:;
#MUSIC:audio.ogg;
#OFFSET:-0.327000;
#SAMPLESTART:33.979935;
#SAMPLELENGTH:14.999997;
#SELECTABLE:YES;
#BPMS:0.000000=138.000000
;
#STOPS:
;
#BGCHANGES:0.000=MV.avi=1.000=1=0=1===CrossFade==,
99999=-nosongbg-=1.000=0=0=0 // don't automatically add -songbackground-
;
#KEYSOUNDS:;
#ATTACKS:;

//---------------dance-single - ----------------
#NOTES:
     dance-single:
     :
     Hard:
     12:
     0.470671,0.487435,0.198585,0.676993,0.000000,365.000000,343.000000,22.000000,75.000000,0.000000,0.000000,0.470671,0.487435,0.198585,0.676993,0.000000,365.000000,343.000000,22.000000,75.000000,0.000000,0.000000:
// measure 0
0000
0000
0000
0000
,  // measure 1
0000
0000
0000
0000
,  // measure 2
0000
0000
0000
0000
,  // measure 3
0000
0000
0000
0000
1000
0001
0100
0000
,  // measure 4
0001
0000
1010
0000
1000
0010
0100
0000
,  // measure 5
0010
0000
0110
0000
0001
0100
0010
0000
,  // measure 6
0100
1010
0100
0101
,  // measure 7
0001
0000
1010
0000
1000
0010
0001
0000
,  // measure 8
0010
0000
1010
0000
0010
1000
0010
0100
,  // measure 9
0001
0101
0001
1010
,  // measure 10
0001
0010
1000
0010
0001
0010
0001
1000
,  // measure 11
0100
0000
0110
0000
0100
0010
0001
0000
,  // measure 12
0011
0000
0010
1000
0010
0000
0101
0000
,  // measure 13
0010
1000
0010
0100
0001
0010
1000
0010
,  // measure 14
0001
0101
0010
1010
,  // measure 15
0001
0100
0010
0100
0001
0010
0001
1000
,  // measure 16
0100
0000
1000
0010
0100
0000
0110
0000
,  // measure 17
0001
1000
0010
2000
0000
3100
1000
0002
,  // measure 18
0000
0013
0001
0200
0000
0310
0100
0020
,  // measure 19
0000
0000
0130
0000
0000
0000
1000
1000
,  // measure 20
0001
0010
0200
0000
0310
0000
0100
1000
,  // measure 21
0010
0100
0020
0000
1030
0000
0010
0100
,  // measure 22
0000
0100
0010
0100
0010
1000
0100
1000
,  // measure 23
0002
0000
1003
0100
1000
0010
0001
0010
,  // measure 24
1000
0001
0020
0000
0031
0100
0001
0010
,  // measure 25
0100
0000
1000
0010
1000
0000
1100
0000
,  // measure 26
0010
0000
0100
0010
1000
0100
0010
0002
,  // measure 27
0000
0013
0000
1000
0010
0100
0010
2000
,  // measure 28
3010
0002
0013
2000
3010
0002
0013
2000
,  // measure 29
3010
0002
0013
0100
0001
0020
0030
0200
,  // measure 30
1300
0200
0301
0200
1300
0200
0301
0200
,  // measure 31
1300
0000
0101
0001
0010
0100
1000
0002
,  // measure 32
0013
0002
1003
0002
0103
0002
1003
0200
,  // measure 33
0310
0200
0301
0200
1300
0020
1030
0002
,  // measure 34
0103
0001
0100
0002
0000
1003
0010
0200
,  // measure 35
0000
0320
0000
0030
1000
0010
0100
0100
,  // measure 36
0010
0000
1000
0002
0000
0023
0000
0230
,  // measure 37
0000
0000
0010
0010
0000
0000
0310
0000
,  // measure 38
0010
0000
0001
0020
0000
0032
0000
0203
,  // measure 39
0000
0000
0001
0302
0000
0000
1003
0000
,  // measure 40
0100
0000
0001
0020
0000
0032
0000
0203
,  // measure 41
0000
0000
0010
0010
0000
0000
0310
0000
,  // measure 42
1000
0100
1000
0010
0001
0010
1000
0001
,  // measure 43
2000
0000
3002
0000
0003
0000
0001
0001
,  // measure 44
0100
0010
0200
0000
0310
0000
1010
0000
,  // measure 45
0100
0001
0020
0000
0130
0000
1010
0000
,  // measure 46
0100
0001
0010
0001
0010
0100
1000
0001
,  // measure 47
1000
0000
0010
1000
0100
1000
0010
0001
,  // measure 48
0010
1000
0200
0000
1300
0000
1100
0000
,  // measure 49
0100
1000
0100
0001
0100
0000
1010
0000
,  // measure 50
0101
0000
0010
0001
1000
0001
0010
0002
,  // measure 51
0000
1003
0000
0010
1000
0100
1000
0002
,  // measure 52
0013
0002
0103
0002
1003
0002
0103
0020
,  // measure 53
0031
0020
1030
0020
0130
0020
0030
2000
,  // measure 54
3001
2000
3100
2000
3010
0200
0310
0002
,  // measure 55
0013
0000
1010
0010
0100
0001
0010
0200
,  // measure 56
1300
0200
0301
0200
1300
0200
0310
0002
,  // measure 57
1003
0002
0013
0002
0103
0020
1030
0002
,  // measure 58
0103
1000
0100
0020
0000
1030
0001
0020
,  // measure 59
0000
0230
0000
0300
0010
0001
0200
0010
,  // measure 60
0300
0000
0000
0000
;

//---------------dance-single - ----------------
#NOTES:
     dance-single:
     :
     Medium:
     8:
     0.326246,0.379116,0.126372,0.261771,0.000000,253.000000,239.000000,14.000000,29.000000,0.000000,0.000000,0.326246,0.379116,0.126372,0.261771,0.000000,253.000000,239.000000,14.000000,29.000000,0.000000,0.000000:
// measure 0
0000
0000
0000
0000
,  // measure 1
0000
0000
0000
0000
,  // measure 2
0000
0000
0000
0000
,  // measure 3
0000
0000
0000
0000
,  // measure 4
1000
0010
0100
0110
,  // measure 5
0001
0010
0001
0011
,  // measure 6
0010
0100
0010
0110
,  // measure 7
0100
1000
0100
1100
,  // measure 8
0010
1000
0010
0000
1000
0000
1100
0000
,  // measure 9
0001
0010
0001
0000
0010
0000
0011
0000
,  // measure 10
0100
1000
0100
0000
0010
0100
0010
0000
,  // measure 11
0001
0010
0001
0100
,  // measure 12
0110
0010
1000
1001
,  // measure 13
0001
0010
0001
0000
1000
0001
0100
0001
,  // measure 14
1000
0100
0010
0110
,  // measure 15
0001
0010
0100
0010
0001
0000
1000
0000
,  // measure 16
0010
1010
1000
0001
,  // measure 17
0010
0000
0011
0000
0100
1000
0100
0000
,  // measure 18
1000
0010
1000
0100
,  // measure 19
0010
0000
0010
0110
,  // measure 20
0001
0010
0200
0000
0310
0000
0001
0000
,  // measure 21
1000
0001
2000
0000
3010
0000
0100
0000
,  // measure 22
0001
0100
0010
0100
0001
0010
0100
0010
,  // measure 23
0002
1003
0010
1010
,  // measure 24
1000
0100
2000
0000
3001
0000
0100
0000
,  // measure 25
0001
0100
0001
0000
0010
0100
0010
0000
,  // measure 26
2000
0000
3001
0000
1000
0100
1000
0000
,  // measure 27
0020
0000
1030
0000
0001
0000
1000
0001
,  // measure 28
0000
0001
0000
0001
0000
0001
0000
1000
,  // measure 29
0000
1000
0000
1000
0000
0100
0000
1000
,  // measure 30
0000
1000
0000
1000
0000
0010
0000
2000
,  // measure 31
0000
0000
3000
0000
0001
0100
0001
0010
,  // measure 32
0000
0010
0000
0010
0000
0010
0000
0001
,  // measure 33
0000
0001
0000
0100
0000
0100
0000
0020
,  // measure 34
0000
0030
1000
0100
1000
0000
0001
0000
,  // measure 35
0020
0000
0031
0000
0100
0010
0200
0000
,  // measure 36
0310
0000
0001
2000
0000
3002
0000
0023
,  // measure 37
0000
0000
0000
0031
,  // measure 38
0100
0000
0001
0020
0000
0032
0000
2003
,  // measure 39
0000
0000
0000
3020
0000
0000
0130
0000
,  // measure 40
0001
0000
1000
0200
0000
2300
0000
3002
,  // measure 41
0000
0000
0000
0000
0000
0000
0000
0003
,  // measure 42
0010
0001
0010
0001
1000
0010
0100
0010
,  // measure 43
1000
0000
0000
0000
,  // measure 44
0002
0000
0000
0013
,  // measure 45
0002
0000
0000
1003
,  // measure 46
0010
1000
0100
0010
0001
0000
1000
0000
,  // measure 47
0010
0000
1000
0000
0100
1000
0001
0000
,  // measure 48
0020
0000
0000
0031
,  // measure 49
0200
0000
0000
0310
,  // measure 50
2000
0000
0000
3001
,  // measure 51
0101
0000
0000
0001
0010
0100
1000
0001
,  // measure 52
0000
0001
0000
0001
0000
0001
0000
1000
,  // measure 53
0000
1000
0000
0010
0000
0100
0000
0001
,  // measure 54
0000
0001
0000
0001
0000
1000
0000
0200
,  // measure 55
0000
0000
0310
0100
0010
0100
0010
0100
,  // measure 56
0000
0100
0000
0100
0000
0100
0000
1000
,  // measure 57
0000
1000
0000
0010
0000
0010
0000
0100
,  // measure 58
0000
0001
0100
0002
0000
0013
0001
0020
,  // measure 59
0000
0031
0000
0000
1000
0001
2000
0000
,  // measure 60
3000
0000
0000
0000
;

//---------------dance-single - ----------------
#NOTES:
     dance-single:
     :
     Easy:
     3:
     0.207611,0.241687,0.018053,0.207611,0.000000,161.000000,159.000000,2.000000,23.000000,0.000000,0.000000,0.207611,0.241687,0.018053,0.207611,0.000000,161.000000,159.000000,2.000000,23.000000,0.000000,0.000000:
// measure 0
0000
0000
0000
0000
,  // measure 1
0000
0000
0000
0000
,  // measure 2
0000
0000
0000
0000
,  // measure 3
0000
0000
0000
0000
,  // measure 4
0100
0001
0010
0000
,  // measure 5
0001
1000
0010
0000
,  // measure 6
1000
0100
1000
0000
,  // measure 7
0002
0000
0103
0000
,  // measure 8
0010
1000
0100
0000
,  // measure 9
0010
0001
0010
0000
,  // measure 10
0100
1000
0010
1000
,  // measure 11
0002
0000
1003
0000
,  // measure 12
1100
0000
0011
0000
,  // measure 13
0001
1000
0001
0100
,  // measure 14
0001
0000
0010
0000
,  // measure 15
0001
0010
0100
1000
,  // measure 16
0001
0001
1000
0000
,  // measure 17
0010
1000
0100
0000
,  // measure 18
1000
0100
0010
0100
,  // measure 19
1000
1000
0001
0100
,  // measure 20
0020
0000
1030
0001
,  // measure 21
0020
0000
0031
1000
,  // measure 22
0100
0100
1000
0010
,  // measure 23
2000
0000
3010
0100
,  // measure 24
0002
0000
0013
0001
,  // measure 25
0100
0100
0010
1000
,  // measure 26
0002
0000
1003
0100
,  // measure 27
0010
0010
0001
0000
,  // measure 28
1000
1000
1000
1000
,  // measure 29
0001
0001
0001
0001
,  // measure 30
0100
0100
0100
0100
,  // measure 31
0020
0000
1030
0000
,  // measure 32
0001
0001
0001
0001
,  // measure 33
1000
1000
1000
1000
,  // measure 34
0010
0000
0100
0000
,  // measure 35
0020
0000
1030
0000
,  // measure 36
0002
0000
0000
0000
,  // measure 37
0023
0000
0000
0000
,  // measure 38
0032
0000
0000
0000
,  // measure 39
0203
0000
0000
0000
,  // measure 40
0320
0000
0000
0000
,  // measure 41
0230
0000
0000
0000
,  // measure 42
0301
0100
0001
0010
,  // measure 43
0001
0000
0001
0000
,  // measure 44
2000
0000
3010
0000
,  // measure 45
0002
0000
0103
0000
,  // measure 46
1000
0010
1000
0000
,  // measure 47
0002
0000
0013
0000
,  // measure 48
2000
0000
3100
0000
,  // measure 49
0020
0000
1030
0000
,  // measure 50
1000
0001
1000
0000
,  // measure 51
0002
0000
0103
0000
,  // measure 52
0010
1000
0010
1000
,  // measure 53
0010
1000
0010
1000
,  // measure 54
0001
0100
0001
0100
,  // measure 55
0002
0000
1003
0000
,  // measure 56
0100
0010
0100
0010
,  // measure 57
0100
0010
0100
1000
,  // measure 58
0001
0100
0001
1000
,  // measure 59
0020
0000
1030
0000
;

//---------------dance-single - ----------------
#NOTES:
     dance-single:
     :
     Beginner:
     1:
     0.128951,0.161124,0.009027,0.216638,0.000000,100.000000,99.000000,1.000000,24.000000,0.000000,0.000000,0.128951,0.161124,0.009027,0.216638,0.000000,100.000000,99.000000,1.000000,24.000000,0.000000,0.000000:
// measure 0
0000
0000
0000
0000
,  // measure 1
0000
0000
0000
0000
,  // measure 2
0000
0000
0000
0000
,  // measure 3
0000
0000
0000
0000
,  // measure 4
1000
0000
1000
0000
,  // measure 5
0001
0000
0001
0000
,  // measure 6
0100
0000
0100
0000
,  // measure 7
0020
0000
1030
0000
,  // measure 8
0001
0000
0001
0000
,  // measure 9
0010
0000
0010
0000
,  // measure 10
0100
0000
0010
0000
,  // measure 11
0001
0000
0001
0000
,  // measure 12
1010
0000
0010
0000
,  // measure 13
1000
0000
0100
0000
,  // measure 14
0010
0000
0001
0000
,  // measure 15
0100
0000
0100
0000
,  // measure 16
0010
0000
0010
0000
,  // measure 17
1000
0000
1000
0000
,  // measure 18
0001
0000
0010
0000
,  // measure 19
0002
0000
0103
0000
,  // measure 20
2000
0000
3010
0000
,  // measure 21
0002
0000
0103
0000
,  // measure 22
1000
0000
0010
0000
,  // measure 23
2000
0000
3100
0000
,  // measure 24
0020
0000
0130
0000
,  // measure 25
0002
0000
1003
0000
,  // measure 26
1000
0000
0010
0000
,  // measure 27
0200
0000
0000
0000
,  // measure 28
0310
0000
0010
0000
,  // measure 29
0100
0000
0100
0000
,  // measure 30
0010
0000
1000
0000
,  // measure 31
0002
0000
1003
0000
,  // measure 32
0100
0000
0010
0000
,  // measure 33
0100
0000
0010
0000
,  // measure 34
0200
0000
1300
0000
,  // measure 35
2000
0000
3010
0000
,  // measure 36
0002
0000
0000
0000
,  // measure 37
2003
0000
0000
0000
,  // measure 38
3020
0000
0000
0000
,  // measure 39
0230
0000
0000
0000
,  // measure 40
0320
0000
0000
0000
,  // measure 41
2030
0000
0000
0000
,  // measure 42
3001
0000
0001
0000
,  // measure 43
0100
0000
0000
0000
,  // measure 44
0020
0000
0000
0000
,  // measure 45
2030
0000
0000
0000
,  // measure 46
3001
0000
0001
0000
,  // measure 47
0100
0000
0100
0000
,  // measure 48
0020
0000
0000
0000
,  // measure 49
2030
0000
0000
0000
,  // measure 50
3001
0000
0001
0000
,  // measure 51
0200
0000
0000
0000
,  // measure 52
0310
0000
0010
0000
,  // measure 53
1000
0000
1000
0000
,  // measure 54
0010
0000
1000
0000
,  // measure 55
0020
0000
1030
0000
,  // measure 56
0001
0000
0001
0000
,  // measure 57
1000
0000
1000
0000
,  // measure 58
0100
0000
1000
0000
,  // measure 59
0020
0000
1030
0000
;
