#TITLE:Off The Record;
#SUBTITLE:;
#ARTIST:IVE;
#TITLETRANSLIT:;
#SUBTITLETRANSLIT:;
#ARTISTTRANSLIT:;
#GENRE:;
#CREDIT:;
#BANNER:AV.avi;
#BACKGROUND:bg.png;
#LYRICSPATH:;
#CDTITLE:;
#MUSIC:audio.ogg;
#OFFSET:-0.440000;
#SAMPLESTART:36.840019;
#SAMPLELENGTH:15.000000;
#SELECTABLE:YES;
#BPMS:0.000000=108.000000
;
#STOPS:
;
#BGCHANGES:0.000=MV.avi=1.400=1=0=1===CrossFade==,
3.000=MV.avi=1.000=0=0=1=====,
99999=-nosongbg-=1.000=0=0=0 // don't automatically add -songbackground-
;
#KEYSOUNDS:;
#ATTACKS:;

//---------------dance-single - ----------------
#NOTES:
     dance-single:
     :
     Hard:
     11:
     0.458320,0.588730,0.118531,0.647970,0.327936,406.000000,391.000000,15.000000,82.000000,0.000000,0.000000,0.458320,0.588730,0.118531,0.647970,0.327936,406.000000,391.000000,15.000000,82.000000,0.000000,0.000000:
// measure 0
0000
0000
0000
0000
,  // measure 1
0000
0000
0000
0000
,  // measure 2
0000
0000
0000
0000
,  // measure 3
0000
0000
0000
0000
0000
0000
0000
0000
0000
0000
0100
0000
0001
0000
0100
0001
,  // measure 4
0010
0000
0001
0000
0010
0100
0000
0000
0010
0000
0100
0000
1000
0000
0010
1000
,  // measure 5
0100
0000
1000
0000
0100
0010
0000
0000
0010
0000
0001
0000
1000
0000
0010
0100
,  // measure 6
0001
0000
1000
0000
0001
0000
1000
0100
0010
0000
0001
0000
1000
0000
0010
0100
,  // measure 7
0001
0000
0100
0000
0001
1000
0000
0000
1000
0000
0100
0000
0010
0000
0001
0100
,  // measure 8
0001
0000
1000
0000
0010
1000
0000
0000
1000
0000
0010
0000
1000
0000
0100
0010
,  // measure 9
0001
0000
0010
0000
0001
0010
0000
0000
0010
0000
0001
0000
0010
0000
1000
0010
,  // measure 10
0001
0000
1000
0000
0010
0000
0100
0010
0001
0000
0010
0000
1000
0000
0100
1000
,  // measure 11
0100
0000
0010
0000
0001
0000
0100
0001
0100
0000
0010
1000
0100
0000
1000
0000
,  // measure 12
0001
0000
0010
0001
0010
0000
0100
1000
0100
0000
1000
0000
0010
0000
0100
0000
,  // measure 13
0001
0000
1000
0100
0010
0000
0001
0010
0100
0000
0010
0000
0001
0000
0100
0000
,  // measure 14
0010
0000
1000
0010
1000
0000
0100
0001
0100
0000
0001
0000
1000
0000
0020
0000
,  // measure 15
0032
0023
0230
0301
0020
0000
0032
0000
,  // measure 16
2003
0000
0001
0000
3100
0000
0001
0000
0010
0000
0001
0000
1000
0000
0100
0020
,  // measure 17
0000
0031
0100
0002
0023
0230
2300
3020
,  // measure 18
0230
0000
0320
0000
1030
0000
0000
0000
0110
0000
0100
0000
0001
0000
1000
0001
,  // measure 19
0200
0000
0301
0000
1000
0001
0000
0000
0020
0000
0000
0000
0032
0000
0000
0000
,  // measure 20
2003
0000
0000
0000
3010
0000
1000
0000
0001
0000
0010
0000
1000
0000
0010
0002
,  // measure 21
0000
0100
1003
0100
2000
3020
0032
0023
,  // measure 22
2030
0000
3200
0000
0310
0000
0000
0000
0110
0000
0100
0000
1000
0000
0100
0020
,  // measure 23
0000
0000
0031
0000
0100
0001
0000
0000
0001
0000
0001
0010
0100
1000
0010
1000
,  // measure 24
0002
0000
0103
0001
0200
0000
0301
1000
0001
0000
0010
0100
0000
0200
0000
0000
,  // measure 25
1300
0000
0100
0000
0021
0000
0000
0000
0031
0000
1000
0100
0010
0000
0100
0000
,  // measure 26
0010
0001
1000
0100
0001
0100
1000
0001
1000
0000
0110
0000
0100
0000
1001
0000
,  // measure 27
0010
1100
0001
0110
2020
3030
0002
2003
,  // measure 28
3020
0000
2030
0000
3200
0000
0320
0000
0230
0000
2300
0000
3001
0010
0100
1000
,  // measure 29
0200
0000
2300
0000
3010
0100
2000
0000
3200
0000
0320
0000
2030
0000
0000
0000
,  // measure 30
3001
0010
0100
1000
0100
0010
0001
1000
0010
0000
1010
0000
0100
0000
0001
0010
,  // measure 31
0000
0010
0001
0000
0011
0000
1000
0100
0000
0100
1000
0000
0002
0000
0000
0000
,  // measure 32
2003
0000
0000
0000
,  // measure 33
3200
0000
0000
0000
,  // measure 34
2300
0000
0000
0000
,  // measure 35
3200
0000
0000
0000
,  // measure 36
0302
0000
0023
0000
,  // measure 37
0032
0000
0203
0000
,  // measure 38
0320
0000
2030
0000
,  // measure 39
3002
0000
0003
0000
,  // measure 40
1001
0000
0001
0000
0100
0001
0010
0000
0002
0000
2003
0000
3200
0000
1300
0001
,  // measure 41
0020
0000
0230
0000
2300
0000
3001
0000
1000
0010
1000
0100
0010
0000
0100
0000
,  // measure 42
1000
0000
0010
0000
0001
0000
0000
0000
0110
0000
0001
0000
0010
0000
0100
2000
,  // measure 43
0000
0000
3001
0000
0100
0010
0000
0000
0010
1000
0100
0001
0100
0010
0001
1000
,  // measure 44
0002
0000
0000
0003
1001
0000
0000
0000
2000
0000
3002
0000
0023
0000
0031
1000
,  // measure 45
0200
0000
0320
0000
0032
0000
1003
0000
0001
0100
0001
0010
0100
0000
0010
0000
,  // measure 46
0001
0000
0100
0000
1000
0000
0000
0000
0110
0000
1000
0000
0100
0000
0010
0002
,  // measure 47
0000
0000
1003
0000
0010
0100
0001
0000
0100
0001
0010
0000
0110
0000
0001
0000
,  // measure 48
1000
0010
0100
0001
0100
0010
1000
0100
0010
0002
0000
0000
,  // measure 49
0103
0000
0001
0000
1000
0001
1000
0000
0100
0000
0010
0000
0001
0000
0100
0000
,  // measure 50
0001
0010
1000
0010
0001
1000
0010
0100
0001
0200
0000
0000
,  // measure 51
0310
0100
0001
1000
0200
0000
0320
0000
,  // measure 52
0032
0000
0000
0000
0000
0000
0000
0000
1003
0000
0100
0000
0001
0000
0100
0020
,  // measure 53
0000
0000
0000
0030
0000
0000
0001
0000
0100
0000
0001
0000
0010
0000
1000
0000
,  // measure 54
0010
0000
0002
0000
0000
0003
0000
0000
0100
0000
0001
0000
1000
0000
0010
0200
,  // measure 55
0000
0000
0000
0300
0000
0000
0000
0000
0000
0000
0000
0000
0000
0000
0000
0000
;

//---------------dance-single - ----------------
#NOTES:
     dance-single:
     :
     Medium:
     9:
     0.330758,0.392931,0.110629,0.395104,0.000000,293.000000,279.000000,14.000000,50.000000,0.000000,0.000000,0.330758,0.392931,0.110629,0.395104,0.000000,293.000000,279.000000,14.000000,50.000000,0.000000,0.000000:
// measure 0
0000
0000
0000
0000
,  // measure 1
0000
0000
0000
0000
,  // measure 2
0000
0000
0000
0000
,  // measure 3
0000
0000
0000
0000
0000
0100
0010
0100
,  // measure 4
0001
0010
1000
0010
0001
0000
1001
0000
,  // measure 5
0001
0100
0010
0100
0001
0000
0011
0000
,  // measure 6
0100
0010
0001
0100
0010
0100
0001
1000
,  // measure 7
0100
1000
0001
0010
0100
0000
0011
0000
,  // measure 8
0001
1000
0100
1000
0001
0000
1001
0000
,  // measure 9
0010
0100
0001
0100
0010
0000
0110
0000
,  // measure 10
0001
1000
0100
1000
0001
0010
0100
0010
,  // measure 11
0001
1000
0100
1000
0010
0000
0110
0000
,  // measure 12
0001
0100
1000
0100
0001
0000
0101
0000
,  // measure 13
0001
0010
1000
0010
0001
0000
0011
0000
,  // measure 14
1000
0100
1000
0010
0100
0000
1001
0000
,  // measure 15
0001
0010
0100
0010
0002
0000
0203
0000
,  // measure 16
0320
0000
1030
0000
0001
1000
0100
1000
,  // measure 17
0002
0000
0013
0001
0010
0100
0010
0001
,  // measure 18
1000
0020
0130
0000
0001
0100
0010
0100
,  // measure 19
0002
1003
0002
0203
,  // measure 20
0320
0000
1030
0000
0001
0100
1000
0100
,  // measure 21
0002
0000
1003
0100
1000
0010
0100
0001
,  // measure 22
1000
0200
0310
0000
0001
0010
0100
0010
,  // measure 23
0002
0000
1003
0000
1000
0100
0010
0100
,  // measure 24
1000
0001
0100
0010
1000
0001
1000
0100
,  // measure 25
0010
0001
0002
0000
0103
0001
1000
0010
,  // measure 26
1000
0100
0010
0001
0010
0100
0010
0001
,  // measure 27
1000
0100
1000
0001
0020
0000
0031
0100
,  // measure 28
0001
0100
0010
0100
0001
0001
0010
1000
,  // measure 29
0010
0001
1000
0010
0100
0100
0020
0000
,  // measure 30
1030
0001
0100
0010
0100
0001
1000
0100
,  // measure 31
0010
0010
0110
0001
1000
1000
1001
0000
,  // measure 32
0002
0000
0000
0000
,  // measure 33
0203
0000
0000
0000
,  // measure 34
0302
0000
0000
0000
,  // measure 35
2003
0000
0000
0000
,  // measure 36
3002
0000
0203
0000
,  // measure 37
0320
0000
0230
0000
,  // measure 38
0302
0000
2003
0000
,  // measure 39
3002
0000
0003
0000
,  // measure 40
1000
0000
1001
0000
0001
0100
0010
0100
,  // measure 41
0002
0000
0013
0001
0010
0100
0010
1000
,  // measure 42
0010
0002
1003
0000
0010
0100
0001
0100
,  // measure 43
0020
1030
2000
3200
,  // measure 44
0320
0000
0130
0000
0100
1000
0100
0001
,  // measure 45
0200
0000
0310
0001
0010
1000
0010
0001
,  // measure 46
0100
0020
1030
0000
0001
0100
0010
0100
,  // measure 47
0002
1003
1001
1001
,  // measure 48
0001
1000
0010
1000
0100
0010
0002
0000
,  // measure 49
2003
3002
0023
0032
,  // measure 50
0103
0001
1000
0100
0010
0001
2000
0000
,  // measure 51
3002
0203
0302
0023
,  // measure 52
0032
0000
1003
1000
,  // measure 53
0020
0000
0130
0001
,  // measure 54
0200
0000
0302
0000
,  // measure 55
2003
3000
0000
0000
;

//---------------dance-single - ----------------
#NOTES:
     dance-single:
     :
     Easy:
     3:
     0.206583,0.262547,0.047412,0.260769,0.000000,183.000000,177.000000,6.000000,33.000000,0.000000,0.000000,0.206583,0.262547,0.047412,0.260769,0.000000,183.000000,177.000000,6.000000,33.000000,0.000000,0.000000:
// measure 0
0000
0000
0000
0000
,  // measure 1
0000
0000
0000
0000
,  // measure 2
0000
0000
0000
0000
,  // measure 3
0000
0000
0000
0000
,  // measure 4
0100
0001
0100
0101
,  // measure 5
0001
0010
0001
1001
,  // measure 6
0100
0001
0010
0001
,  // measure 7
1000
0010
1000
1010
,  // measure 8
0001
0100
0001
0101
,  // measure 9
0001
1000
0001
0011
,  // measure 10
0100
0010
0001
1000
,  // measure 11
0010
0100
0010
1010
,  // measure 12
0001
0000
0100
0000
0001
0100
0001
0000
,  // measure 13
0010
0100
1000
0001
,  // measure 14
0100
0000
0010
0000
1000
0001
1000
0000
,  // measure 15
0010
0100
0002
0000
,  // measure 16
0013
0000
0001
0000
0100
0001
0100
0000
,  // measure 17
0010
0000
1000
0000
0100
1000
0001
0000
,  // measure 18
0100
0010
1000
1000
,  // measure 19
0002
0103
0010
1000
,  // measure 20
0002
0103
0001
1000
,  // measure 21
0020
0130
1000
0100
,  // measure 22
1000
0001
0010
0100
,  // measure 23
2000
3001
0100
0001
,  // measure 24
1000
0000
1000
0000
0001
1000
0001
0000
,  // measure 25
0200
0310
0020
0130
,  // measure 26
0001
1000
0001
0000
1000
0001
1000
0000
,  // measure 27
0001
0010
0002
0103
,  // measure 28
0001
1000
0010
0000
0002
0000
1003
0000
,  // measure 29
0100
1000
0100
0000
2000
0000
3100
0000
,  // measure 30
0002
1003
0200
0310
,  // measure 31
0020
1030
2000
0000
,  // measure 32
3002
0000
0000
0000
,  // measure 33
2003
0000
0000
0000
,  // measure 34
3020
0000
0000
0000
,  // measure 35
0230
0000
0000
0000
,  // measure 36
0320
0000
0000
0000
,  // measure 37
2030
0000
0000
0000
,  // measure 38
3002
0000
0000
0000
,  // measure 39
0203
0000
0300
0000
,  // measure 40
0100
0000
0100
0100
,  // measure 41
0020
0000
1030
1000
,  // measure 42
0002
0000
0103
0100
,  // measure 43
0002
0000
0013
0001
,  // measure 44
2000
3001
0100
0001
,  // measure 45
0020
0031
1000
0010
,  // measure 46
1000
0001
0100
0010
,  // measure 47
2000
3001
0002
0103
,  // measure 48
0100
0010
1000
0001
,  // measure 49
0010
0100
1000
0001
,  // measure 50
1000
0010
1000
0000
0001
0100
0001
0000
,  // measure 51
0010
0001
1000
0010
,  // measure 52
2000
0000
0000
0000
,  // measure 53
3020
0000
0000
0000
,  // measure 54
0230
0000
0000
0000
,  // measure 55
0302
0000
0000
0003
0000
0000
0000
0000
;

//---------------dance-single - ----------------
#NOTES:
     dance-single:
     :
     Beginner:
     1:
     0.130949,0.152806,0.000000,0.260769,0.000000,116.000000,116.000000,0.000000,33.000000,0.000000,0.000000,0.130949,0.152806,0.000000,0.260769,0.000000,116.000000,116.000000,0.000000,33.000000,0.000000,0.000000:
// measure 0
0000
0000
0000
0000
,  // measure 1
0000
0000
0000
0000
,  // measure 2
0000
0000
0000
0000
,  // measure 3
0000
0000
0000
0000
,  // measure 4
1000
0010
1000
0000
,  // measure 5
0001
1000
0001
0000
,  // measure 6
0100
0100
0010
0000
,  // measure 7
1000
0001
1000
0000
,  // measure 8
0001
0100
0001
0000
,  // measure 9
1000
0010
1000
0000
,  // measure 10
0100
0001
0100
0000
,  // measure 11
0010
1000
0010
0000
,  // measure 12
1000
1000
0001
0000
,  // measure 13
0100
0001
0100
0000
,  // measure 14
0001
0010
0001
0000
,  // measure 15
2000
0000
3010
0000
,  // measure 16
0100
0010
0100
0000
,  // measure 17
0002
0000
1003
0000
,  // measure 18
0100
1000
0010
0000
,  // measure 19
2000
0000
3002
0000
,  // measure 20
0203
0000
0301
0100
,  // measure 21
0002
0000
0013
0001
,  // measure 22
0020
0000
0032
0000
,  // measure 23
2003
0000
3010
0000
,  // measure 24
0100
0010
1000
0000
,  // measure 25
0001
1000
0001
0000
,  // measure 26
0100
0001
0010
0000
,  // measure 27
0010
0001
2000
0000
,  // measure 28
3002
0000
0203
0000
,  // measure 29
0302
0000
0023
0000
,  // measure 30
0032
0000
2003
0000
,  // measure 31
3020
0000
0230
0000
,  // measure 32
0320
0000
0000
0000
,  // measure 33
0000
0000
0000
0000
,  // measure 34
2030
0000
0000
0000
,  // measure 35
0000
0000
0000
0000
,  // measure 36
3002
0000
0000
0000
,  // measure 37
0203
0000
0000
0000
,  // measure 38
0320
0000
0000
0000
,  // measure 39
0230
0000
0300
0000
,  // measure 40
0001
1000
0001
0000
,  // measure 41
0100
0010
0100
0000
,  // measure 42
1000
0001
0010
0000
,  // measure 43
2000
0000
3001
0000
,  // measure 44
0100
0001
0010
0000
,  // measure 45
0002
0000
1003
0000
,  // measure 46
1000
0010
1000
0000
,  // measure 47
0200
0000
0301
0000
,  // measure 48
1000
0010
1000
0000
,  // measure 49
0002
0000
1003
0000
,  // measure 50
0010
0100
0010
0000
,  // measure 51
0002
0000
1003
0000
,  // measure 52
2000
0000
0000
0000
,  // measure 53
3002
0000
0000
0000
,  // measure 54
0203
0000
0000
0000
,  // measure 55
0320
0030
0000
0000
;
